#TITLE:Amazing Nurse Nanako;
#SUBTITLE:- Nanako No Sentaku;
#ARTIST:Maria Yamamoto;
#TITLETRANSLIT:;
#SUBTITLETRANSLIT:;
#ARTISTTRANSLIT:;
#CREDIT:Anime Toshokan;
#BANNER:Amazing Nurse Nanako - Nanako No Sentaku.png;
#BACKGROUND:Amazing Nurse Nanako - Nanako No Sentaku bg.png;
#LYRICSPATH:;
#CDTITLE:dejiko.png;
#MUSIC:Amazing Nurse Nanako - Nanako No Sentaku.mp3;
#OFFSET:2.477;
#SAMPLESTART:55.110;
#SAMPLELENGTH:13.600;
#SELECTABLE:YES;
#DISPLAYBPM:142.000;
#BPMS:0.000=36.000,8.500=142.000;
#STOPS:;
#BGCHANGES:7.750=Amazing Nurse Nanako - Nanako No Sentaku.avi=1.000=0=0=1,
204.500=Amazing Nurse Nanako - Nanako No Sentaku ng=1.000=0=0=1,
205.500=Amazing Nurse Nanako - Nanako No Sentaku bg.png=1.000=0=0=1,
99999=-nosongbg-=1.000=0=0=0 // don't automatically add -songbackground-
;
// cache tags:
#FIRSTBEAT:6.000;
#LASTBEAT:205.500;
#SONGFILENAME:Songs/DDR Anime 3rd Mix/Amazing Nurse Nanako - Nanako No Sentaku/Amazing Nurse Nanako - Nanako No Sentaku.sm;
#HASMUSIC:1;
#HASBANNER:1;
#MUSICLENGTH:96.786;
// end cache tags

//---------------dance-single - BASIC----------------
#NOTES:
     dance-single:
     BASIC:
     Easy:
     3:
     0.251,0.292,0.124,0.031,0.000,155.000,12.000,3.000,0.000,0.000:
0000
0000
0000
0000
,
0000
0000
0000
0000
,
0000
0010
0100
0000
,
0010
0100
1001
1001
,
0000
0001
0001
1000
,
1000
0010
0000
0001
,
0001
1000
1000
0100
,
0000
0001
0010
0001
,
1000
0100
0000
0010
,
0001
0100
0100
1000
,
0000
0010
1000
0100
,
0001
0100
0000
1000
,
0100
0010
0001
1000
,
0100
0010
0001
1000
,
0100
0010
0001
0001
,
1000
0001
1000
0001
,
1000
0001
0001
1000
,
1000
0100
0100
0100
,
0100
0100
0100
0100
,
0000
0000
0000
0000
,
0001
0001
0001
0001
,
0001
0000
0000
0000
,
1000
1000
1000
1000
,
1000
0000
0000
0000
,
0010
0010
0010
0010
,
0010
0000
0000
1001
,
0000
0100
0001
1000
,
0100
0000
1001
1001
,
1000
1000
1000
1000
,
0001
0001
0001
0001
,
0100
0100
0100
0100
,
0010
0010
0010
0010
,
0000
0100
0010
0100
,
1000
0001
0010
1000
,
0100
0001
0010
0100
,
0000
1001
0110
1001
,
0100
1000
0100
0010
,
0001
0100
0001
0010
,
0010
0100
0100
0001
,
0010
0100
1000
0100
,
0010
0001
0010
0100
,
0010
0000
0100
0000
0010
0000
0000
0020
,
0000
0000
0000
0030
0000
0000
0000
0000
,
0000
0000
0000
0000
,
0000
0010
1000
0100
,
0001
0100
1000
0010
,
0001
0100
1000
0010
,
0100
0010
1000
0100
,
1001
0000
0000
0000
,
0000
0000
0110
0110
,
0000
2002
0000
0000
,
0000
0000
0000
3003
0000
0000
0000
0000
;

//---------------dance-single - ANOTHER----------------
#NOTES:
     dance-single:
     ANOTHER:
     Medium:
     4:
     0.300,0.292,0.248,0.103,0.000,169.000,24.000,10.000,0.000,0.000:
0000
0000
0000
0000
,
0000
0000
0000
0000
0200
0000
0000
0300
,
0000
0100
0110
0000
,
0010
0110
1001
1001
,
0000
0010
0001
1000
,
1000
0100
0010
0001
,
0001
0010
0100
1000
,
1000
0100
0010
0001
,
0010
1000
0100
0010
,
0001
0010
0001
1000
,
0100
1000
0010
0100
,
0010
0100
0010
1000
,
0100
0010
0001
0100
,
0100
1000
1000
0001
,
0001
1000
1000
0001
,
0001
1000
1000
0001
,
1000
0001
0001
1000
,
1000
0100
1000
0100
,
1000
0100
0001
0100
,
0001
0100
0000
0000
,
1001
0100
0010
0100
,
0010
0100
0010
1001
,
0010
0100
0010
0100
,
0010
0100
1001
1000
,
0100
0001
0100
1000
,
0110
0000
0000
0011
0000
0000
0000
1010
,
0000
2000
0000
0000
3000
0000
0000
0002
,
0000
0003
0101
1100
,
1000
0100
1000
1000
,
0001
0100
0001
0001
,
0100
0010
0100
1000
,
0001
1000
1001
0000
,
0010
0100
0010
0100
,
1000
0010
0001
2002
,
3003
0000
0000
0000
,
1001
0110
1001
0110
,
0100
0001
1000
0001
,
0010
0100
1000
0010
,
0001
0100
0001
0100
,
1000
0001
1000
0100
,
0010
0100
0010
0100
,
0010
0000
0100
0000
0010
0000
0000
0220
,
0000
0000
0000
0330
,
1100
0000
0101
0000
,
1001
0010
1000
0100
,
0001
0010
1000
0100
,
0001
0010
1000
0100
,
0001
0010
1000
0100
,
0000
0002
0000
0000
0003
0000
0000
2000
,
0000
3000
0101
0101
,
0000
0200
0000
0000
,
0000
0000
0000
0300
0000
0000
0000
0000
;

//---------------dance-single - MANIAC----------------
#NOTES:
     dance-single:
     MANIAC:
     Hard:
     7:
     0.437,0.451,0.258,0.103,0.010,261.000,25.000,10.000,0.000,0.000:
0000
0000
0000
0000
,
0000
0000
0000
0000
0220
0000
0000
0330
,
0000
0101
0000
0000
0010
0000
0000
0000
0100
0000
0000
0000
0001
0000
0000
0000
0100
0000
0000
0000
0000
0000
0000
0000
0000
0000
0000
0000
1000
0000
0000
0000
,
0010
1000
0100
0000
0110
0000
0110
0000
,
0000
0000
0010
0000
0001
0000
1000
0100
,
1000
0000
0100
0000
0010
0000
0001
0100
,
0001
0000
0010
0000
0100
0000
1000
0100
,
0010
0000
0001
0000
0010
0000
0001
0010
,
0100
0000
1000
0000
0100
0000
0010
0010
,
0001
0000
0100
0000
0100
0000
1000
0010
,
0100
0000
0010
0000
0010
0000
0100
0010
,
0001
0000
0100
0000
0010
0000
1000
0100
,
0100
0000
0100
0010
0100
0000
0100
0010
,
0100
0000
1000
0100
1000
0000
1000
0100
,
1000
0000
0001
0010
0001
0000
0001
0010
,
0001
0000
1000
0010
1000
0000
1000
0010
,
1000
0000
0001
0010
0001
0000
0001
0010
,
0001
0000
0100
0100
1000
0000
0100
0100
,
1000
0000
0100
0100
0001
0000
0100
0100
,
0001
0110
0100
0110
0000
0000
0000
0000
,
2001
0100
0001
0100
,
0001
0100
0001
3001
,
1002
0100
1000
0100
,
1000
0100
1000
1003
,
0120
0001
1000
0031
,
0110
0000
0000
1000
0001
0000
0100
0000
0000
0000
0010
0000
0010
0000
0010
0000
,
0000
1000
0100
0001
0001
0000
0000
0001
,
0100
1000
1000
0000
1001
0000
1001
0000
,
1000
0100
1000
0100
1000
0100
1000
0100
,
0001
0100
0001
0100
0001
0100
0001
0010
,
0100
0010
0100
0010
0100
0010
1000
0001
,
1000
0001
1000
0001
1000
0000
0000
0010
,
0100
1000
0100
0001
0010
0100
1000
0100
,
1000
0100
0010
0001
0010
0100
1000
0001
,
0000
0000
0000
0000
0000
0100
0100
0200
,
0000
0300
0000
0000
1100
0000
0000
0000
0101
0000
0000
0000
1001
0000
0000
0000
,
0100
0001
0100
0010
0100
1000
0100
0000
,
0100
0001
0100
0010
1000
0100
0010
0000
,
0010
0010
0100
1000
0010
0100
0100
0000
,
0010
0001
0100
0100
1000
0010
0100
0000
,
0010
0010
0100
0001
0010
0100
0100
0000
,
0100
0010
0100
1000
0100
0010
0010
0220
,
0000
0000
0000
0330
,
0010
0000
0100
0100
0000
0001
0100
0001
,
0000
0110
1000
0110
,
0001
0110
1000
0110
,
0001
0110
1000
0110
,
0001
0110
1000
0110
,
0000
0001
0010
0100
1000
0000
0000
0001
,
0010
0100
1000
0000
0100
0000
0100
0000
,
0000
2002
0000
0000
,
0000
0000
0000
3003
0000
0000
0000
0000
;

//---------------dance-single - BEGINNER----------------
#NOTES:
     dance-single:
     BEGINNER:
     Beginner:
     2:
     0.134,0.179,0.072,0.000,0.000,84.000,7.000,0.000,0.000,0.000:
0000
0000
0000
0000
,
0000
0000
0000
0000
,
0000
0000
0100
0000
,
0010
0000
1001
0000
,
0001
0000
0000
0000
,
1000
0000
0000
0001
,
0001
0000
1000
0000
,
0000
0001
0010
0000
,
1000
0000
0000
0010
,
0001
0000
0100
0000
,
0000
0010
1000
0000
,
0001
0000
0000
1000
,
0100
0000
0001
0000
,
0100
0000
0001
0000
,
0100
0000
0001
0000
,
1000
0000
1000
0000
,
1000
0000
0001
0000
,
1000
0000
0100
0000
,
0100
0000
0100
0000
,
0000
0000
0000
0000
,
0001
0000
0001
0000
,
0001
0000
0000
0000
,
1000
0000
1000
0000
,
1000
0000
0000
0000
,
0010
0000
0010
0000
,
0010
0000
1001
0000
,
0000
0100
0001
0000
,
0100
0000
1001
0000
,
1000
0000
1000
0000
,
0001
0000
0001
0000
,
0100
0000
0100
0000
,
0010
0000
0010
0000
,
0000
0100
0010
0000
,
1000
0000
0010
0000
,
0100
0000
0010
0000
,
0000
1001
0110
0000
,
0100
0000
0100
0000
,
0001
0000
0001
0000
,
0010
0000
0100
0000
,
0010
0000
1000
0000
,
0010
0000
0010
0000
,
0010
0000
0010
0000
,
0000
0000
0000
0000
,
0000
0000
0000
0000
,
0000
0010
1000
0000
,
0001
0000
1000
0000
,
0001
0000
1000
0000
,
0100
0000
1000
0000
,
1001
0000
0000
0000
,
0000
0000
0110
0000
;
