#TITLE:Excel Saga;
#SUBTITLE:- Excel's Theme;
#ARTIST:Victor Entertainment;
#TITLETRANSLIT:;
#SUBTITLETRANSLIT:;
#ARTISTTRANSLIT:;
#CREDIT:Anime Toshokan;
#BANNER:Excel Saga - Excel's Theme.png;
#BACKGROUND:Excel Saga - Excel's Theme bg.png;
#LYRICSPATH:;
#CDTITLE:dejiko.png;
#MUSIC:Excel Saga - Excel's Theme.mp3;
#OFFSET:-0.205;
#SAMPLESTART:21.550;
#SAMPLELENGTH:13.600;
#SELECTABLE:YES;
#BPMS:0.000=280.000,300.000=140.000,340.250=280.000;
#STOPS:;
#BGCHANGES:;
// cache tags:
#FIRSTBEAT:10.000;
#LASTBEAT:487.917;
#SONGFILENAME:Songs/DDR Anime 1st Mix/Excel Saga - Excel's Theme/Excel Saga - Excel's Theme.sm;
#HASMUSIC:1;
#HASBANNER:1;
#MUSICLENGTH:117.211;
// end cache tags

//---------------dance-single - CHALLENGE----------------
#NOTES:
     dance-single:
     CHALLENGE:
     Challenge:
     10:
     0.817,1.000,0.478,0.478,0.226,558.000,56.000,56.000,0.000,0.000:
0000
0000
0000
0000
,
0000
0000
0000
0000
,
0000
0000
0000
0000
0000
0000
0000
0000
0000
0000
0000
0000
0000
0000
0000
0000
0000
0000
0000
0000
0000
0000
0000
0000
2002
0000
0000
0000
0000
0000
0000
0000
0000
0000
0000
3003
0000
0000
0000
0000
0000
0000
0000
0000
0000
0000
0000
0000
,
0000
0000
0000
0000
,
0000
0000
0000
0000
0000
0000
0000
0000
0000
0000
0000
0000
0000
0000
0000
0000
0000
0000
0000
0000
0000
0000
0000
0000
0220
0000
0000
0000
0000
0000
0000
0000
0000
0000
0000
0330
0000
0000
0000
0000
0000
0000
0000
0000
0000
0000
0000
0000
,
1000
0000
0000
0000
0000
0000
0000
0000
0000
0000
0000
0000
0001
0000
0000
0000
0000
0000
2200
0000
0000
0000
0000
0000
0000
0000
0000
0000
0000
0000
0000
0000
0000
0000
0000
3300
0000
0000
0000
0000
0000
0000
0000
0000
0000
0000
0000
0000
,
0010
0000
0000
0000
0000
0000
0000
0000
0000
0000
0000
0000
0100
0000
0000
0000
0000
0000
0022
0000
0000
0000
0000
0000
0000
0000
0000
0000
0000
0000
0000
0000
0000
0000
0000
0033
0000
0000
0000
0000
0000
0000
0000
0000
0000
0000
0000
0000
,
1010
1100
0101
0011
,
2002
0000
0000
0000
0000
0000
0000
0000
0000
0000
0000
0000
0000
0000
0000
0000
0000
0000
0000
0000
0000
0000
0000
3003
0000
0000
0000
0000
0000
0000
0000
0000
0000
0000
0000
0000
0000
0000
0000
0000
0000
0000
0000
0000
0000
0000
0000
0000
,
1000
0000
0100
0010
0000
0001
0100
0000
,
0001
0000
0010
0100
0000
1000
0001
0000
,
1000
0000
0100
0010
0000
0001
0100
0000
,
0001
0000
0010
0001
0000
1000
0100
1000
,
0100
0000
0010
0001
0000
1000
0100
0000
,
0010
0000
1000
0010
0000
0001
0010
0000
,
0001
0000
0100
0010
0000
1000
0100
0000
,
1000
0000
0001
1000
0000
0010
0100
0010
,
1000
0000
0100
0010
0000
0001
1000
0000
,
0010
0000
0100
1000
0000
0100
0001
0000
,
0100
0000
1000
0010
0000
0100
0001
0000
,
0010
0000
0001
0010
0000
0001
0100
0000
,
0010
0000
1000
0010
0000
0100
0001
0000
,
0010
0000
0001
0100
0000
0010
1000
0000
,
0001
0000
1000
0001
0000
0100
0010
0000
,
0220
0000
0000
0000
0000
0000
0000
0000
0000
0000
0000
0000
0000
0000
0000
0000
0000
0000
0000
0000
0000
0000
0000
0330
0000
0000
0000
0000
0000
0000
0000
0000
0000
0000
0000
0000
0000
0000
0000
0000
0000
0000
0000
0000
0000
0000
0000
0000
,
0100
0000
0010
0100
0000
0100
0001
0000
,
0001
0000
1000
0001
0000
0001
0010
0000
,
0010
0000
0100
0010
0000
0010
1000
0000
,
1000
0000
0001
1000
0000
0001
1000
0000
,
0010
0000
1000
0010
0000
0010
1000
0000
,
1000
0000
0100
1000
0000
1000
0100
0000
,
0100
0000
0001
0100
0000
0100
0001
0000
,
0001
0000
0010
0001
0000
0001
0010
0000
,
0001
0000
1000
0100
0000
0010
0001
0000
,
1000
0000
0001
0100
0000
0010
1000
0000
,
0001
0000
1000
0010
0000
0100
0001
0000
,
1000
0000
0001
0010
0000
0100
1000
0000
,
0001
0000
1000
0010
0000
0010
0100
0000
,
0001
0000
1000
0100
0000
0100
0010
0000
,
0001
0000
0000
0011
0000
1000
0000
0001
,
2002
0000
0000
0000
0000
0000
0000
0000
0000
0000
0000
0000
0000
0000
0000
0000
0000
0000
0000
0000
0000
0000
0000
3003
0000
0000
0000
0000
0000
0000
0000
0000
0000
0000
0000
0000
0000
0000
0000
0000
0000
0000
0000
0000
0000
0000
0000
0000
,
0010
0000
0100
0000
0000
0000
1000
0001
,
1000
0000
0001
0000
0000
0000
0010
0001
,
0010
0001
1000
0202
,
0000
0000
0000
0000
0000
0000
0000
0000
0000
0000
0000
0000
0000
0000
0000
0000
0000
0000
0000
0000
0000
0000
0000
0303
0000
0000
0000
0000
0000
0000
0000
0000
0000
0000
0000
0000
0000
0000
0000
0000
0000
0000
0000
0000
0000
0000
0000
0000
,
0010
0000
1000
0000
0000
0000
0010
1000
,
0010
0000
0100
0000
0000
0000
0010
0001
,
0022
0000
0000
0000
0000
0033
0000
0000
0000
0000
0000
0000
0000
0000
0000
0000
0000
0000
2002
0000
0000
0000
0000
3003
0000
0000
0000
0000
0000
0000
0000
0000
0000
0000
0000
0000
2020
0000
0000
0000
0000
0000
0000
0000
0000
0000
0000
0000
,
0000
0000
0000
0000
0000
0000
0000
0000
0000
0000
0000
0000
0000
0000
0000
0000
0000
0000
0000
0000
0000
0000
0000
3030
0000
0000
0000
0000
0000
0000
0000
0000
0000
0000
0000
0000
0000
0000
0000
0000
0000
0000
0000
0000
0000
0000
0000
0000
,
1001
0000
0000
0100
0000
0000
0001
0000
,
1001
0100
0010
0001
,
0010
0001
0010
0220
,
0000
0000
0000
0000
0000
0330
0000
0000
0000
0000
0000
0000
1000
0000
0000
0000
0000
0000
0000
0000
0000
0000
0000
0000
0001
0000
0000
0000
0000
0000
0000
0000
0000
0000
0000
0000
1000
0000
0000
0000
0000
0000
0000
0000
0000
0000
0000
0000
,
2002
0000
0000
0000
,
0000
0000
0000
0000
0000
0000
0000
0000
0000
0000
0000
0000
0000
0000
0000
0000
0000
0000
0000
0000
0000
0000
0000
3003
0000
0000
0000
0000
0000
0000
0000
0000
0000
0000
0000
0000
0000
0000
0000
0000
0000
0000
0000
0000
0000
0000
0000
0000
,
0000
0000
0000
0000
0000
0000
0000
0000
1000
0000
0000
0000
0000
0000
0000
0001
0000
0000
0000
0000
0000
0000
0000
0000
1001
0000
0000
0000
0000
0000
0000
0000
0000
0000
0000
0000
0000
0000
0000
0000
0000
0010
0000
0000
0000
0000
0000
0000
,
0100
0000
0000
0000
0000
0000
0000
0000
0000
0110
0000
0000
0000
0000
0000
0000
0000
0000
0000
0000
0000
0000
0000
0000
0000
0000
1100
0000
0000
0000
0000
0000
0000
0000
0000
0101
0000
0000
0000
0000
0000
0000
1001
0000
0000
0000
0000
0000
,
0000
0000
0000
0000
,
0000
0000
0000
0000
,
1000
0000
0010
0100
0000
0001
0010
0000
,
0100
0000
1000
0001
0000
1000
0010
1000
,
0001
0000
0100
0010
0000
1000
0100
0000
,
0010
0000
0001
1000
0000
0001
0100
0001
,
1000
0000
0100
0001
0000
0100
1000
0000
,
0010
0000
0001
0100
0000
0001
1000
0100
,
0001
0000
0100
1000
0000
0100
0001
0000
,
0010
0000
1000
0100
0000
1000
0001
0100
,
1000
0000
0100
0010
0000
0001
0100
0010
,
0100
0000
0001
1000
0000
0010
1000
0100
,
0010
0000
0001
1000
0000
0001
0100
0001
,
1000
0000
0100
1000
0000
0001
0010
0001
,
0100
0000
0001
0100
0000
0010
1000
0010
,
1000
0000
0100
0010
0001
0010
0100
1000
,
0001
0000
0000
0101
0000
1100
0000
0010
,
0220
0000
0000
0000
0000
0000
0000
0000
0000
0000
0000
0000
0000
0000
0000
0000
0000
0000
0000
0000
0000
0000
0000
0330
0000
0000
0000
0000
0000
0000
0000
0000
0000
0000
0000
0000
0000
0000
0000
0000
0000
0000
0000
0000
0000
0000
0000
0000
,
0000
1000
0100
1000
0100
0000
1000
0000
0100
0000
0100
0000
1000
0000
0000
0001
,
0000
0100
0001
0100
0001
0000
0100
0000
0001
0000
0001
0000
0100
0000
0000
0010
,
0000
1000
0010
1000
0001
0000
1000
0000
0010
0000
1000
0000
0100
0000
0000
0110
,
0000
0010
0100
0010
0100
0000
0010
0000
0110
0000
1001
0000
0110
0000
1001
0000
,
0000
0001
0100
0001
0100
0000
0001
0000
0100
0000
0100
0000
0001
0000
0000
1000
,
0000
0100
1000
0100
1000
0000
0100
0000
1000
0000
1000
0000
0100
0000
0000
1000
,
0000
0000
0000
1000
0000
0000
0000
0000
0000
0001
0000
0000
1000
0000
0000
0000
0000
0001
0000
0000
0000
1000
0000
0000
0000
0000
0000
0001
0000
0000
0000
0000
0000
1000
0000
0000
0001
0000
0000
0000
0000
1000
0000
0000
0000
0001
0000
0000
,
1001
0000
0000
0000
0000
0000
0000
0000
0000
1000
0000
0000
0000
0000
0000
0001
0000
0000
0000
0000
0000
0001
0000
0000
0220
0000
0000
0000
0000
0000
0000
0000
0000
0000
0000
0330
0000
0000
0000
0000
0000
0000
0000
0000
0000
0000
0000
0000
,
0220
0000
0000
0000
0000
0330
0000
0000
0000
0010
0000
0000
0000
0000
0000
0100
0000
0000
0000
0000
0000
0100
0000
0000
2002
0000
0000
0000
0000
0000
0000
0000
0000
0000
0000
3003
0000
0000
0000
0000
0000
0000
0000
0000
0000
0000
0000
0000
,
2002
0000
0000
0000
0000
3003
0000
0000
0000
0000
0000
0000
1000
0000
0000
0100
0000
0000
0010
0000
0000
0001
0000
0000
1000
0000
0000
0100
0000
0000
0010
0000
0000
0001
0000
0000
1000
0000
0000
0100
0000
0000
0010
0000
0000
0001
0000
0000
,
1000
0000
0100
0010
0000
0100
1000
0000
,
0001
0000
0010
0100
0000
0010
0001
1000
,
0001
0000
0100
0001
0000
1000
0100
0000
,
0010
0000
0100
0010
0000
0001
1000
0100
,
1000
0000
0010
0100
0000
0010
0001
0000
,
0010
0000
0100
0010
0000
1000
0100
1000
,
0001
0000
1000
0010
0000
1000
0001
0000
,
1000
0000
0100
0010
0000
0001
0010
0100
,
0010
0000
0100
1000
0000
0001
0100
0010
,
1000
0000
0100
1000
0000
0010
0100
0001
,
0010
0000
0100
1000
0000
0001
0010
0100
,
0001
0000
0100
1000
0000
0001
0010
0100
,
1000
0000
0001
1000
0000
0010
0100
0001
,
0010
0000
0001
0010
0000
0100
0010
0001
,
1000
0000
0001
1000
0000
0001
1000
0000
,
2002
0000
0000
0000
0003
0001
0000
0000
0000
0001
0000
0000
3000
0000
0000
0000
,
1000
0000
0100
0001
0000
0010
1000
0000
,
0100
0000
0001
0010
0000
1000
0100
0000
,
0001
0000
0010
1000
0000
0100
0001
0000
,
0010
0000
1000
0100
0000
0001
0010
0000
,
1000
0000
0100
0001
0000
0010
1000
0000
,
0100
0000
0001
0010
0000
1000
0100
0000
,
0001
0000
0010
1000
0000
0100
0001
0000
,
0010
0000
1000
0100
0000
0001
0010
0000
,
1001
0000
0000
0110
0000
0000
1010
0000
,
0101
0000
0000
0011
0000
0000
1001
0000
,
0220
0000
0000
0000
0000
0330
0000
0000
0000
0000
0000
0000
0000
0000
0000
0000
0000
0000
2020
0000
0000
0000
0000
3030
0000
0000
0000
0000
0000
0000
0000
0000
0000
0000
0000
0000
0022
0000
0000
0000
0000
0033
0000
0000
0000
0000
0000
0000
,
0202
0000
0000
0000
0000
0303
0000
0000
0000
0000
0000
0000
0000
0000
0000
0000
0000
0000
0220
0000
0000
0000
0000
0330
0000
0000
0000
0000
0000
0000
0000
0000
0000
0000
0000
0000
2020
0000
0000
0000
0000
3030
0000
0000
0000
0000
0000
0000
,
1000
0000
0100
0010
0001
0100
0010
1000
,
0001
0000
0100
0010
1000
0100
0010
0001
,
2001
0000
0001
0001
0000
0001
0000
0001
,
0002
0000
0000
0000
0000
0000
0000
0000
0000
0000
0000
0000
0000
0000
0000
0000
0000
0000
0000
0000
0000
0000
0000
3003
0000
0000
0000
0000
0000
0000
0000
0000
0000
0000
0000
0000
0000
0000
0000
0000
0000
0000
0000
0000
0000
0000
0000
0000
,
0000
0000
0000
0000
0000
0000
0000
0000
1000
0000
0000
0000
0000
0000
0000
0001
0000
0000
0000
0000
0000
0000
0000
0000
1000
0000
0000
0000
0000
0000
0000
0000
0000
0000
0000
0000
0000
0000
0000
0000
0000
0010
0000
0000
0000
0000
0000
0000
,
0100
0000
0000
0000
0000
0000
0000
0000
0000
0010
0000
0000
0000
0000
0000
0000
0000
0000
0000
0000
0000
0000
0000
0000
0000
0000
0010
0000
0000
0000
0000
0000
0000
0000
0000
1000
0000
0000
0000
0000
0000
0000
2020
0000
0000
0000
0000
0000
,
0000
0000
0000
0000
,
0000
0000
0000
0000
0000
0000
0000
0000
0000
0000
0000
0000
0000
0000
0000
0000
0000
3030
0000
0000
0000
0000
0000
0000
0000
0000
0000
0000
0000
0000
0000
0000
1010
0000
0000
0000
0000
0000
0000
0000
0000
0101
0000
0000
0000
0000
0000
0000
,
2002
0000
0000
0000
0000
0000
0000
0000
0000
0000
0000
0000
0000
0000
0000
0000
0000
0000
0000
0000
0000
0000
0000
0000
0000
0000
0000
0000
0000
0000
0000
0000
0000
0000
0000
0000
0000
0000
0000
0000
0000
0000
0000
0000
0000
0000
0000
3003
;
