#TITLE:DiSCONNECTED HaZaRD;
#SUBTITLE:;
#ARTIST:DM Ashura;
#TITLETRANSLIT:;
#SUBTITLETRANSLIT:;
#ARTISTTRANSLIT:;
#CREDIT:;
#BANNER:hazard.png;
#BACKGROUND:hazard-bg.png;
#LYRICSPATH:;
#CDTITLE:;
#MUSIC:DiSCONNECTED HaZaRD.mp3;
#OFFSET:-4.659;
#SAMPLESTART:9.190;
#SAMPLELENGTH:18.252;
#SELECTABLE:YES;
#BPMS:0.000=105.000,8.000=210.000,72.000=105.000,88.000=210.000,221.000=105.000,237.000=209.999;
#STOPS:152.000=0.857
;
#BGCHANGES:;
// cache tags:
#FIRSTBEAT:0.000;
#LASTBEAT:244.000;
#SONGFILENAME:Songs/StepMix 1/DiSCONNECTED HaZaRD/hazard.sm;
#HASMUSIC:1;
#HASBANNER:1;
#MUSICLENGTH:87.823;
// end cache tags

//---------------dance-single - ----------------
#NOTES:
     dance-single:
     :
     Hard:
     9:
     0.678,0.729,0.808,0.023,0.000,344.000,71.000,2.000,0.000,0.000:  // measure 1
1000
0001
0100
0000
0001
1000
0100
0000
,  // measure 2
0010
0001
1000
1000
0010
0100
0001
0000
,  // measure 3
1000
0000
1100
0000
0001
0010
0000
0010
,  // measure 4
0100
0000
1001
0000
0001
0100
0010
0000
,  // measure 5
1000
0000
0101
0000
1000
0100
0000
0001
,  // measure 6
0100
0000
1001
0000
1000
0010
0100
0000
,  // measure 7
0001
0110
1000
0110
,  // measure 8
0001
1000
0010
0100
0001
1000
0010
0000
,  // measure 9
0100
0011
0100
1010
,  // measure 10
0001
0100
0010
1000
0001
0100
0010
0000
,  // measure 11
1000
0101
1000
0110
,  // measure 12
0001
0100
0010
1000
0100
0010
0001
0000
,  // measure 13
1000
0101
0010
1100
,  // measure 14
0001
0100
0100
0010
1000
1000
1000
0000
,  // measure 15
0100
0011
0100
1010
,  // measure 16
0001
0100
0010
1000
0100
0010
0001
0000
,  // measure 17
0010
1100
0010
0101
,  // measure 18
1000
0010
0100
0001
0001
0001
0001
0000
,  // measure 19
0010
1100
1001
0100
0010
0010
1001
0000
,  // measure 20
0001
0010
1100
0010
0001
1010
0101
0000
,  // measure 21
1000
0010
0101
0010
1000
0001
0110
0000
,  // measure 22
1000
0010
0101
0010
0100
0100
1010
0000
,  // measure 23
0001
0000
1000
0100
0000
0001
0100
0010
,  // measure 24
0100
1100
1001
0101
,  // measure 25
1000
0000
0001
0010
0000
1000
0010
0100
,  // measure 26
0010
1000
0110
0001
,  // measure 27
1000
0000
0010
0100
0000
0001
0010
0100
,  // measure 28
1000
0101
1010
1001
,  // measure 29
0100
0000
0001
0010
0001
0000
1000
0000
,  // measure 30
0110
0011
1010
0101
,  // measure 31
1000
0010
0100
0010
1000
0010
0100
0000
,  // measure 32
0001
0010
0100
0010
0001
0010
0100
0000
,  // measure 33
1000
0101
0010
1100
,  // measure 34
0001
0010
0100
0000
1001
0000
0011
0000
,  // measure 35
1000
0100
0010
0100
1000
0100
0010
0000
,  // measure 36
0001
0100
0010
0100
0001
0100
0010
0000
,  // measure 37
1000
0110
0001
0110
,  // measure 38
1001
0010
1001
0100
,  // measure 39
0000
0000
0001
0010
0100
1000
0001
0010
,  // measure 40
0100
1000
0001
0000
0110
0000
1000
0000
,  // measure 41
0110
0000
0001
1000
0010
0100
0001
0010
,  // measure 42
0100
1000
0110
0011
,  // measure 43
1010
0000
0100
0001
0001
0010
0001
0001
,  // measure 44
0001
0100
1010
0001
,  // measure 45
0110
0000
1000
0001
0100
0100
0010
1000
,  // measure 46
1000
0000
0100
0000
0011
0000
0010
1000
,  // measure 47
0100
0010
0001
0000
1010
0000
0101
0000
,  // measure 48
1010
0000
0100
0001
1000
0001
0010
0001
,  // measure 49
0100
0001
1000
0010
1000
0100
1000
0001
,  // measure 50
1000
0000
0010
0100
0010
1000
0010
0100
,  // measure 51
0001
0100
0010
0100
0001
0100
0010
0100
,  // measure 52
0001
1000
0101
0010
,  // measure 53
0110
0000
1000
0001
0010
0000
1100
0000
,  // measure 54
0101
0000
0010
1000
0100
0000
0001
0100
,  // measure 55
0010
1000
0100
0100
0010
0001
0001
0001
,  // measure 56
1000
0000
1000
0110
0101
0010
1000
1000
,  // measure 57
0101
0000
0001
1000
0110
1000
0001
1100
,  // measure 58
0011
0000
0100
1000
0011
1000
0100
0010
,  // measure 59
0011
0000
0100
0001
1100
0001
0100
0100
,  // measure 60
0011
2020
0000
0000
,  // measure 61
0000
0000
0000
0000
,  // measure 62
3030
0000
0000
0000
;

//---------------dance-single - ----------------
#NOTES:
     dance-single:
     :
     Easy:
     5:
     0.446,0.451,0.364,0.023,0.000,240.000,32.000,2.000,0.000,0.000:  // measure 1
1000
0000
1000
0000
0100
0100
0100
0000
,  // measure 2
0010
0010
0001
0001
,  // measure 3
1000
0010
1000
0010
,  // measure 4
0100
0100
0001
0010
,  // measure 5
0100
1000
0100
1000
,  // measure 6
0010
0010
0100
0001
,  // measure 7
0010
0010
0100
0100
,  // measure 8
1000
0010
1000
0010
,  // measure 9
0100
0001
0010
0100
,  // measure 10
1000
0010
0010
0100
,  // measure 11
1001
0010
0010
0010
,  // measure 12
0100
0100
0100
0000
,  // measure 13
0011
0100
0100
1000
,  // measure 14
0001
0001
0001
0000
,  // measure 15
0100
1010
0100
0011
,  // measure 16
1000
1000
0100
0100
,  // measure 17
0010
0010
1001
0100
,  // measure 18
0100
0001
1000
0010
,  // measure 19
0101
0000
1000
0000
0010
0010
0010
0000
,  // measure 20
0100
0000
1001
0000
0100
0100
0100
0000
,  // measure 21
0010
0000
0101
0000
1000
1000
1000
0000
,  // measure 22
0001
0000
1100
0000
0010
0010
0010
0000
,  // measure 23
1000
0100
1000
0100
,  // measure 24
0010
0010
0010
0010
,  // measure 25
0001
0100
0010
1000
,  // measure 26
0100
0010
0001
0000
,  // measure 27
0100
0100
0010
1000
,  // measure 28
0100
0010
0001
0001
,  // measure 29
0100
0010
1000
0001
,  // measure 30
0100
0100
0100
0000
,  // measure 31
1010
0001
0001
0010
,  // measure 32
0100
0100
1000
1000
,  // measure 33
0110
0001
0001
1000
,  // measure 34
1000
0010
0011
0000
,  // measure 35
0011
0010
1000
1000
,  // measure 36
0001
0001
0110
1000
,  // measure 37
1000
0100
0100
0010
,  // measure 38
0001
0001
1010
0000
,  // measure 39
0000
0001
0001
0001
,  // measure 40
0001
0010
0100
1000
,  // measure 41
1000
0010
0100
0001
,  // measure 42
0010
0100
0100
1000
,  // measure 43
1000
0010
0100
0001
,  // measure 44
0001
0010
1100
0010
,  // measure 45
1100
0001
0001
0010
,  // measure 46
0010
0100
0011
0100
,  // measure 47
0011
1000
1000
0100
,  // measure 48
0010
0001
1100
0010
,  // measure 49
1100
0001
0010
0010
,  // measure 50
0100
1000
0011
0100
,  // measure 51
0011
1000
0100
0100
,  // measure 52
0010
0001
1010
0001
,  // measure 53
1100
0010
0100
0001
,  // measure 54
1000
0010
0101
0010
,  // measure 55
1100
0001
0010
0100
,  // measure 56
1000
0000
0101
0000
0010
0000
1000
1000
,  // measure 57
1000
0000
0001
0000
0110
0000
0001
0001
,  // measure 58
0001
0000
1000
0000
0101
0000
0010
0010
,  // measure 59
0010
0000
0100
0000
0011
0000
1000
1000
,  // measure 60
1000
0220
0000
0000
,  // measure 61
0000
0000
0000
0000
,  // measure 62
0330
0000
0000
0000
;
