#TITLE:Fox on the Run;
#SUBTITLE:;
#ARTIST:Touch of Joy;
#TITLETRANSLIT:;
#SUBTITLETRANSLIT:;
#ARTISTTRANSLIT:;
#CREDIT:Plaguefox (gamecast.org/plaguemix);
#BANNER:foxontherun-bn.png;
#BACKGROUND:foxontherun-bg.jpg;
#LYRICSPATH:;
#CDTITLE:pmacd.png;
#MUSIC:foxontherun.ogg;
#OFFSET:0.025;
#SAMPLESTART:66.990;
#SAMPLELENGTH:20.020;
#SELECTABLE:YES;
#BPMS:0.000=129.000;
#STOPS:;
#BGCHANGES:;
// cache tags:
#FIRSTBEAT:16.000;
#LASTBEAT:200.000;
#SONGFILENAME:Songs/Plaguemix Series/Fox on the Run/foxontherun.sm;
#HASMUSIC:1;
#HASBANNER:1;
#MUSICLENGTH:104.185;
// end cache tags

//---------------dance-single - HEAVY----------------
#NOTES:
     dance-single:
     HEAVY:
     Hard:
     7:
     0.402,0.408,0.144,0.144,0.115,263.000,15.000,15.000,0.000,0.000:
0000
0000
0000
0000
,
0000
0000
0000
0000
,
0000
0000
0000
0000
,
0000
0000
0000
0000
,
1000
0100
0010
0002
0000
0000
0000
0003
,
1000
0010
0100
0000
0001
0010
0100
0000
,
1000
0010
0100
0002
0000
0000
0000
0003
,
1000
0100
0010
0000
0001
0100
0010
0000
,
1000
0100
0010
0002
0000
0013
0100
1000
,
0010
0100
0001
0000
0010
0100
0001
0000
,
1000
0010
0100
0002
0000
0103
0010
1000
,
0100
0010
0001
0000
0100
0010
0001
0000
,
0001
0010
0100
2000
0000
0000
0000
0000
,
0001
0001
0001
0000
0100
0100
3100
0000
,
1000
0010
0100
0002
0000
0000
0000
0000
,
0100
0100
0100
0000
1000
1000
1003
0000
,
0001
0010
0100
2000
0000
3100
0010
0001
,
0100
0100
0010
0000
1000
1000
0100
0000
,
0001
0100
0010
2000
0000
3010
0100
0001
,
0010
0010
0100
0000
1000
1000
0010
0000
,
1001
0100
0101
0100
,
0010
1000
0100
1000
0010
0000
0100
0000
,
1001
0100
1100
0100
,
0010
0001
0100
0001
0010
0100
1000
0000
,
1001
0000
0010
0000
1010
0000
0010
0100
,
0001
0000
0010
0100
0001
0000
0010
0100
,
2000
0001
0001
0001
,
3002
0013
2000
3010
,
1001
0010
1010
0010
,
0100
0001
0010
0001
0100
0000
0010
0000
,
1001
0010
0011
0010
,
0100
1000
0010
1000
0100
0010
0001
0000
,
1001
0000
0100
0000
0101
0000
0100
0010
,
1000
0000
0100
0010
1000
0000
0100
0010
,
0002
1000
1000
1000
,
2003
3100
0002
0103
,
0010
0000
0000
0010
1000
0000
0000
1000
0001
0000
0000
0001
0100
0000
0000
0100
,
0010
1000
0100
0000
0001
1000
0100
0000
,
0010
0000
0000
0010
0001
0000
0000
0001
1000
0000
0000
1000
0100
0000
0000
0100
,
0010
0001
0100
0000
1000
0001
0100
0000
,
0010
0000
0000
0010
0100
0000
0000
0100
0001
0000
0000
0001
0010
0000
0000
0010
,
0100
1000
0010
0000
0001
1000
0010
0000
,
0002
0010
0100
1003
,
1001
0100
0010
0001
,
0001
0000
0000
0001
0010
0000
0000
0000
0100
0000
0000
0100
1000
0000
0000
0000
,
1000
0000
0000
1000
0100
0000
0000
0100
0010
0000
0000
0000
1001
0000
0000
0000
,
0001
0000
0000
0001
1000
0000
0000
1000
0100
0000
0000
0100
1000
0000
0000
1000
,
0001
0000
0000
0001
0100
0000
0000
0100
0001
0000
0000
0001
1000
0000
0000
1000
,
0100
0010
0001
0000
0010
0100
1000
0000
,
0010
0100
0001
0000
0100
0010
1000
0000
,
1001
0000
0000
0000
;

//---------------dance-single - STANDARD----------------
#NOTES:
     dance-single:
     STANDARD:
     Medium:
     6:
     0.299,0.336,0.125,0.144,0.048,190.000,13.000,15.000,0.000,0.000:

0000
0000
0000
0000
,
0000
0000
0000
0000
,
0000
0000
0000
0000
,
0000
0000
0000
0000
,
1000
0100
1000
0200
0000
0000
0300
0000
,
0010
0010
0001
0001
,
0100
0010
0100
0020
0000
0000
0030
0000
,
1000
1000
0100
0100
,
0001
0010
0001
0020
0000
0000
0030
0000
,
0100
0100
1000
1000
,
0010
0100
0010
0200
0000
0000
0300
0000
,
0001
0001
0010
0010
,
0200
0000
0000
0000
,
1000
1000
1000
0000
0010
0010
0310
0000
,
0020
0000
0000
0000
,
0001
0001
0001
0000
0100
0100
0130
0000
,
1000
0100
1000
0002
0000
0000
0000
0000
,
1000
0100
0010
0103
,
0001
0010
0001
2000
0000
0000
0000
0000
,
0100
0010
3100
0100
,
1001
0000
0100
0000
,
0001
0100
0001
0000
0001
0100
0001
0000
,
1001
0000
0010
0000
,
1000
0100
1000
0000
1000
0100
1000
0000
,
1001
0000
0000
0000
1000
0000
0000
0001
,
0100
0100
0010
0010
,
1001
0000
0000
0000
1000
0001
1000
0200
,
0000
1000
0010
1300
,
0101
0001
0101
0000
,
1000
0010
1000
0000
1000
0100
1000
0000
,
1010
1000
1010
0000
,
0001
0010
0001
0000
0001
0100
0001
0000
,
0110
0000
0010
0000
1001
0000
0000
0010
,
0100
0010
1000
0010
,
0100
0000
0000
0000
0001
0010
0100
2000
,
0000
3100
1001
0100
,
0002
0000
0013
0100
,
1000
0000
0000
1000
0100
0000
0000
0000
1000
0000
0000
1000
0100
0000
0000
0000
,
2000
0000
3010
0100
,
0001
0000
0000
0001
0100
0000
0000
0000
0001
0000
0000
0001
0100
0000
0000
0000
,
0020
0000
0130
0001
,
1000
0000
0000
1000
0100
0000
0000
0000
0010
0000
0000
0010
0001
0000
0000
0000
,
1001
0010
0100
0010
,
0100
1000
0001
1000
,
0200
0010
1300
0010
,
0100
0001
0010
0100
,
2000
0000
3100
0010
,
0100
0010
0001
1000
,
0001
0000
0000
0001
0010
0000
0000
0000
0010
0000
0000
0010
0100
0000
0000
0000
,
0100
0000
0000
0100
1000
0000
0000
1000
0010
0000
0000
0000
0100
0000
0000
0000
,
1001
0000
0000
0000
,;

//---------------dance-single - LIGHT----------------
#NOTES:
     dance-single:
     LIGHT:
     Easy:
     4:
     0.206,0.216,0.058,0.106,0.000,133.000,6.000,11.000,0.000,0.000:
0000
0000
0000
0000
,
0000
0000
0000
0000
,
0000
0000
0000
0000
,
0000
0000
0000
0000
,
1000
0000
1000
0000
,
1000
0010
1000
0010
,
0001
0000
0001
0000
,
0001
0100
0001
0100
,
0001
0000
0010
0000
,
0100
1000
0010
1000
,
1000
0000
0010
0000
,
0100
0001
0010
0001
,
2000
0000
0001
0000
,
0100
0000
0010
3001
,
0002
0000
1000
0000
,
0010
0000
0010
1000
,
0203
0000
0010
0000
,
0001
0000
0010
0301
,
0020
0000
1000
0000
,
0100
0000
1030
0100
,
1001
0000
1001
0000
,
0001
1000
0010
1000
,
0001
0000
0001
0000
,
0001
0100
0010
1000
,
0001
0000
0001
0000
,
0001
1000
0100
0010
,
0002
0000
0010
0100
,
1000
0003
0010
0100
,
1001
0000
1001
0000
,
1000
0001
0100
0001
,
1000
0000
1000
0000
,
1000
0010
0100
0001
,
1000
0000
1000
0000
,
1000
0001
0010
0100
,
2000
0000
0100
0010
,
0001
3000
0010
0100
,
0002
0000
1003
1000
,
0100
0000
0100
0001
,
2000
0000
3001
0001
,
0100
0000
0100
0001
,
0020
0000
0130
0100
,
1000
0000
1000
0010
,
0100
0000
0010
0000
,
1001
0000
0010
0100
,
0010
0000
0100
0000
,
1001
0000
0100
0010
,
0002
0000
0013
0100
,
0010
0001
0100
0010
,
2000
0000
0010
0000
,
0001
0000
0010
0100
,
3001
0000
0000
0000
;
