#TITLE:Initial D;
#SUBTITLE:- Dancing;
#ARTIST:Vicky Vale;
#TITLETRANSLIT:;
#SUBTITLETRANSLIT:;
#ARTISTTRANSLIT:;
#CREDIT:Anime Toshokan;
#BANNER:Initial D - Dancing.png;
#BACKGROUND:Initial D - Dancing bg.png;
#LYRICSPATH:;
#CDTITLE:dejiko.png;
#MUSIC:Initial D - Dancing.mp3;
#OFFSET:-0.229;
#SAMPLESTART:48.120;
#SAMPLELENGTH:12.000;
#SELECTABLE:YES;
#DISPLAYBPM:160.000;
#BPMS:0.000=160.090,216.000=160.190,224.000=160.240,268.000=159.780;
#STOPS:;
#BGCHANGES:;
// cache tags:
#FIRSTBEAT:16.000;
#LASTBEAT:289.000;
#SONGFILENAME:Songs/DDR Anime 2nd Mix/Initial D - Dancing/Initial D - Dancing.sm;
#HASMUSIC:1;
#HASBANNER:1;
#MUSICLENGTH:110.471;
// end cache tags

//---------------dance-single - BASIC----------------
#NOTES:
     dance-single:
     BASIC:
     Easy:
     5:
     0.392,0.491,0.398,0.000,0.000,259.000,44.000,0.000,0.000,0.000:
0000
0000
0000
0000
,
0000
0000
0000
0000
,
0000
0000
0000
0000
,
0000
0000
0000
0000
,
0010
0001
0000
0000
,
0010
0001
0000
0000
,
0100
1000
0000
0000
,
0100
0000
1000
0000
0100
0000
0010
0010
,
0110
0110
0000
0000
,
1000
0000
0001
0000
,
1000
0000
0001
0000
,
0001
0000
1000
0001
,
0100
0010
0110
1001
,
0000
0100
0001
1000
,
1000
0100
0001
1000
,
1000
0010
0100
1000
,
0010
0001
0100
1000
,
0100
0010
1000
0001
,
0001
0010
0100
0001
,
0000
1001
1001
0110
,
0100
0010
1000
0001
,
1000
0000
0100
1000
0010
0001
0100
0000
,
0010
0000
1000
0000
0001
0000
0010
0001
,
0100
0010
0010
0010
,
0100
0100
0100
0100
,
0110
0010
0010
0010
,
0010
0011
0001
0001
,
0001
1001
1000
1000
,
1000
1100
0100
0100
,
0100
0100
0100
0100
,
0010
1000
0010
0001
,
0100
1000
0000
1001
,
1001
1001
0010
0001
,
0100
1000
1001
1001
,
0010
1000
0100
0001
,
1001
0110
1001
0000
,
1001
0000
1001
0000
0010
0001
0010
0000
,
0010
0001
0010
0000
1001
0000
1001
0000
,
1000
0000
0001
0000
1000
0000
0001
1000
,
0001
1001
0010
0100
,
0100
0001
0100
0000
0100
0001
0010
0000
,
0100
0001
0100
0000
0100
0001
0010
0000
,
0010
1000
0100
0000
0010
1000
0100
0000
,
0010
1000
0010
0000
0010
1000
0100
0000
,
1000
0010
0100
0010
,
0010
1000
0100
1000
,
0100
0000
0010
0000
,
0100
0000
0010
0000
,
0010
0001
0100
1000
,
1000
0010
1000
0001
,
0110
1001
0000
0000
,
1001
1001
1001
1001
,
0010
0010
0010
0010
,
0010
0010
0010
0010
,
0010
0000
0000
0000
0010
0010
0010
0000
,
1001
1001
1001
1001
,
0001
1000
0001
1000
,
0001
0000
1000
0000
,
0001
0000
1000
0000
,
0001
0000
1000
0000
,
0001
0000
1000
0000
,
0100
0100
0100
0100
,
0100
0100
0100
0100
,
0100
0000
0100
0000
0100
0100
0100
0000
,
1001
1001
0010
0100
,
0010
0100
1001
1001
,
0100
0001
0010
0000
0000
0000
0100
0000
,
0001
0010
1000
0000
,
1001
0000
1001
0000
0010
0100
0001
0000
,
0100
0010
1001
1001
,
0001
0001
0001
0001
,
0001
0001
0001
0001
,
1001
1001
0000
0000
;

//---------------dance-single - ANOTHER----------------
#NOTES:
     dance-single:
     ANOTHER:
     Medium:
     7:
     0.519,0.589,0.969,0.000,0.000,294.000,107.000,0.000,0.000,0.000:
0000
0000
0000
0000
,
0000
0000
0000
0000
,
0000
0000
0000
0000
,
0000
0000
0000
0000
,
0110
0110
0110
1001
,
1001
1001
0101
0011
,
0101
0011
1100
1010
,
1100
0000
1010
0010
0100
0000
0010
0000
,
1001
0000
0100
0010
0001
0000
0010
0100
,
1001
1001
0000
0100
0010
0001
0010
0000
,
0010
1000
0100
0000
0100
0000
0010
0010
,
0010
0100
0100
0000
0001
0000
1001
0000
,
1001
1001
0001
0100
,
1000
0010
0001
0100
,
1000
0000
0110
0000
1001
0000
0110
0110
,
0000
1001
0100
0001
0100
0000
0010
0001
,
0100
0000
0100
1000
0100
0000
1000
0100
,
1000
0000
0100
1000
0100
0000
0010
0001
,
0100
0000
0110
0000
1000
0000
1001
0110
,
1001
0110
1001
0110
,
0010
0000
0100
1000
0100
0000
0010
0001
,
0100
0000
0010
0001
0010
0010
0010
0010
,
0010
0000
1001
0000
0100
0000
0010
0001
,
1001
1001
0110
1001
,
0100
0010
0100
0010
,
1000
0001
1000
0001
,
0110
1001
1001
0110
,
0110
0000
1000
0000
0100
0000
0010
0001
,
0010
0000
0100
0000
1000
0100
0010
0000
,
0100
0000
1000
0000
0001
0000
0010
0100
,
0100
0001
0010
0000
1001
0000
0110
0000
,
0010
0001
0100
0010
,
1001
0000
1001
0000
0010
0001
0010
0000
,
0100
1000
0100
0000
0010
0001
0100
0000
,
0010
0001
0100
1000
,
0100
0001
0010
1001
,
0110
0000
1001
0000
0010
0001
0100
0000
,
1000
0100
0010
0000
0110
0000
0110
0000
,
1000
0000
0100
1000
0000
0000
1000
0100
,
1000
0000
0100
0010
0000
0000
1001
0000
,
0011
1001
0101
0110
,
1001
0110
1001
1001
,
1000
0100
1000
0000
0110
0000
0110
0000
,
1001
0000
0000
1001
,
0110
1001
0000
0000
,
0000
0000
0000
0000
0010
0010
1001
0000
,
0000
0100
0001
0100
,
1000
0100
0010
0001
,
0100
1000
0100
0000
0100
1000
0100
0000
,
1010
0011
1100
0011
,
1000
0001
1000
0001
,
1001
1001
1001
0110
,
0010
0000
0010
0000
0100
0010
0100
0000
,
0101
0110
1000
0000
,
0001
1000
0000
0001
,
1001
0110
0110
0110
,
0000
0100
0000
0010
,
0000
0010
0000
0100
,
0000
0000
1001
0000
,
0000
0000
0100
0010
,
0100
0110
1001
0010
,
0001
0010
1000
0010
,
1000
0011
0101
0101
,
0011
1001
0110
1001
,
0110
1001
0110
1001
,
0110
1001
0100
1000
,
0010
0001
0100
1000
,
0010
1001
1001
0000
,
0110
0000
1001
0000
0010
0001
0100
0000
,
0010
0001
0100
0000
0100
1000
0010
0000
,
0010
1000
0100
0000
1001
0000
0011
0000
,
1100
1001
0000
0000
,
1001
0110
0000
0000
;

//---------------dance-single - BEGINNER----------------
#NOTES:
     dance-single:
     BEGINNER:
     Beginner:
     2:
     0.199,0.261,0.199,0.000,0.000,132.000,22.000,0.000,0.000,0.000:
0000
0000
0000
0000
,
0000
0000
0000
0000
,
0000
0000
0000
0000
,
0000
0000
0000
0000
,
0010
0000
0000
0000
,
0010
0000
0000
0000
,
0100
0000
0000
0000
,
0100
0000
0100
0000
,
0110
0000
0000
0000
,
1000
0000
0001
0000
,
1000
0000
0001
0000
,
0001
0000
1000
0000
,
0100
0000
0110
0000
,
0000
0100
0001
0000
,
1000
0000
0001
0000
,
1000
0000
0100
0000
,
0010
0000
0100
0000
,
0100
0000
1000
0000
,
0001
0000
0100
0000
,
0000
1001
1001
0000
,
0100
0000
1000
0000
,
1000
0000
0010
0000
,
0010
0000
0001
0000
,
0100
0000
0010
0000
,
0100
0000
0100
0000
,
0110
0000
0010
0000
,
0010
0000
0001
0000
,
0001
0000
1000
0000
,
1000
0000
0100
0000
,
0100
0000
0100
0000
,
0010
0000
0010
0000
,
0100
0000
0000
1001
,
1001
0000
0010
0000
,
0100
0000
1001
0000
,
0010
0000
0100
0000
,
1001
0000
1001
0000
,
1001
0000
0010
0000
,
0010
0000
1001
0000
,
1000
0000
1000
0000
,
0001
0000
0010
0000
,
0100
0000
0100
0000
,
0100
0000
0100
0000
,
0010
0000
0010
0000
,
0010
0000
0010
0000
,
1000
0000
0100
0000
,
0010
0000
0100
0000
,
0100
0000
0010
0000
,
0100
0000
0010
0000
,
0010
0000
0100
0000
,
1000
0000
1000
0000
,
0110
0000
0000
0000
,
1001
0000
1001
0000
,
0010
0000
0010
0000
,
0010
0000
0010
0000
,
0010
0000
0010
0000
,
1001
0000
1001
0000
,
0001
0000
0001
0000
,
0001
0000
1000
0000
,
0001
0000
1000
0000
,
0001
0000
1000
0000
,
0001
0000
1000
0000
,
0100
0000
0100
0000
,
0100
0000
0100
0000
,
0100
0000
0100
0000
,
1001
0000
0010
0000
,
0010
0000
1001
0000
,
0100
0000
0000
0100
,
0001
0000
1000
0000
,
1001
0000
0010
0000
,
0100
0000
1001
0000
,
0001
0000
0001
0000
,
0001
0000
0001
0000
,
1001
0000
0000
0000
;
