#TITLE:For Not Trying;
#SUBTITLE:;
#ARTIST:DJ Nebs;
#TITLETRANSLIT:;
#SUBTITLETRANSLIT:;
#ARTISTTRANSLIT:;
#CREDIT:;
#BANNER:fornottrying-banner.png;
#BACKGROUND:fornottrying-bg.png;
#LYRICSPATH:;
#CDTITLE:;
#MUSIC:fornottrying.mp3;
#OFFSET:-5.810;
#SAMPLESTART:20.810;
#SAMPLELENGTH:14.940;
#SELECTABLE:YES;
#BPMS:0.000=210.000;
#STOPS:;
#BGCHANGES:;
// cache tags:
#FIRSTBEAT:0.000;
#LASTBEAT:474.000;
#SONGFILENAME:Songs/StepMix 1.0/ForNotTrying/fornottrying.sm;
#HASMUSIC:1;
#HASBANNER:1;
#MUSICLENGTH:144.230;
// end cache tags

//---------------dance-single - ----------------
#NOTES:
     dance-single:
     :
     Easy:
     4:
     0.268,0.322,0.187,0.187,0.000,217.000,27.000,27.000,0.000,0.000:
1001
0000
0000
0000
,
0000
1010
0000
0000
,
0000
0000
0011
0000
,
0000
0000
0000
0101
,
0000
0000
0000
0000
,
1100
0000
0000
0000
,
0000
1001
0000
0000
,
0000
0000
1010
0000
,
0000
0000
0000
0011
,
0000
0000
0000
0000
,
0110
0000
0000
0000
,
0000
0101
0000
0000
,
0000
0000
1100
0000
,
0000
0000
0000
0220
,
0000
0000
0000
0000
,
0000
0000
0000
0000
,
0330
1000
0000
0100
,
0000
0000
0010
0000
,
0001
0000
0000
0010
,
0000
1000
0000
0000
,
0100
0000
0010
0000
,
0000
0010
0000
0100
,
0000
0000
0001
0000
,
1000
0000
0000
0100
,
0000
0010
0000
0000
,
1000
0000
0001
0000
,
0000
0200
0000
1300
,
0000
0000
2000
0000
,
3010
0000
0000
0020
,
0000
0031
0000
0000
,
0002
0000
0103
0000
,
0000
0100
0000
0020
,
0000
0000
0130
0000
,
0002
0000
0000
0103
,
0000
2000
0000
0000
,
3100
0000
0020
0000
,
0000
0130
1000
0100
,
0000
0000
0010
0001
,
0010
0000
0000
0010
,
1000
0010
0000
0000
,
0001
0010
0001
0000
,
0000
1000
0001
0000
,
1000
0000
0001
1000
,
0000
0001
0000
0010
,
0100
1000
0000
0000
,
0100
0010
0001
0000
,
0000
0001
0100
0000
,
0010
0000
1000
0010
,
0000
0100
0000
0010
,
1000
0001
0000
0000
,
0100
0001
1000
0000
,
0000
1000
1000
0100
,
0000
0000
0100
0100
,
0001
0000
0000
0001
,
0001
0110
0000
0000
,
0010
0010
1001
0000
,
0000
0010
0100
1000
,
0010
0002
1003
0000
,
0000
0000
0000
0001
,
0010
0001
1000
0200
,
0301
0000
0000
0000
,
0000
0100
1000
0010
,
0100
0001
0010
0000
,
0000
0000
0000
0001
,
0100
1000
0020
0000
,
1030
0000
0000
0000
,
1000
0100
0010
0002
,
0000
0013
0000
0000
,
0000
0000
0000
1000
,
0100
0010
0100
0020
,
0130
0000
1000
0100
,
0001
0000
0001
0010
,
0000
0000
1000
0010
,
0001
0000
0000
0000
,
1001
0000
0000
0000
,
0000
0110
0000
0000
,
0000
0000
1001
0000
,
0000
0000
0000
0110
,
0000
0000
0000
0001
,
0001
0200
0000
0000
,
0310
0010
2000
0000
,
0000
3100
0100
0020
,
0000
0000
0130
0100
,
0002
0000
0000
1003
,
1000
0200
0000
0000
,
0310
0010
2000
0000
,
0000
3100
0100
0020
,
0000
0000
0130
0100
,
0002
0000
0000
0000
,
0000
0000
0000
0000
,
1003
0000
1100
0000
,
0000
0001
0000
0011
,
0000
0000
0100
0000
,
0101
0000
0000
0010
,
0000
1010
0000
0000
,
1000
0000
1100
0000
,
0000
0001
0000
0011
,
0000
0000
0100
0000
,
0101
0000
0000
0010
,
0000
1010
0000
0000
,
1000
0100
0010
0000
,
0001
0010
0100
1000
,
0000
0100
0010
0001
,
0010
0000
0010
1000
,
0100
1000
0000
0100
,
0010
0001
1000
0000
,
0001
0010
0100
0001
,
0000
0010
0100
0010
,
1000
0000
0001
1000
,
0010
0001
0000
0000
,
2100
0000
0000
0000
,
0000
3002
0000
0000
,
0000
0000
0203
0000
,
0000
0000
0000
0320
,
0000
0000
0000
0000
,
1030
0000
0001
0000
,
0000
1000
0001
0000
0000
0000
0000
0000
;

//---------------dance-single - ----------------
#NOTES:
     dance-single:
     :
     Medium:
     7:
     0.466,0.645,0.125,0.083,0.014,440.000,18.000,12.000,0.000,0.000:
1001
0000
0000
0000
,
0010
1010
0000
0000
,
0000
0100
0011
0000
,
0000
0000
1000
0101
,
0000
0000
0000
1000
,
1100
0000
0000
0000
,
0010
1001
0000
0000
,
0000
0001
1010
0000
,
0000
0000
1000
0011
,
0000
0000
0000
0100
,
0110
0000
0000
0000
,
0000
0101
0000
0000
,
0000
0100
1100
0000
,
0000
0000
0010
2000
,
0000
0000
0000
0000
,
3020
0000
0000
0000
,
0000
1030
0000
0000
,
0000
1000
0000
1000
0010
0000
0000
0000
,
0000
0000
0000
0100
0000
0100
0010
0000
,
0000
0000
0000
0000
0000
1000
0000
1000
,
0100
0000
0000
0000
0000
0000
0000
0100
,
0000
0001
0010
0000
0000
0000
0000
0000
,
0000
0001
0000
0010
0001
0000
0000
0000
,
0000
0000
0000
0010
0000
1000
0100
0000
,
0100
0000
0010
0000
0000
0100
0000
0001
,
1000
0000
1000
0000
0001
0000
0000
0001
,
0000
0001
0200
0000
0000
0000
1300
0000
,
0000
0010
0000
0100
2000
0000
0000
0000
,
3010
0000
0000
0001
0000
0010
0020
0000
,
0000
0000
0031
0000
0000
0100
0000
0010
,
0002
0000
0000
0000
0103
0000
0000
1000
,
0000
0001
0200
0000
0000
0000
0310
0000
,
0000
0001
0000
0100
0002
0000
0000
0000
,
0103
0000
0000
0010
0000
0010
0200
0000
,
0000
0000
0310
0000
0000
0100
0000
0100
,
0020
0000
1030
0000
,
0000
0100
1000
0100
,
0010
0000
0100
0001
,
0010
1000
0000
0010
,
1000
0010
0001
0000
,
0001
0010
0001
1000
,
0000
1000
0001
0010
,
1000
0000
0001
1000
,
0010
0001
0000
0010
,
0100
1000
1000
0000
,
0100
0010
0001
0100
,
0000
0000
0001
1000
0100
0000
0100
0000
,
0010
0000
0000
0000
1000
0010
0010
0000
,
0010
0000
0100
0000
0000
0000
0010
0010
,
1000
0001
1000
0000
,
0100
0020
0000
0000
,
0030
0000
1000
0001
1000
0000
0100
0010
,
0001
0000
1000
0010
0100
0000
0100
0010
,
0001
0000
0010
1000
0100
0000
0001
1000
,
0001
0000
0100
0010
1000
0000
0010
0001
,
0010
0000
1000
1000
0000
1000
0000
0000
,
0000
0000
0010
0001
0100
0001
1000
0100
,
0001
0000
0000
0000
1000
0100
1000
0001
,
0100
0001
1000
0000
0000
0000
0001
1000
,
0010
0100
0001
0010
1000
0000
0000
0000
,
0001
0010
0100
1000
0001
0010
0100
0000
,
0000
0000
0000
0000
1100
0000
0000
0000
0000
1010
0000
0000
0000
0000
0000
0000
,
0011
0000
0000
0000
0000
0101
0000
0000
0000
0000
0000
0000
0110
0000
0000
0000
,
0000
1010
0000
0000
0000
0000
0000
0101
0000
0000
0000
0000
1000
0000
0100
0000
,
0010
1000
0001
0010
0100
0001
0000
0000
,
1000
0100
0010
1000
0001
0010
0100
0001
,
0000
0000
0001
0010
0100
0001
1000
0100
,
0010
1000
0000
0000
0001
0010
0100
0001
,
1000
0100
0010
1000
0000
0000
0100
0001
,
1000
0010
0001
0100
0010
1000
0000
0000
,
0100
0001
1000
0010
0001
0100
0010
1000
,
0000
0000
0010
1000
0001
0100
1000
0010
,
0100
0001
0000
0000
0010
1000
0001
0100
,
1000
0010
0100
0001
0000
0001
1000
1000
,
0000
1000
0001
0001
0000
0001
0100
0100
,
0000
0100
1000
1000
0000
1000
0001
0010
,
0000
0010
1000
0100
0000
0100
0100
0010
,
0000
0001
1000
0001
0000
1000
0001
1000
,
0000
0010
0010
0010
0000
0000
0001
0010
,
0001
0010
0000
0001
0010
0000
0000
0000
,
1000
0100
1000
0100
0000
1000
0100
0000
,
0000
0000
0100
0010
0100
0010
0000
0100
,
0010
0000
0000
0000
0100
1000
0001
0100
,
0000
0001
1000
0000
0000
0000
0100
0001
,
1000
0010
0000
1000
0010
0000
0000
0000
,
0100
0001
0010
0100
0000
0010
0100
0000
,
0000
0000
1000
0001
0100
0001
0000
0100
,
0001
0000
0100
0100
,
0001
1000
0020
0000
0000
0000
1000
0000
,
0000
1000
0000
1000
,
1030
0010
0100
0000
,
0000
0001
0100
0010
,
0000
0000
0100
1000
,
0001
0000
0000
0010
,
0001
1000
0000
0000
,
1000
0000
0010
1000
0100
0000
0000
0000
,
0000
0000
0001
0000
0010
0001
0010
0000
,
0000
0000
0100
0000
0100
0000
0001
0100
,
0001
0000
0010
1000
,
0100
0001
1000
0000
0000
0000
0000
0000
,
1000
0000
0000
0010
0000
0000
0001
0000
,
0010
0000
0010
0000
0000
1000
0000
0000
,
0100
0000
0001
0000
0001
0000
0000
0010
,
0000
0100
0100
1000
,
0000
0100
0000
0000
0010
0000
0010
0000
,
1000
0000
0000
1000
0000
0000
0001
0000
,
0001
0000
0010
0000
0000
1000
0000
0000
,
0001
0000
1000
0000
0001
0000
0000
1000
,
0000
0001
1000
0001
,
0000
1000
0000
0000
0001
0000
1000
0000
,
0001
0000
1000
0100
0000
0000
1000
0100
,
0000
0000
1000
0100
0010
0100
1000
0000
,
0010
0001
0100
0001
0010
0000
1000
0001
,
1000
0001
0100
0000
0001
1000
0001
1000
,
0100
0000
0010
0100
1000
0100
0010
0001
,
1000
0100
0001
0010
1000
0100
0001
0010
,
1000
0100
0001
0000
0000
0000
0000
0000
;

//---------------dance-single - ----------------
#NOTES:
     dance-single:
     :
     Hard:
     9:
     0.660,0.822,0.305,0.395,0.024,565.000,44.000,57.000,0.000,5.000:
1001
0000
0100
0000
,
0010
1010
0000
0001
,
0000
0100
0011
0000
,
0010
0000
1000
0101
,
0000
0100
0000
1000
,
1100
0000
0110
0000
,
0010
0100
1001
0000
0000
0000
0101
0000
,
0000
0000
0100
0010
1010
0000
0000
0000
,
1010
0000
1000
0100
1100
0000
0011
0000
,
0010
1000
0101
0000
1010
0000
0100
0000
,
0220
0000
0000
0000
,
0330
0101
0001
0100
,
0000
0100
1100
1000
,
0010
0000
0010
2020
,
0000
0032
0000
0023
,
0000
3200
0000
0000
,
0000
1330
0100
0100
,
0000
1000
0000
1000
0010
0000
0010
0000
,
0001
0000
0000
0100
0000
0100
0010
0000
,
0010
0000
1000
0000
0000
1000
0000
1000
,
0100
0000
0010
0000
0010
0000
0000
0100
,
0000
0001
0010
1000
0010
0000
0100
0000
,
0000
0001
0000
0010
0001
1000
0100
0000
,
1000
0000
0000
0010
0000
1000
0100
0010
,
0100
0000
0010
0000
0000
0100
0000
0001
,
1000
0100
1000
0000
0001
0000
0000
0001
,
0000
0001
0200
0000
1000
0000
1300
0000
,
0000
0010
0000
0100
2000
0000
0010
0000
,
3010
0000
0000
0010
0000
0010
0020
0000
,
0001
0000
0031
0000
0000
0100
0000
0010
,
0002
0000
0100
0100
0103
0000
0000
1000
,
0000
0001
0100
0001
0100
0000
0020
0000
,
0000
0000
0000
0000
0130
0010
0100
0010
,
0002
0000
0000
0000
0000
0000
0103
1000
,
0010
1000
2000
0000
0000
0000
0000
0000
,
3100
0001
0010
1000
0020
0000
0000
0000
,
0000
0130
1000
0100
,
0010
1000
0010
0001
,
0010
1000
0100
0010
,
1000
0010
0001
1000
,
0001
0010
0001
1000
,
0100
1000
0001
0010
,
1000
0100
0001
1000
,
0010
0001
0001
0010
,
0100
1000
1000
0010
,
0100
0010
0001
0100
,
0100
0001
0100
0100
,
0010
0001
1000
0010
,
0010
0100
0100
0010
,
1000
0001
1000
0010
,
0100
2002
3003
2002
,
3003
0000
1000
0000
1000
0000
0100
0010
,
0001
0010
1000
0000
0100
0000
0100
0000
,
0001
0100
0010
1000
0100
0000
0001
0000
,
0001
0000
0100
0010
1000
0100
0010
0001
,
0010
0000
1000
0000
0000
1000
1000
0000
,
0000
0000
0010
0001
0100
0001
1000
0100
,
0010
0001
0000
0001
1000
0100
1000
0001
,
0100
0001
0010
1000
0000
1000
0001
1000
,
0010
0100
0001
0010
1000
0001
0000
1000
,
0001
0010
0100
1000
0001
0010
0100
1000
,
0000
1000
0002
0000
0000
0013
0200
0000
,
0000
1300
0020
0000
0000
0130
2000
0000
,
0000
3001
0010
0000
0010
0000
1001
0100
,
0010
1000
0001
0010
0100
0001
0000
0001
,
1001
0100
0010
1000
0001
0010
0100
0001
,
0000
0001
1001
0010
0100
0001
1000
0100
,
0010
1000
0000
1000
1001
0010
0100
0001
,
1000
0100
0010
1000
0000
1000
0110
0001
,
1000
0010
0001
0100
0010
1000
0000
1000
,
0110
0001
1000
0010
0001
0100
0010
1000
,
0000
1000
0110
1000
0001
0100
1000
0010
,
0100
0001
0000
0001
0110
1000
0001
0100
,
1000
0010
0100
0001
0000
0001
1000
0000
,
0100
0000
0000
0000
0010
0000
0000
0000
0010
0001
0010
0001
0010
0000
0000
0000
,
0100
0000
0000
0000
0010
0000
0000
0000
1000
0000
0000
0000
0010
0100
0010
0100
,
0010
0001
1000
0010
,
0100
0010
1000
0001
1000
0000
0000
0000
1000
0000
0000
0000
0110
0000
0110
0000
,
0110
0000
1100
0100
0011
0000
0001
0000
,
0001
0000
0100
0001
0200
0000
0000
0000
,
0310
0000
0010
0000
1000
0100
0020
0000
,
0000
0000
0130
0000
0100
0000
0010
1000
,
0002
0000
0103
0100
,
0001
0010
2000
0000
0000
0000
3100
0000
,
1000
0000
0100
0100
0020
0000
0000
0000
,
0130
0000
0010
0000
1000
1000
2000
0000
,
0000
0000
3100
0000
0100
0000
0010
0001
,
0002
0000
0103
0100
,
0001
1000
0020
0000
1000
0000
0100
0000
,
1000
0000
0100
0100
1000
1000
0030
0000
,
0100
0001
1000
0010
0100
0001
0100
1000
,
0001
0001
0001
0010
1000
0010
0100
0001
,
0100
1000
0100
0100
0100
0010
1000
0001
,
0100
1000
0010
0001
0010
0010
0010
1000
,
0100
1000
0100
0010
0001
0100
1000
1000
,
1000
0100
0010
0001
0100
0010
1000
0100
,
0001
0001
1001
0100
0010
0100
1000
0001
,
0010
1000
0100
0010
0110
1000
0010
1000
,
0001
0100
0010
0001
0010
0100
1000
0100
,
0001
0010
1000
0010
0001
0100
0101
0011
,
2200
0000
0000
3302
0000
0000
1003
0000
,
0002
0000
0023
0000
0000
2030
0000
0000
,
3100
0000
0200
0000
0302
0000
0000
0023
,
0000
0130
0200
2300
,
0000
3002
0000
0000
0013
0000
0020
0000
,
0032
0000
0000
2003
0000
0000
3001
0000
,
0002
0000
0023
0000
0000
0230
0000
0000
,
1300
0000
2000
0000
3002
0000
0000
2003
,
0000
3001
2000
3002
,
0000
2003
0000
0000
3001
0000
0001
0000
,
1100
0000
1100
1100
0000
0000
0011
0011
,
0000
0000
0010
0001
0010
0000
0000
0000
0000
0000
0000
0000
1000
0000
0100
0000
,
0010
0001
0010
0100
1000
0100
0010
0001
,
1000
0100
0010
0001
0010
0100
1000
0010
,
0001
0100
1000
0010
0001
0100
1000
0010
,
1000
0100
0001
0010
1000
0100
0001
0010
,
1000
0100
2002
0000
0000
0000
0000
0000
,
0000
0000
0000
0000
,
0000
0000
3003
0000
;
