#TITLE:You're Under Arrest;
#SUBTITLE:- Courage At 100 MPH;
#ARTIST:Takashi Shoji;
#TITLETRANSLIT:;
#SUBTITLETRANSLIT:;
#ARTISTTRANSLIT:;
#CREDIT:Anime Toshokan;
#BANNER:You're Under Arrest - Courage At 100 MPH.png;
#BACKGROUND:You're Under Arrest - Courage At 100 MPH bg.png;
#LYRICSPATH:;
#CDTITLE:dejiko.png;
#MUSIC:You're Under Arrest - Courage At 100 MPH.mp3;
#OFFSET:-0.139;
#SAMPLESTART:75.400;
#SAMPLELENGTH:13.400;
#SELECTABLE:YES;
#DISPLAYBPM:144.000;
#BPMS:0.000=144.120,40.000=143.980,180.000=143.820,200.000=143.980,252.000=143.930,296.000=145.610;
#STOPS:;
#BGCHANGES:;
// cache tags:
#FIRSTBEAT:13.500;
#LASTBEAT:320.000;
#SONGFILENAME:Songs/DDR Anime 4th Mix/You're Under Arrest - Courage At 100 MPH/You're Under Arrest - Courage At 100 MPH.sm;
#HASMUSIC:1;
#HASBANNER:1;
#MUSICLENGTH:134.637;
// end cache tags

//---------------dance-single - BASIC----------------
#NOTES:
     dance-single:
     BASIC:
     Easy:
     4:
     0.288,0.357,0.297,0.178,0.000,207.000,40.000,24.000,0.000,0.000:
0000
0000
0000
0000
,
0000
0000
0000
0000
,
0000
0000
0000
0000
,
0000
0000
0000
0000
,
0020
0000
0000
0000
0000
0000
0000
0030
,
0200
0000
0000
0000
0000
0000
0000
0300
,
2002
0000
0000
0000
,
3003
0000
0010
1001
,
0100
0100
0100
1001
,
0001
0001
0001
1001
,
1000
1000
1000
1001
,
0010
0010
1001
0110
,
0010
0110
1000
0100
,
1000
1001
0010
0010
,
0020
0000
0000
0000
,
0000
0000
0000
0200
,
0000
0000
0000
0000
,
0000
0330
0000
1000
,
0010
1000
0010
1001
,
0000
0010
0001
0010
,
0001
1001
0000
0100
,
0010
0100
0010
1000
,
1000
2000
3000
0001
,
0001
0002
0003
0000
,
1000
1000
1000
0001
,
0001
0000
0001
0000
0100
0000
0000
1001
,
0000
0001
0100
0001
,
1001
0000
0010
0001
,
0100
1001
0000
0001
,
1000
0001
0001
1000
,
1000
0000
0020
0000
0000
0030
0000
0000
,
0000
0200
0000
0300
,
0001
0100
0110
0110
,
0001
0000
0001
0000
0001
0000
0000
0020
,
0000
0000
0000
0000
,
0000
0000
0000
0000
0000
0030
0100
0000
,
0010
1000
0010
1001
,
0001
1000
0001
1001
,
0001
0100
0001
0100
,
0100
1001
1001
0000
,
0010
1000
0010
1000
,
0001
0010
0001
0010
,
0100
0000
1000
0000
0010
0000
0000
0202
,
0000
0000
0000
0000
,
0000
0000
0000
0000
,
0303
0001
0001
0001
,
1100
1000
1000
1000
,
0101
1000
0100
0100
,
0020
0000
0000
0030
,
0000
0000
1001
0000
0010
0000
0000
0110
,
0000
0000
0110
0000
0010
0000
0000
1001
,
0000
0100
0010
0001
,
0002
0000
0000
0000
0000
0003
0000
0000
,
1001
0010
0010
0010
,
1001
0100
0100
0100
,
1001
0100
0010
0001
,
2000
0000
0000
0002
,
0000
0000
3003
0000
,
1001
0000
0000
1000
,
0001
1001
0000
2000
,
3000
0002
0003
0200
,
0000
0000
0000
0000
,
0310
0000
0101
0000
,
1010
0000
1001
0001
,
0002
0000
0000
0003
2000
0000
0000
0000
,
0000
3001
0000
0110
,
0001
0001
0001
0001
,
0001
1000
1000
1000
,
1000
1000
0100
0100
,
0100
0100
0100
0100
,
0010
0010
0010
0100
,
0100
0100
1000
0001
,
0010
1001
0000
0010
,
0100
1001
0010
1000
,
0100
1001
0010
0010
,
0010
0010
0100
0100
,
1000
0000
0001
0000
0100
0000
0000
1000
,
0000
2002
0000
0000
0000
0000
0000
0000
,
0000
0000
0000
0000
,
0000
0000
0000
0000
,
3003
0000
0000
0000
;

//---------------dance-single - ANOTHER----------------
#NOTES:
     dance-single:
     ANOTHER:
     Medium:
     7:
     0.427,0.564,0.416,0.208,0.000,318.000,56.000,28.000,0.000,0.000:
0000
0000
0000
0000
,
0000
0000
0000
0000
,
0000
0000
0000
0000
,
0000
0000
0000
0000
0110
0000
0000
0010
,
0020
0000
0000
0001
0000
0000
0001
0000
,
0001
0000
0000
0001
0000
0000
0001
0000
,
0002
0000
0000
0000
,
0033
0000
0000
1001
0000
0010
0001
0000
,
0100
0010
0100
0001
1000
0100
0001
0001
,
0000
0000
0100
1000
0100
0010
0100
0001
,
0010
0001
0001
0000
1000
0010
0001
0000
,
1000
0010
0001
0000
1000
0001
1000
0000
,
0010
0001
0010
0100
1000
0010
0100
0001
,
1000
0100
0010
0000
0101
0000
0100
0100
,
0000
0002
0000
0003
0000
0000
1001
0000
,
0000
0000
0101
0000
0110
0000
0100
0001
,
0000
2000
0000
3000
0000
0000
0010
0010
,
0000
0001
1000
0000
0000
0000
1000
0100
,
0001
0000
1000
0010
0001
0000
0100
0010
,
0001
0000
0010
0100
1000
0000
0010
1000
,
0001
0000
0100
0010
0100
0000
0010
0001
,
0010
1000
0100
0001
0010
0000
0100
0010
,
0001
0001
0101
0000
0000
0000
0000
1001
,
0000
0010
1100
0000
0000
0000
0000
0000
,
1000
0010
1000
0100
0000
0000
0001
0010
,
0100
1000
0100
0000
0001
0001
0000
1010
,
0000
0000
0010
1000
0100
0000
0010
0001
,
0100
0000
1000
0100
0010
0000
1000
0100
,
0010
0000
0001
0010
0100
0000
1001
0000
,
0100
0000
0110
0000
0101
0000
1000
1000
,
0000
0010
0020
0000
0000
0030
0000
0010
,
0000
0110
0220
0000
0000
0000
0330
0000
,
0100
0000
0100
1000
0000
0000
0110
0000
,
1001
0000
1001
0000
0010
0010
0000
0101
,
0000
0000
0012
0003
1200
0300
0021
0030
,
0210
0300
2100
3000
1001
0000
0010
0000
,
0010
0000
1000
0001
0000
0110
0000
0000
,
1001
0000
0010
0010
0000
0101
0000
0000
,
0010
0000
0100
0010
0000
0010
0100
0001
,
0001
0000
0001
1000
0000
0000
1001
0000
,
0010
0001
1000
0100
0010
0100
0000
0000
,
0010
1000
0010
1000
0100
0001
0000
1000
,
0100
0000
1000
0100
0000
0001
1000
2002
,
0000
0000
0000
0000
,
3003
1100
1100
0101
,
1001
0000
0010
0000
0001
0001
0000
0101
,
0000
0000
0010
0000
1000
1000
0000
1100
,
0000
0000
0001
1000
0000
0000
0020
0000
,
0130
0000
0000
0001
0002
0000
0000
0000
,
0003
0000
1001
0000
0010
0010
0000
1001
,
0000
0000
1001
0000
0010
0010
0000
1001
,
0000
0000
1000
2000
0000
3000
0001
0002
,
0000
0000
0000
0003
0000
0001
0001
1000
,
0000
0000
0011
0000
0100
0100
0000
0101
,
0000
0000
1010
0000
0100
0100
0000
1100
,
0000
0002
0000
0013
,
0001
0000
1000
1000
0000
0000
0001
0001
,
0000
0000
0000
0000
0000
0100
0100
1000
,
0000
0000
0000
0000
0000
0001
0001
0100
,
0000
0000
1001
0000
0000
2200
0000
0000
,
0000
3300
0220
0000
0000
0330
0202
0000
,
0000
0303
0000
0000
0001
1000
0001
1000
,
1001
0000
0000
0010
0100
0010
0000
1000
,
0000
0010
1001
0100
,
0002
0000
0000
1000
2000
0000
0000
0000
,
0000
3003
0000
0000
0000
0000
0000
0000
,
0001
0100
1000
0010
0001
0100
1000
0100
,
0001
0010
0100
0010
0001
1000
0010
0100
,
0010
1000
0100
0010
0100
0010
1000
0001
,
0100
1000
0001
0000
0000
0000
0000
0000
,
0001
0100
0010
1000
0100
1000
0001
0010
,
0001
1000
0010
0000
0010
0000
0100
0100
,
0000
1001
0000
0000
0000
0000
1001
0000
,
0000
0000
0110
0000
0010
0000
0100
0100
,
0000
0110
0000
0000
0000
0000
0100
0001
,
0000
0100
0001
0000
0000
0000
0000
0000
,
1001
0000
0110
0000
1000
1000
0000
0100
,
0000
0200
0000
0000
0000
0000
0000
0000
,
0000
0000
0000
0000
,
0000
0000
0000
0000
,
0300
0000
0000
0000
;

//---------------dance-single - MANIAC----------------
#NOTES:
     dance-single:
     MANIAC:
     Hard:
     8:
     0.525,0.683,0.401,0.223,0.059,411.000,54.000,30.000,0.000,0.000:
0000
0000
0000
0000
,
0000
0000
0000
0000
,
0000
0000
0000
0000
,
0000
0000
0000
0000
0000
0000
0010
0001
1000
0000
0010
0000
0100
0000
0010
0000
,
0020
0000
0000
0001
0000
0000
0001
0000
,
0230
0000
0000
0001
0000
0000
0001
0300
,
2020
0000
0000
0000
,
3030
0000
0000
0000
0000
0000
0001
1000
0001
0000
0100
0000
0010
0000
0000
0000
,
0100
0010
0100
0001
1000
0101
0001
0101
,
0100
0001
0100
1000
0100
0010
0100
1100
,
0010
0001
1100
0010
0001
0100
0001
0100
,
1000
0000
0001
0000
0010
0000
0100
0010
1000
0000
0100
0000
0010
0000
0001
0000
,
0010
0001
0110
0100
1000
0010
0100
0101
,
1000
0100
0010
0001
0100
1000
0100
0100
,
0000
0020
0000
0030
0010
0100
0101
0000
,
0010
0100
1100
0000
0100
0000
0100
0001
,
0000
0200
0000
0300
0000
0000
1000
0001
,
0000
0110
0110
0000
0000
0010
1000
0100
,
0010
0100
1000
0010
0001
0000
0100
0010
,
1000
0100
0010
0100
1000
0000
0010
1000
,
0001
1000
0100
0010
0100
0000
0100
0001
,
0010
1000
0100
0100
0010
0000
0100
0010
,
0001
0001
2000
0000
0000
0100
3100
0002
,
0000
0100
0103
0000
0000
0000
0110
0000
,
1000
0001
1000
0001
1000
0001
0100
0010
,
0100
0010
0100
0010
0101
1100
0000
0110
,
0000
0000
0001
1000
0100
0010
0100
0010
,
0001
0000
1000
0100
0010
1000
0001
1000
,
0100
0000
0001
1000
1000
0001
0010
0100
,
0100
0000
0010
0010
0100
0100
1000
0001
,
1000
0010
0020
0000
0000
0030
0000
1100
,
0000
0011
0202
0000
0000
0000
0303
0000
,
0001
0000
1000
0101
0000
0000
0110
0000
,
0002
0003
2000
3000
0010
0010
0000
0101
,
0000
0000
0010
0100
0010
0000
1000
0100
1000
0000
0001
0100
0001
0000
0100
0010
,
0100
0000
1000
0001
1000
0000
0001
2000
0002
0000
3003
0000
0100
0000
0010
0000
,
0010
0100
1000
0001
0010
0110
0000
0000
,
0001
1000
0100
0010
0100
1100
0000
0000
,
0001
1000
0100
0010
0100
0001
0100
1000
,
1000
0010
0001
0001
0000
0000
1001
0000
,
0010
0001
1000
0100
0010
0100
1000
0010
,
0001
1000
0010
0100
0100
0010
0001
1000
,
0100
0000
1000
0100
0000
0001
0100
0020
,
0000
0001
1000
0001
,
1030
0000
0000
0000
0101
0000
0000
0000
1100
0000
0000
0000
1001
0000
0001
1000
,
0001
0000
0101
0000
0001
0001
0000
0110
,
0000
0000
1100
0000
1000
1000
0000
0110
,
0000
0000
0001
1000
0000
0000
0020
0000
,
0032
0000
0003
0200
0020
0000
0000
0000
,
0330
0000
1001
0000
1000
1000
0000
1001
,
0000
0000
1001
0000
0001
0001
0000
1001
,
0000
0000
0001
0200
0000
0300
0010
0002
,
0000
0000
0000
0003
0000
0110
1001
0110
,
0000
0000
0101
0000
0010
1000
0000
0101
,
0000
0000
1100
0000
0001
1000
0000
1100
,
0000
0000
0001
0200
0000
0000
0310
0000
,
0001
0000
1000
1100
0000
0000
0001
0101
,
0000
0000
0000
0000
0000
0010
0001
1000
,
0000
0000
1001
0000
0000
0010
1000
0001
,
0000
0000
1001
0000
0000
1000
0001
0200
,
0000
0300
0010
0020
0000
0030
0100
0200
,
0000
0000
0300
0000
0000
0000
0000
0000
0001
1000
0001
1000
0001
1000
0001
0000
,
1100
0000
0000
0001
0100
0010
0000
0001
,
0000
0110
0101
1000
,
0002
0000
0000
1000
2000
0000
0000
0000
,
0000
0000
3003
0000
0000
0000
0100
0010
0100
0000
0001
0000
1000
0000
0010
0000
,
0001
0100
1000
0100
0010
0100
1000
0010
,
0001
1000
0100
0010
0100
1000
0100
0010
,
0001
0010
0100
1000
0100
0010
0001
0001
,
0100
0000
1000
0000
0100
0000
0001
1000
0100
0000
0010
0000
0100
0000
0001
0000
,
0010
0100
0010
1000
0100
0010
0001
0010
,
0100
1000
0100
0000
1000
0000
0100
0010
,
0000
1010
0000
0000
0010
0000
1001
0000
,
0100
0000
0010
0000
0001
0000
0100
0010
,
0000
0101
0000
0000
1000
0000
0010
0001
,
0000
0000
0010
0000
1000
0000
0000
0000
0000
0000
0000
0000
0000
0000
0010
0100
,
0001
0001
0100
0010
0001
0100
0000
0011
,
0000
2200
0000
0000
0000
0000
0000
0000
,
0000
0000
0000
0000
,
0000
0000
0000
0000
,
3300
0000
0000
0000
;

//---------------dance-single - BEGINNER----------------
#NOTES:
     dance-single:
     BEGINNER:
     Beginner:
     2:
     0.161,0.229,0.126,0.059,0.000,127.000,17.000,8.000,0.000,0.000:
0000
0000
0000
0000
,
0000
0000
0000
0000
,
0000
0000
0000
0000
,
0000
0000
0000
0000
,
0010
0000
0000
0000
,
0100
0000
0000
0000
,
2002
0000
0000
0000
,
3003
0000
0010
0000
,
0100
0000
0100
0000
,
0001
0000
0001
0000
,
1000
0000
1000
0000
,
0010
0000
1001
0000
,
0010
0000
1000
0000
,
1000
0000
0010
0000
,
0020
0000
0000
0000
,
0000
0000
0000
0000
,
0000
0000
0000
0000
,
0000
0030
0000
1000
,
0010
0000
0010
0000
,
0000
0010
0001
0000
,
0001
0000
0000
0100
,
0010
0000
0010
0000
,
1000
0000
0000
0001
,
0001
0000
0000
0000
,
1000
0000
1000
0000
,
0001
0000
0100
0000
,
0000
0001
0100
0000
,
1001
0000
0010
0000
,
0100
0000
0000
0001
,
1000
0000
0001
0000
,
1000
0000
0000
0000
,
0110
0000
0000
0000
,
0001
0000
0110
0000
,
0001
0000
0001
0000
,
0100
0000
0010
0000
,
0100
0000
0000
0100
,
0010
0000
0010
0000
,
0001
0000
0001
0000
,
0001
0000
0001
0000
,
0100
0000
1001
0000
,
0010
0000
0010
0000
,
0001
0000
0001
0000
,
0100
0000
0010
0000
,
1001
0000
0000
0000
,
0100
0000
0100
0000
,
0000
0001
0001
0000
,
1100
0000
1000
0000
,
0101
0000
0100
0000
,
0020
0000
0000
0030
,
0000
1000
0010
0000
,
0000
0010
0100
0000
,
0000
0100
0010
0000
,
0002
0000
0000
0000
0000
0003
0000
0000
,
1001
0000
0010
0000
,
1001
0000
0100
0000
,
1001
0000
0010
0000
,
2000
0000
0000
0000
,
0000
0000
3000
0000
,
1001
0000
0000
1000
,
0001
0000
0010
0000
,
0100
0000
1000
0000
,
0001
0000
0001
0000
,
0010
0000
0101
0000
,
1010
0000
1001
0000
,
0002
0000
0000
0003
2000
0000
0000
0000
,
0000
3000
0000
0010
,
0001
0000
0001
0000
,
0001
0000
1000
0000
,
1000
0000
0100
0000
,
0100
0000
0100
0000
,
0010
0000
0010
0000
,
0100
0000
1000
0000
,
0010
0000
0000
0010
,
0100
0000
0010
0000
,
0100
0000
0010
0000
,
0010
0000
0100
0000
,
1000
0000
0100
0000
,
1001
0000
0000
0000
;
