#TITLE:Cowboy Bebop;
#SUBTITLE:- Tank [Para Para Mix];
#ARTIST:Konami;
#TITLETRANSLIT:;
#SUBTITLETRANSLIT:;
#ARTISTTRANSLIT:;
#CREDIT:Anime Toshokan;
#BANNER:Cowboy Bebop - Tank [Para Para Mix].png;
#BACKGROUND:Cowboy Bebop - Tank [Para Para Mix] bg.png;
#LYRICSPATH:;
#CDTITLE:dejiko.png;
#MUSIC:Cowboy Bebop - Tank [Para Para Mix].mp3;
#OFFSET:-7.147;
#SAMPLESTART:27.340;
#SAMPLELENGTH:12.400;
#SELECTABLE:YES;
#BPMS:0.000=307.970;
#STOPS:93.500=1.559
;
#BGCHANGES:0.000=Cowboy Bebop - Tank [Para Para Mix].avi=1.000=0=0=1,
535.000=Cowboy Bebop - Tank [Para Para Mix] bg.png=1.000=0=0=1,
99999=-nosongbg-=1.000=0=0=0 // don't automatically add -songbackground-
;
// cache tags:
#FIRSTBEAT:0.000;
#LASTBEAT:544.000;
#SONGFILENAME:Songs/DDR Anime 4th Mix/Cowboy Bebop - Tank [Para Para Mix]/Cowboy Bebop - Tank [Para Para Mix].sm;
#HASMUSIC:1;
#HASBANNER:1;
#MUSICLENGTH:116.566;
// end cache tags

//---------------dance-single - BASIC----------------
#NOTES:
     dance-single:
     BASIC:
     Easy:
     3:
     0.202,0.408,0.026,0.309,0.000,126.000,3.000,36.000,0.000,0.000:
1000
0000
0000
0000
,
0001
0000
0000
0000
,
0010
0000
0000
0000
,
1000
0000
0000
0000
,
0001
0000
0000
0000
,
0100
0000
0002
0000
,
0000
0000
0000
0000
,
0000
0000
0000
0000
0000
0000
0000
0000
0000
0000
0000
0000
0000
0000
0000
0000
0000
0000
0000
0000
0000
0000
0000
0000
0000
0000
0000
0000
0000
0000
0000
0000
0000
0000
0000
0003
0000
0000
0000
0000
0000
0000
0000
0000
0000
0000
0000
0000
,
0010
0000
0000
0000
,
0100
0000
2000
0000
,
0000
0000
0000
0000
,
0000
0000
0000
0000
0000
0000
0000
0000
0000
0000
0000
0000
0000
0000
0000
0000
0000
0000
0000
0000
0000
0000
0000
0000
0000
0000
0000
0000
0000
0000
0000
0000
0000
0000
0000
3000
0000
0000
0000
0000
0000
0000
0000
0000
0000
0000
0000
0000
,
0001
0000
0000
0000
,
1000
0000
0020
0000
,
0000
0000
0000
0000
,
0000
0000
0000
0000
0000
0000
0000
0000
0000
0000
0000
0000
0000
0000
0000
0000
0000
0000
0000
0000
0000
0000
0000
0000
0000
0000
0000
0000
0000
0000
0000
0000
0000
0000
0000
0030
0000
0000
0000
0000
0000
0000
0000
0000
0000
0000
0000
0000
,
0001
0000
0000
0000
,
0010
0000
0000
0000
,
1000
0000
0000
0000
,
0010
0000
0100
0000
,
0001
0000
0000
0000
,
1000
0000
0000
0000
,
0010
0000
0100
0000
,
1001
0000
0000
0000
,
0010
0000
0000
0000
,
1000
0000
0002
0000
,
0000
0000
0000
0000
,
0000
0000
0000
0000
0000
0000
0000
0000
0000
0000
0000
0000
0000
0000
0000
0000
0000
0000
0000
0000
0000
0000
0000
0000
0000
0000
0000
0000
0000
0000
0000
0000
0000
0000
0000
0003
0000
0000
0000
0000
0000
0000
0000
0000
0000
0000
0000
0000
,
0001
0000
0000
0000
,
1000
0000
0020
0000
,
0000
0000
0000
0000
,
0000
0000
0030
0000
,
1000
0000
0000
0000
,
0100
0000
0020
0000
,
0000
0000
0000
0000
,
0000
0000
0000
0000
0000
0000
0000
0000
0000
0000
0000
0000
0000
0000
0000
0000
0000
0000
0000
0000
0000
0000
0000
0000
0000
0000
0000
0000
0000
0000
0000
0000
0000
0000
0000
0000
0000
0000
0000
0000
0000
0030
0000
0000
0000
0000
0000
0000
,
0001
0000
0000
0000
,
0010
0000
0200
0000
,
0000
0000
0000
0300
,
0000
0000
0000
0000
,
0001
0000
0000
0000
,
2000
0000
0000
0000
0000
0000
0000
0000
3000
0000
0000
0000
,
0000
0001
0000
0000
,
0001
0000
1000
0000
,
0010
0000
0000
0000
,
1000
0000
0001
0000
,
0000
0020
0000
0000
,
0000
0000
0000
0000
0000
0000
0000
0000
0000
0000
0000
0000
0000
0000
0000
0000
0000
0000
0000
0000
0000
0000
0000
0000
0000
0000
0000
0000
0000
0000
0000
0000
0000
0000
0000
0030
0000
0000
0000
0000
0000
0000
0000
0000
0000
0000
0000
0000
,
0010
0000
0000
0000
,
1000
0000
0200
0000
,
0000
0000
0000
0000
0000
0000
0000
0000
0000
0000
0000
0000
0000
0300
0000
0000
0000
0000
0000
0000
0000
0000
0000
0000
,
0000
0000
0000
0000
,
0001
0000
0000
0000
,
1000
0000
0002
0000
,
0000
0000
0000
0000
,
0000
0000
0000
0003
,
1000
0000
0000
0000
,
0010
0000
0200
0000
,
0000
0000
0000
0000
,
0000
0000
0300
0000
,
0010
0000
0000
0000
,
0100
0000
0002
0000
,
0000
0000
0000
0003
,
0000
0000
0000
0000
,
0001
0000
1000
0000
,
0020
0000
0000
0000
0000
0000
0000
0000
0000
0000
0000
0000
0000
0030
0000
0000
,
0000
0010
0000
0100
,
0001
0000
1000
0000
,
0100
0000
0000
0000
,
0001
0000
0000
0000
0200
0000
0000
0300
,
0000
0000
0000
0020
,
0000
0000
0000
0030
,
0002
0000
0000
0000
0000
0000
0000
0000
0000
0000
0000
0000
0000
0000
0000
0000
0000
0000
0000
0000
0000
0000
0000
0000
0000
0000
0000
0000
0000
0000
0000
0000
0000
0000
0000
0000
0000
0000
0000
0000
0000
0003
0000
0000
0000
0000
0000
0000
,
0000
0000
0000
0000
,
1000
0000
0000
0001
,
0000
0000
0000
0100
,
0000
0000
0000
0010
,
0000
0000
0000
0000
,
2000
0000
0000
0000
0000
0000
0000
0000
3000
0000
0000
0000
,
0002
0000
0000
0000
0000
0000
0000
0000
0000
0000
0000
0000
0000
0003
0000
0000
,
0000
0000
0100
0000
,
0000
0000
0010
0000
,
0000
1000
0000
0000
,
0000
0000
0000
0000
,
0020
0000
0000
0000
0000
0000
0000
0000
0000
0000
0000
0030
,
0200
0000
0000
0000
0000
0000
0000
0300
,
0002
0000
0000
0000
0000
0000
0000
0000
0000
0000
0000
0003
,
2000
0000
0000
0000
0000
0000
0000
0000
0000
0000
0000
3000
,
0010
0000
0000
0000
,
0010
0000
0000
2000
,
0000
0000
0000
0000
0000
0000
0000
0000
0000
0000
0000
3000
0000
0000
0000
0000
,
0000
0000
0000
0000
,
0010
0000
0000
0000
,
0100
0000
0000
0002
,
0000
0000
0000
0000
,
0003
0000
0000
0000
,
1000
0000
0000
0000
,
0001
0000
0000
2000
,
0000
0000
0000
0000
0000
0000
0000
0000
0000
0000
0000
3000
0000
0000
0000
0000
,
0000
0000
0000
0000
,
0001
0000
0000
0000
,
0001
0000
0000
0000
,
0100
0000
0000
0000
,
0010
0000
0010
0000
,
1000
0000
0000
0002
,
0000
0000
0000
0000
0000
0000
0000
0000
0000
0000
0000
0000
0000
0000
0000
0000
0000
0000
0000
0003
0000
0000
0000
0000
,
0000
0010
0000
0000
,
0100
0000
0000
0000
,
0010
0000
0000
0000
,
1000
0000
0000
0000
,
0001
0000
1000
0000
,
2002
0000
0000
3003
,
0010
0000
0000
0000
,
1000
0000
0000
0020
,
0000
0000
0000
0030
,
0000
0000
0000
0000
,
0001
0000
0000
0000
,
1000
0000
0000
0020
,
0000
0000
0000
0000
0000
0000
0000
0000
0000
0000
0000
0000
0000
0000
0000
0000
0000
0000
0000
0000
0000
0000
0000
0000
0000
0000
0000
0000
0000
0000
0000
0000
0000
0000
0000
0000
0000
0000
0000
0000
0000
0000
0000
0000
0000
0000
0000
0030
,
0000
0000
0000
0000
,
0001
0000
0000
0000
,
1000
0000
0000
0020
,
0000
0000
0000
0000
,
0030
0000
0000
0000
,
0100
0000
0000
0000
,
0001
0000
0000
2000
,
0000
0000
0000
3000
,
0000
0000
0000
0000
,
0001
0000
0100
0000
,
0002
0000
0000
0000
0000
0000
0000
0003
,
0000
0010
0000
0100
,
0001
0000
0000
0000
,
0001
0000
0000
0000
,
1000
0000
0010
0000
,
2002
0000
0000
0000
,
0000
0000
0000
0000
,
3003
0000
0000
0000
;

//---------------dance-single - ANOTHER----------------
#NOTES:
     dance-single:
     ANOTHER:
     Medium:
     7:
     0.450,0.525,0.026,0.352,0.000,323.000,3.000,41.000,0.000,0.000:
1000
0001
0000
0000
1000
0001
0000
0000
,
0010
1000
0001
0200
,
0000
0000
0000
0000
,
0000
0000
0000
0000
0000
0000
0000
0000
0000
0000
0000
0000
0000
0000
0000
0000
0000
0000
0000
0000
0000
0000
0000
0300
0000
0000
0000
0000
0000
0000
0000
0000
0000
0000
0000
0000
0000
0000
0000
0000
0000
0000
0000
0000
0000
0000
0000
0000
,
1000
0001
0000
0000
1000
0001
0000
0000
,
0010
1000
0001
0200
,
0000
0000
0000
0000
,
0000
0000
0000
0300
,
0001
1000
0000
0000
0001
1000
0000
0000
,
0001
0100
0010
2000
,
0000
0000
0000
0000
0000
0000
0000
0000
0000
0000
0000
0000
0000
0000
0000
0000
0000
0000
0000
0000
0000
0000
0000
0000
0000
0000
0000
0000
0000
0000
0000
0000
0000
0000
0000
0000
0000
0000
0000
0000
0000
3000
0000
0000
0000
0000
0000
0000
,
0000
0000
0000
0000
,
1000
0001
0000
0000
1000
0001
0000
0000
,
0001
0010
1000
0200
,
0000
0000
0000
0000
,
0000
0000
0000
0300
,
0001
1000
0010
0100
,
0020
0000
0000
0030
,
0000
0010
0100
0010
,
1000
0001
1000
0001
,
0010
0100
0000
0000
0010
0100
0000
0000
,
1000
0001
0010
0100
,
0010
0000
0100
0000
,
0001
0000
0000
0000
,
0100
0001
0000
0000
0100
0001
0000
0000
,
0001
1000
0100
0020
,
0000
0000
0000
0000
,
0000
0000
0000
0000
0000
0000
0000
0000
0000
0000
0000
0000
0000
0000
0000
0000
0000
0000
0000
0000
0000
0000
0000
0000
0000
0000
0000
0000
0000
0000
0000
0000
0000
0000
0000
0030
0000
0000
0000
0000
0000
0000
0000
0000
0000
0000
0000
0000
,
0001
1000
0000
0000
0001
1000
0000
0000
,
0010
0100
1000
0002
,
0000
0000
0000
0000
,
0000
0000
0000
0000
0000
0000
0000
0000
0000
0000
0000
0003
0000
0000
0000
0000
,
0010
0100
0000
0000
0010
0100
0000
0000
,
0001
1000
0100
0020
,
0000
0000
0000
0000
,
0000
0000
0030
0000
,
0001
1000
0000
0000
0001
1000
0000
0000
,
0010
0001
1000
0200
,
0000
0000
0000
0000
,
0000
0000
0000
0300
,
0010
1000
0100
0001
,
0020
0000
0000
0000
0000
0000
0000
0030
,
0000
0010
1000
0001
,
0010
1000
0100
0010
,
0001
1000
0000
0000
0001
1000
0000
0000
,
0010
1000
0001
0010
,
0000
0100
0002
0000
,
0000
0000
0000
0003
,
0001
1000
0000
0000
0001
1000
0000
0000
,
0010
1000
0100
0002
,
0000
0000
0000
0003
,
0000
0000
0000
0000
,
0010
0100
0000
0000
0010
0100
0000
0000
,
0001
1000
0100
0002
,
0000
0000
0000
0000
,
0000
0000
0000
0003
,
0010
1000
0000
0000
0010
1000
0000
0000
,
0001
1000
0100
0002
,
0000
0000
0000
0000
,
0000
0000
0000
0000
0000
0000
0000
0000
0000
0000
0000
0003
0000
0000
0000
0000
,
0010
0100
0000
0000
0010
0100
0000
0000
,
0010
1000
0001
0200
,
0000
0000
0000
0300
,
1000
0100
0001
0010
,
0010
1000
0001
0100
,
0002
0000
0000
0000
0000
0000
0000
0000
0000
0000
0000
0000
0000
0000
0000
0000
0000
0000
0000
0000
0000
0000
0000
0000
0000
0000
0000
0000
0000
0000
0000
0000
0000
0000
0000
0000
0000
0000
0000
0000
0000
0003
0000
0000
0000
0000
0000
0000
,
0000
0010
0000
1000
,
0100
0001
0100
0010
,
0001
0010
0000
0000
0001
0010
0000
0000
,
1000
0001
0100
0010
,
0000
0000
0010
2000
,
0000
0000
0000
0000
0000
0000
0000
0000
0000
3000
0000
0000
0000
0000
0000
0000
,
0002
0000
0000
0000
0000
0000
0000
0000
0000
0000
0000
0000
0000
0003
0000
0000
,
0000
0000
0000
0020
,
0000
0000
0000
0030
0100
0000
0000
0000
0010
0000
0000
0000
2000
0000
0000
0000
,
0000
0000
0000
3000
0100
0000
0000
0000
0010
0000
0000
0000
0002
0000
0000
0000
,
0000
0000
0000
0003
0010
0000
0000
0000
0100
0000
0000
0000
2000
0000
0000
0000
,
0000
0000
3000
0100
0000
0000
0010
0000
0000
0000
0000
0000
,
0002
0000
0000
0000
0000
0003
2000
0000
0000
0000
0000
0000
,
0000
0000
0000
0000
0000
3000
0000
0000
,
0000
0000
0010
0100
,
0001
1000
0010
0000
,
0000
0010
0100
0010
,
0000
0001
1000
0000
,
0020
0000
0000
0000
0000
0000
0000
0000
0000
0000
0000
0000
0000
0030
0000
0000
,
2000
0000
0000
0000
0000
0000
0000
3000
,
0002
0000
0000
0000
0000
0000
0000
0000
0000
0000
0000
0000
0000
0000
0000
0000
0000
0000
0000
0000
0000
0000
0000
0000
0000
0000
0000
0000
0000
0000
0000
0000
0000
0000
0000
0000
0000
0000
0000
0000
0000
0003
0000
0000
0000
0000
0000
0000
,
0200
0000
0000
0000
0000
0000
0000
0000
0000
0000
0000
0000
0000
0000
0000
0000
0000
0000
0000
0000
0000
0000
0000
0000
0000
0000
0000
0000
0000
0000
0000
0000
0000
0000
0000
0000
0000
0000
0000
0000
0000
0300
0000
0000
0000
0000
0000
0000
,
0001
1000
0000
0000
0001
1000
0010
0000
,
1000
0001
0010
0200
,
0000
0000
0000
0000
0000
0300
0000
0000
0000
0000
0000
0000
0010
0000
0000
0000
0000
0000
0000
0000
0000
0000
0000
0000
1000
0000
0000
0000
0000
0000
0000
0000
0000
0000
0000
0000
0100
0000
0000
0000
0000
0000
0000
0000
0000
0000
0000
0000
,
0010
0001
0010
1000
,
0010
0100
0000
0000
0010
0100
0001
0000
,
1000
0010
0100
0002
,
0000
0000
0000
0000
0000
0000
0000
0000
0000
0000
0000
0000
0000
0000
0000
0000
0000
0000
0000
0000
0000
0000
0000
0000
0000
0000
0000
0000
0000
0000
0000
0000
0000
0000
0000
0003
0000
0000
0000
0000
0000
0000
0000
0000
0000
0000
0000
0000
,
0000
0000
0000
0000
,
0010
1000
0000
0000
0010
1000
0001
0000
,
0100
0010
1000
0002
,
0000
0003
0000
0000
0000
0000
0000
0000
,
0000
0000
0000
0000
,
0001
0001
0010
0100
,
0001
1000
0100
0010
,
1000
0010
0100
0001
,
1000
0000
0000
0000
0000
0000
0000
0000
0000
0000
0000
0000
0010
0000
0000
0000
0000
0000
0000
0000
0000
0000
0000
0000
0200
0000
0000
0000
0000
0000
0000
0000
0000
0000
0000
0000
0000
0000
0000
0000
0000
0300
0000
0000
0000
0000
0000
0000
,
0001
1000
0100
0001
,
2000
0000
0000
0000
0000
0000
0000
0000
0000
0000
0000
3000
0000
0000
0000
0000
,
0000
0010
0100
0001
,
1000
0001
0010
0100
,
0001
1000
0000
0000
0001
1000
0000
0000
,
0010
1000
0010
0001
,
1000
0000
0000
0001
0000
0000
2002
0000
0000
0000
0000
3003
,
0000
0000
0000
0000
,
0001
1000
0000
0000
0001
1000
0010
0000
,
0100
0010
1000
0002
,
0000
0000
0000
0000
0000
0000
0000
0000
0000
0000
0000
0003
,
0000
0000
0000
0000
,
1000
0010
0000
0000
1000
0010
0001
0000
,
0010
0100
1000
0002
,
0000
0000
0000
0000
,
0003
0000
0000
0000
,
0010
0100
0000
0000
0010
0100
1000
0000
,
0001
0010
1000
0002
,
0000
0000
0000
0000
,
0003
0000
0000
0000
,
0001
1000
0000
0000
0001
1000
0010
0000
,
1000
0010
0001
2000
,
0000
0000
0000
0000
0000
0000
0000
0000
0000
0000
0000
0000
0000
0000
0000
0000
0000
0000
0000
0000
0000
0000
0000
0000
0000
0000
0000
0000
0000
0000
0000
0000
0000
0000
0000
0000
0000
0000
0000
0000
0000
3000
0000
0000
0000
0000
0000
0000
,
0000
0000
0000
0000
,
0010
0010
1000
0001
,
0110
0000
0000
0000
,
0000
0010
1000
0001
,
0010
1000
0001
0100
,
0000
0010
1000
0100
,
0010
0001
1000
0010
,
2002
0000
0000
0000
,
0000
0000
0000
0000
,
3003
0000
0000
0000
;

//---------------dance-single - MANIAC----------------
#NOTES:
     dance-single:
     MANIAC:
     Hard:
     10:
     0.786,0.875,0.283,0.446,0.051,556.000,33.000,52.000,0.000,0.000:
1000
0001
0000
0000
1000
0001
0010
0000
,
1000
0001
0010
0000
1000
0000
0001
0000
,
1000
0000
0001
1000
,
0000
0100
0010
0000
,
0010
0100
0000
0000
0010
0100
1000
0000
,
0001
0010
0100
0000
1000
0000
0001
0000
,
0001
0000
0100
0001
,
0000
0100
0010
0000
,
0001
0010
0000
0000
0001
0010
0100
0000
,
1000
0001
0010
0000
1000
0000
0001
0000
,
0011
0000
1010
0000
,
0000
0100
0010
0000
,
1000
0010
0000
0000
0001
0010
0100
0000
,
1000
0001
0100
0000
1000
0000
0001
0000
,
0001
0000
0001
0010
,
0000
0001
1000
0000
,
1000
0000
0100
1000
0010
0001
0100
0000
,
2000
0000
0000
0000
0000
0000
0000
0000
0000
0000
0000
0000
0000
0000
0000
0000
0000
0000
0000
0000
0000
0000
0000
0000
0010
0000
0000
0000
0000
0000
0000
0000
0000
0000
0000
0000
0000
0000
0000
0000
0000
3000
0000
0000
0000
0000
0000
0000
,
0001
0000
1000
0100
0001
0010
1000
0001
,
0002
0000
0000
0000
0000
0000
0000
0000
0000
0000
0000
0000
0000
0000
0000
0000
0000
0000
0000
0000
0000
0000
0000
0000
1000
0000
0000
0000
0000
0000
0000
0000
0000
0000
0000
0000
0000
0000
0000
0000
0000
0003
0000
0000
0000
0000
0000
0000
,
1000
0100
0000
0000
0010
0001
1000
0000
,
1000
0100
0010
0000
0001
0000
0100
0000
,
1010
0010
0101
0001
,
1001
0000
0000
0000
,
1000
0001
0000
0010
1000
0000
0001
0100
,
1000
0001
1000
0000
0001
0000
0001
0000
,
1000
0001
0010
0100
,
0010
1000
0001
1000
,
0010
0100
0000
0001
0100
0000
1000
0001
,
1000
0010
0001
0000
1000
0000
0100
0000
,
1000
0010
0001
0100
,
1000
0001
0010
0100
,
0001
0010
0000
0010
0100
0000
0100
1000
,
1000
0001
0000
0000
1000
0000
0001
0000
,
0001
1000
0010
0100
,
0010
0100
1000
0001
,
0001
0100
0000
1000
0010
0000
0001
0100
,
1000
0010
0001
0000
1000
0000
1000
0000
,
0010
0100
1000
0001
,
0100
0010
1000
0100
,
1000
0000
0001
0000
0100
1000
0010
0100
,
2000
0000
0000
0000
0000
0000
0000
0000
0000
0000
0000
0000
0000
0000
0000
0000
0000
0000
0000
0000
0000
0000
0000
0000
0001
0000
0000
0000
0000
0000
0000
0000
0000
0000
0000
0000
0000
0000
0000
0000
0000
3000
0000
0000
0000
0000
0000
0000
,
0010
1001
0000
0110
,
0010
0100
0000
0000
1001
0000
0110
0000
,
0001
0010
0000
1000
0100
0000
0001
1000
,
0001
1000
0000
1000
0001
0000
1001
0000
,
0000
0110
2002
3003
,
0010
0010
0100
0100
,
0010
1000
0000
0100
0001
0000
1000
0010
,
0010
0000
0000
0000
0000
0000
0100
0000
0000
0000
0000
0000
2000
0000
0000
0000
0000
0000
0000
0000
0000
3000
0000
0000
0002
0000
0000
0000
0000
0000
0000
0000
0000
0000
0000
0000
0000
0000
0003
0000
0000
0000
0000
0000
0000
0000
0000
0000
,
0010
0000
0100
0000
0001
0010
1000
0100
,
0010
0000
0000
0000
0000
0000
1010
0000
0000
0000
0000
0000
0202
0000
0000
0000
0000
0000
0000
0303
0000
0000
0000
0000
,
0010
0100
0000
1000
0010
0000
0001
0010
,
0010
0000
0000
0000
0000
0000
0100
0000
0000
0000
0000
0000
1000
0000
0000
0000
0000
0000
0000
0000
0000
0000
0000
0000
0020
0000
0000
0000
0000
0000
0000
0000
0000
0000
0000
0000
0000
0000
0000
0000
0000
0030
0000
0000
0000
0000
0000
0000
,
0010
0000
0100
0000
0010
1000
0010
0100
,
0010
0100
1001
0000
,
0001
0010
0000
0010
0100
0000
0100
1000
,
0010
0000
0000
0000
0000
0000
0100
0000
0000
0000
0000
0000
0001
0000
0000
0000
0000
0000
0000
0000
0000
0000
0000
0000
0200
0000
0000
0000
0000
0000
0000
0000
0000
0000
0000
0000
0000
0000
0000
0000
0000
0300
0000
0000
0000
0000
0000
0000
,
0010
0100
0001
1000
,
1000
0001
1000
0010
,
0010
0100
0000
1000
0001
0000
0010
0100
,
1000
0000
0100
0000
0001
0000
0000
0000
2000
0000
0000
0000
0000
3000
0000
0000
,
0010
1000
0001
0100
,
0010
0100
1000
0001
,
0010
0000
0100
0000
1000
0001
0010
0100
,
0001
1000
0110
0010
,
1000
0001
0000
1000
0001
0000
0100
0000
,
0010
0100
1010
0000
0101
0000
0000
0000
,
1000
0010
0000
0001
0100
0000
1000
0010
,
0010
0000
0000
0000
0000
0000
0100
0000
0000
0000
0000
0000
1000
0000
0000
0000
0000
0000
0000
0000
0000
0000
0000
0000
0200
0000
0000
0000
0000
0000
0000
0000
0000
0000
0000
0000
0000
0000
0000
0000
0000
0300
0000
0000
0000
0000
0000
0000
,
0010
0000
0110
2002
,
3003
0001
1000
0100
,
2010
0000
0000
0000
0000
0000
0000
0000
0000
0000
0000
0000
0001
0000
0000
0000
0000
0000
0000
0000
0000
0000
0000
0000
0100
0000
0000
0000
0000
0000
0000
0000
0000
0000
0000
0000
0001
0000
0000
0000
0000
3000
0000
0000
0000
0000
0000
0000
,
0010
0100
0001
1000
,
0002
0000
0000
0000
2003
0000
0000
0000
3020
0000
0000
0000
,
0032
0000
0000
0000
2003
0000
0000
0000
3020
0000
0000
0000
,
0032
0000
0000
0000
0023
0000
0000
0000
0230
0000
0000
0000
,
2300
0000
0000
0000
3020
0000
0000
0000
2030
0000
0000
0000
,
3200
0000
0000
0000
0010
0000
0002
0300
,
0000
0000
0000
0000
0000
0000
0000
0000
0000
0000
0000
0000
0000
0000
0000
0000
0000
0000
0000
0000
0000
0000
0000
0000
1000
0000
0000
0000
0000
0000
0000
0000
0000
0000
0000
0000
0000
0000
0000
0000
0000
0003
0000
0000
0000
0000
0000
0000
,
0000
0000
1010
0101
,
1000
0000
0000
0000
0000
0000
0000
0000
0000
0000
0000
0000
0002
0000
0000
0000
0000
0000
0000
0000
0003
0000
0000
0000
2000
0000
0000
0000
0000
0000
0000
0000
0000
3000
0000
0000
0200
0000
0000
0000
0000
0000
0000
0000
0000
0300
0000
0000
,
0000
0000
0000
0000
0110
0000
0000
0000
1001
0000
0000
0000
,
0110
0000
0000
0000
0010
0000
0000
0000
1000
0000
0000
0000
,
0020
0000
0000
0000
0000
0000
0000
0000
0000
0000
0000
0000
0000
0000
0000
0000
0000
0000
0000
0000
0000
0000
0000
0000
1000
0000
0000
0000
0000
0000
0000
0000
0000
0000
0000
0000
0000
0000
0000
0000
0000
0030
0000
0000
0000
0000
0000
0000
,
2000
0000
0000
0000
0010
0000
0000
3000
,
0020
0000
0000
0000
1000
0000
0000
0030
,
2000
0000
0000
0000
0000
0000
0000
0000
0000
0000
0000
0000
0000
0000
0000
0000
0000
0000
0000
0000
0000
0000
0000
0000
0001
0000
0000
0000
0000
0000
0000
0000
0000
0000
0000
0000
0000
0000
0000
0000
0000
3000
0000
0000
0000
0000
0000
0000
,
0010
0000
1000
0010
0000
0001
0100
0000
,
1000
0100
0001
0000
0010
0000
2000
0000
,
0000
0000
0000
3000
0010
0100
0001
1000
,
0010
0100
1000
0100
0010
0001
0010
0100
,
1000
0000
0001
0010
0000
1000
0100
0000
,
0010
0100
0010
0000
0001
0000
2000
0000
,
0000
0000
3000
0010
1000
0000
0001
0010
,
0000
0010
1000
0001
,
0100
0000
1000
0010
0000
0001
0010
0000
,
0100
1000
0010
0000
0001
0000
2000
0000
,
0000
0000
0000
3000
1000
0000
0000
0000
0001
0000
0000
0000
0010
0000
0000
0000
,
0100
1000
0001
1000
,
0001
0000
0000
0000
0000
0000
1000
0000
0000
0000
0000
0000
0001
0000
0000
0010
0000
0000
0200
0000
0000
0000
0300
0000
,
1000
0000
0001
0000
0010
0100
0001
0000
,
1000
0000
0001
0000
1000
0001
1000
0000
,
0001
0000
0010
0000
1000
0100
1000
0000
,
0001
0000
1000
0000
0001
0010
1000
0100
,
0020
0000
0000
0030
1100
0000
0000
0000
,
0001
0000
1010
0000
0000
1000
0010
0000
,
0100
0001
1000
0010
,
1000
0001
0000
0001
0010
0000
0100
1000
,
0000
0000
0000
0000
0010
0000
0000
0000
0001
0000
0000
0000
2000
0000
0000
3000
,
1000
0001
1000
0001
2002
0000
0000
0000
,
0000
0000
0000
0000
0000
3003
0000
0000
0000
0000
0000
0000
0001
0000
0000
0000
0000
0000
0000
0000
0000
0000
0000
0000
0100
0000
0000
0000
0000
0000
0000
0000
0000
0000
0000
0000
1000
0000
0000
0000
0000
0000
0000
0000
0000
0000
0000
0000
,
0001
0010
0000
0100
1000
0000
1000
0001
,
0000
0000
0010
0100
1000
0000
0020
0000
,
0000
0030
0010
0000
0000
1000
0001
0000
,
0100
0001
0010
1000
,
0010
0100
0000
0001
0010
0000
1000
0100
,
0010
0100
0001
0200
,
0000
0300
0010
0000
1000
0000
0001
0000
,
0100
0001
1000
0010
,
1000
0100
0000
0001
0010
0000
0100
1000
,
0010
0010
1000
0200
,
0000
0300
0001
0000
0010
0000
1000
0000
,
0100
1000
0010
1000
,
0001
0010
0000
0010
1000
0000
0100
0001
,
0100
1000
0001
0020
,
0000
0030
0100
0000
0001
0000
1000
0000
,
0010
0010
1000
0001
,
1000
0000
0001
0000
1000
0100
0001
0010
,
0020
0000
0000
0000
0000
0000
0000
0000
0000
0000
0000
0000
0000
0000
0000
0000
0000
0000
0000
0000
0000
0000
0000
0000
1000
0000
0000
0000
0000
0000
0000
0000
0000
0000
0000
0000
0000
0000
0000
0000
0000
0000
0000
0000
0000
0000
0000
0030
,
0000
0000
0110
0000
0000
0010
1001
0000
,
0110
0010
1000
0001
,
0010
1000
0000
0100
0001
0000
0010
0100
,
1000
0100
0001
0010
0100
1000
0010
0000
,
2002
0000
0000
0000
,
0000
0000
0000
0000
,
3003
0000
0000
0000
;

//---------------dance-single - BEGINNER----------------
#NOTES:
     dance-single:
     BEGINNER:
     Beginner:
     2:
     0.137,0.350,0.026,0.043,0.000,104.000,3.000,5.000,0.000,0.000:
1000
0000
0000
0000
,
0001
0000
0000
0000
,
0010
0000
0000
0000
,
1000
0000
0000
0000
,
0001
0000
0000
0000
,
0100
0000
0000
0000
,
0001
0000
0000
0000
,
0000
0000
0000
0000
,
0010
0000
0000
0000
,
0100
0000
0000
0000
,
1000
0000
0000
0000
,
0000
0000
0000
0000
,
0001
0000
0000
0000
,
1000
0000
0000
0000
,
0010
0000
0000
0000
,
0000
0000
0000
0000
,
0001
0000
0000
0000
,
0010
0000
0000
0000
,
1000
0000
0000
0000
,
0010
0000
0000
0000
,
0001
0000
0000
0000
,
1000
0000
0000
0000
,
0010
0000
0000
0000
,
1001
0000
0000
0000
,
0010
0000
0000
0000
,
1000
0000
0000
0000
,
0001
0000
0000
0000
,
0000
0000
0000
0000
,
0001
0000
0000
0000
,
1000
0000
0000
0000
,
0010
0000
0000
0000
,
0000
0000
0000
0000
,
1000
0000
0000
0000
,
0100
0000
0000
0000
,
0010
0000
0000
0000
,
0000
0000
0000
0000
,
0001
0000
0000
0000
,
0010
0000
0000
0000
,
0100
0000
0000
0000
,
0000
0000
0000
0000
,
0001
0000
0000
0000
,
1000
0000
0000
0000
,
0001
0000
0000
0000
,
0001
0000
0000
0000
,
0010
0000
0000
0000
,
1000
0000
0000
0000
,
0000
0000
0000
0000
,
0000
0000
0000
0000
,
0010
0000
0000
0000
,
1000
0000
0000
0000
,
0100
0000
0000
0000
,
0000
0000
0000
0000
,
0001
0000
0000
0000
,
1000
0000
0000
0000
,
0001
0000
0000
0000
,
0000
0000
0000
0000
,
1000
0000
0000
0000
,
0010
0000
0000
0000
,
0100
0000
0000
0000
,
0000
0000
0000
0000
,
0010
0000
0000
0000
,
0100
0000
0000
0000
,
0001
0000
0000
0000
,
0000
0000
0000
0000
,
0001
0000
0000
0000
,
0010
0000
0000
0000
,
0010
0000
0000
0000
,
0001
0000
0000
0000
,
0100
0000
0000
0000
,
0001
0000
0000
0000
,
0100
0000
0000
0000
,
0000
0000
0000
0000
,
0001
0000
0000
0000
,
0000
0000
0000
0000
,
1000
0000
0000
0000
,
0001
0000
0000
0000
,
0100
0000
0000
0000
,
0010
0000
0000
0000
,
1000
0000
0000
0000
,
0001
0000
0000
0000
,
0000
0000
0100
0000
,
0000
0000
0010
0000
,
0000
0000
1000
0000
,
0000
0000
0000
0000
,
0010
0000
0000
0000
,
0100
0000
0000
0000
,
0001
0000
0000
0000
,
1000
0000
0000
0000
,
0010
0000
0000
0000
,
0010
0000
0000
0000
,
0000
0000
0000
0000
,
0000
0000
0000
0000
,
0010
0000
0000
0000
,
0100
0000
0000
0000
,
0000
0000
0000
0000
,
0000
0000
0000
0000
,
1000
0000
0000
0000
,
0001
0000
0000
0000
,
0000
0000
0000
0000
,
0000
0000
0000
0000
,
0001
0000
0000
0000
,
0001
0000
0000
0000
,
0100
0000
0000
0000
,
0010
0000
0000
0000
,
1000
0000
0000
0000
,
0000
0000
0000
0000
,
0010
0000
0000
0000
,
0100
0000
0000
0000
,
0010
0000
0000
0000
,
1000
0000
0000
0000
,
0001
0000
1000
0000
,
2002
0000
0000
3003
,
0000
0000
0000
0000
,
1000
0000
0000
0000
,
0000
0000
0000
0000
,
0000
0000
0000
0000
,
0001
0000
0000
0000
,
1000
0000
0000
0000
,
0000
0000
0000
0000
,
0000
0000
0000
0000
,
0001
0000
0000
0000
,
1000
0000
0000
0000
,
0000
0000
0000
0000
,
0000
0000
0000
0000
,
0100
0000
0000
0000
,
0001
0000
0000
0000
,
0000
0000
0000
0000
,
0000
0000
0000
0000
,
0001
0000
0000
0000
,
0002
0000
0000
0000
0000
0000
0000
0003
,
0000
0000
0000
0000
,
0001
0000
0000
0000
,
0001
0000
0000
0000
,
1000
0000
0010
0000
,
2002
0000
0000
0000
,
0000
0000
0000
0000
,
3003
0000
0000
0000
;
