#TITLE:V i p;
#SUBTITLE:;
#ARTIST:Jankenpopp;
#TITLETRANSLIT:;
#SUBTITLETRANSLIT:;
#ARTISTTRANSLIT:;
#CREDIT:Jankenpopp;
#BANNER:vipbanner.png;
#BACKGROUND:v i pbackground.PNG;
#LYRICSPATH:;
#CDTITLE:drdessartcoin.png;
#MUSIC:V i p.mp3;
#OFFSET:0.000;
#SAMPLESTART:40.000;
#SAMPLELENGTH:12.000;
#SELECTABLE:YES;
#BPMS:0.000=150.000;
#STOPS:;
#BGCHANGES:0.000=v i pbackground.PNG=1.000=0=0=1,
99999=-nosongbg-=1.000=0=0=0 // don't automatically add -songbackground-
;
// cache tags:
#FIRSTBEAT:0.000;
#LASTBEAT:175.000;
#SONGFILENAME:Songs/StepMix 1.0/V i p/V i p.sm;
#HASMUSIC:1;
#HASBANNER:1;
#MUSICLENGTH:70.530;
// end cache tags

//---------------dance-single - ----------------
#NOTES:
     dance-single:
     :
     Easy:
     4:
     0.259,0.341,0.269,0.014,0.000,108.000,19.000,1.000,0.000,0.000:
1001
0000
0000
0000
,
1001
0000
0000
0000
,
1001
0000
0000
0000
,
1001
0000
0001
0001
,
1000
1000
0001
0001
,
1000
1000
0001
0001
,
1000
1000
0010
0010
,
0100
0100
0001
0001
,
1000
1000
0100
0100
,
0010
0010
0001
0001
,
0100
0100
1000
1000
,
0010
0001
0100
1000
,
1001
0000
1001
0000
,
1001
0000
1001
0000
,
0000
0100
0000
0100
0000
0100
0000
0000
,
0000
0010
0000
0010
0000
0010
0000
0000
,
0000
0100
0000
0100
0000
0100
0000
0000
,
0000
0010
0000
0010
0000
0010
0000
0000
,
0000
0100
0000
0100
0000
0100
0000
0000
,
0000
0010
0001
0010
,
0001
1000
0010
0100
,
0001
1000
0010
0100
,
0001
1000
0010
0100
,
0002
0000
0000
0000
,
0003
0000
0000
0000
,
1000
0000
0000
0000
,
0001
0000
0000
0000
,
0010
0000
0000
0000
,
0100
0000
0000
0000
,
1000
0000
0000
0000
,
0001
0000
0000
0000
,
0100
0000
0000
0000
,
0010
0000
0000
0000
,
1001
0000
0000
0000
,
0110
0000
0000
0000
,
1010
0000
0000
0000
,
0101
0000
0000
0000
,
0110
0000
0000
0000
,
1001
1001
0000
0000
,
0110
0110
0001
1000
,
0010
0100
0001
1000
,
0010
0100
0001
1000
,
0010
0100
0001
1000
,
0001
1001
0010
1001
;

//---------------dance-single - Copied from----------------
#NOTES:
     dance-single:
     Copied from:
     Medium:
     6:
     0.456,0.558,0.964,0.213,0.000,142.000,68.000,15.000,0.000,0.000:
1001
1001
0000
0000
0110
0110
0000
0000
,
1001
1001
0000
0000
0110
0110
0000
0000
,
1001
1001
0000
0000
0110
0110
0000
0000
,
1001
1001
0000
0000
0110
0110
0000
0000
,
1010
1010
0000
0000
0011
0011
0000
0000
,
1010
1010
0000
0000
0101
0101
0000
0000
,
1100
1100
0000
0000
0101
0101
0000
0000
,
1100
1100
0000
0000
1001
1001
0000
0000
,
0110
0110
0000
0000
1001
1001
0000
0000
,
0110
0110
0000
0000
0011
0011
0000
0000
,
1010
1010
0000
0000
0101
0101
0000
0000
,
1100
1100
0000
0000
1001
1001
0000
0000
,
0000
0100
0000
0100
0000
0100
0000
0000
,
0000
0010
0000
0010
0000
0010
0000
0000
,
0000
0101
0000
1100
0000
0110
0000
0000
,
0000
1001
0000
0110
0000
1001
0000
0000
,
0000
1000
0000
0001
0000
1000
0000
0000
,
0000
1000
0000
0001
0000
0010
0000
0002
,
0000
0003
0000
0001
0000
0001
0000
2000
,
0000
3000
0000
1000
0000
1000
0000
0002
,
0000
0003
0000
0001
0000
0001
0000
2000
,
0000
3000
0000
1000
0000
1000
0000
0002
,
0000
0003
0000
0001
0000
0001
0000
2000
,
0000
3000
0000
1000
0000
1000
0000
0000
,
0000
0000
1000
0100
,
0001
0000
0000
0001
1000
0000
0000
0000
,
0110
0000
1001
0000
,
0001
0000
0000
1000
0010
0000
0100
0000
,
0001
0000
1000
0000
,
0010
0000
0000
0001
1000
0000
0000
0000
,
0110
0000
1001
0000
,
0220
0000
0000
0000
0000
0000
0000
0330
,
0000
0000
0000
0001
1000
0000
0000
0000
,
0001
0000
0000
0010
1000
1000
0000
0000
,
0001
0000
0100
0000
,
0000
0001
0010
0000
0100
0000
1000
0000
,
0002
0003
2000
3000
,
0020
0000
0030
0100
0001
0000
0000
0000
,
2020
0000
3030
0000
0202
0000
0000
0303
,
1001
0110
1001
0110
,
0001
1000
0010
0100
,
0001
1000
0010
0100
,
0001
1000
0010
0100
,
0001
0110
0011
1010
;

//---------------dance-single - ----------------
#NOTES:
     dance-single:
     :
     Beginner:
     3:
     0.166,0.279,0.170,0.000,0.000,70.000,12.000,0.000,0.000,0.000:
0001
0000
0000
0000
,
1000
0000
0000
0000
,
0010
0000
0000
0000
,
0001
0000
0000
0000
,
0001
0000
0000
0000
,
0010
0000
0000
0000
,
0100
0000
0000
0000
,
1000
0000
1000
0000
,
1000
0000
0000
0000
,
0001
0000
0000
0000
,
1000
0000
0000
0000
,
0110
0000
0000
0000
,
0001
0000
0000
0000
,
1000
0000
0000
0000
,
0010
0000
0000
0000
,
0100
0000
0000
0000
,
0001
0000
0000
0000
,
0010
1000
0001
0000
,
1000
0000
0000
0000
,
0110
0000
0000
0000
,
1001
0000
0000
0000
,
0010
0000
0100
0000
,
0010
0000
0100
0000
,
0001
0000
1000
0000
,
0001
0000
1000
0000
,
0001
0000
1000
0000
,
0010
0000
0100
0000
,
0010
0000
0100
0000
,
1001
0000
1001
0000
,
0110
0000
0110
0000
,
0001
0000
0010
0000
,
0100
0000
1000
0000
,
1000
0000
0100
0000
,
0010
0000
0001
0000
,
0010
0000
0100
0000
,
1000
0000
1000
0000
,
1000
0000
0001
0000
,
1000
0000
1000
0000
,
1001
0000
0110
0000
,
1001
0000
0000
0000
,
1001
0000
0110
0000
,
0001
0000
1000
0000
,
0010
0000
0100
0000
,
0001
1000
0000
1000
;

//---------------dance-single - ----------------
#NOTES:
     dance-single:
     :
     Hard:
     9:
     0.798,0.806,1.000,0.312,0.581,226.000,146.000,22.000,0.000,0.000:
1001
1001
0110
0000
1001
1001
0110
0000
,
1001
1001
0110
0000
1001
1001
0110
0000
,
1001
1001
0110
0000
1001
1001
0110
0000
,
1001
1001
0110
0000
1001
1001
0110
0000
,
0011
0011
0110
0000
1010
1010
0110
0000
,
0011
0011
0110
0000
1010
1010
1100
0000
,
0011
0011
0110
0000
1001
1001
0110
0000
,
1001
0000
1001
0000
2002
0000
0000
3003
,
0110
0110
1001
0000
0110
0110
1001
0000
,
0110
0110
1001
0000
1001
1001
0110
0000
,
1001
1001
0110
0000
1001
1001
0110
0000
,
0110
0110
1001
0000
0110
0110
1001
0000
,
0000
0000
0000
0001
0000
1000
0000
0010
0000
0100
0000
0001
0000
2000
0000
0020
,
0000
0000
0000
0030
3000
0001
0000
2000
0000
0000
0000
0000
0000
0000
0000
0000
,
3000
0000
0000
0001
0000
0100
0000
0010
0000
1000
0000
0001
0000
2000
0000
0020
,
0000
0000
0000
0000
0000
0000
0000
0000
0000
0000
3030
0000
0000
1001
0000
0000
,
0000
0000
0000
0010
0000
1000
0000
0001
0000
0100
0000
0010
0000
1000
0000
0002
,
0000
0000
0000
0000
0000
1000
0000
2000
0000
0000
0000
0000
0000
0000
0000
0000
,
3003
0000
0000
0001
0000
1000
0000
0010
0000
0100
0000
0001
0000
1000
0000
2020
,
0000
0000
0000
0000
0000
3030
0001
0000
,
1001
1001
0110
0000
1001
1001
0110
0000
,
1001
1001
0110
0000
1001
1001
0110
0000
,
1001
1001
0110
0000
1001
1001
0110
0000
,
1001
1001
0110
0000
1001
1001
0110
0000
,
0011
0011
0110
0000
1010
1010
0110
0000
,
0011
0011
0110
0000
1010
1010
1100
0000
,
0011
0011
0110
0000
1001
1001
0110
0000
,
1001
0000
1001
0000
2002
0000
0000
3003
,
0110
0110
1001
0000
0110
0110
1001
0000
,
0110
0110
1001
0000
1001
1001
0110
0000
,
1001
1001
0110
0000
1001
1001
0110
0000
,
0110
0110
1001
0000
0110
0110
1001
0000
,
0000
0000
0000
0001
0000
1000
0000
0010
0000
0100
0000
0001
0000
2000
0000
0020
,
0000
0000
0000
0030
3000
0001
0000
2000
0000
0000
0000
0000
0000
0000
0000
0000
,
3000
0000
0000
0001
0000
0100
0000
0010
0000
1000
0000
0001
0000
2000
0000
0020
,
0000
0000
0000
0000
0000
0000
0000
0000
0000
0000
3030
0000
0000
1001
0000
0000
,
0000
0000
0000
0010
0000
1000
0000
0001
0000
0100
0000
0010
0000
1000
0000
0002
,
0000
0000
0000
0000
0000
1000
0000
2000
0000
0000
0000
0000
0000
0000
0000
0000
,
3003
0000
0000
0001
0000
1000
0000
0010
0000
0100
0000
0001
0000
1000
0000
2020
,
0000
0000
0000
0000
0000
0000
0000
0000
0000
0000
3030
0000
0001
1000
0000
0000
,
0000
0010
0000
0000
0000
0010
0000
0000
0000
0000
0000
0000
0000
0001
0000
0000
,
0000
0001
0000
0000
0000
1000
0000
0001
0000
1000
0000
0000
0000
0010
0000
0100
,
0000
0001
0000
0000
1001
0000
0000
0000
0110
0000
0000
0000
1001
0000
0000
0000
,
0000
0001
0000
1000
0000
0001
0000
1000
0000
0001
0000
0000
1001
0000
0000
0000
;
