#TITLE:Azumanga Daioh;
#SUBTITLE:- Sora Mimi Cake;
#ARTIST:Oranges And Lemons;
#TITLETRANSLIT:;
#SUBTITLETRANSLIT:;
#ARTISTTRANSLIT:;
#CREDIT:Anime Toshokan;
#BANNER:Azumanga Daioh - Sora Mimi Cake.png;
#BACKGROUND:Azumanga Daioh - Sora Mimi Cake bg.png;
#LYRICSPATH:;
#CDTITLE:dejiko.png;
#MUSIC:Azumanga Daioh - Sora Mimi Cake.mp3;
#OFFSET:-0.126;
#SAMPLESTART:32.010;
#SAMPLELENGTH:14.260;
#SELECTABLE:YES;
#BPMS:0.000=135.000;
#STOPS:;
#BGCHANGES:21.500=Azumanga Daioh - Sora Mimi Cake.avi=1.000=0=0=1,
197.000=Azumanga Daioh - Sora Mimi Cake bg.png=1.000=0=0=1,
99999=-nosongbg-=1.000=0=0=0 // don't automatically add -songbackground-
;
// cache tags:
#FIRSTBEAT:8.000;
#LASTBEAT:201.000;
#SONGFILENAME:Songs/Anime Mix 2/Azumanga Daioh - Sora Mimi Cake/Azumanga Daioh - Sora Mimi Cake.sm;
#HASMUSIC:1;
#HASBANNER:1;
#MUSICLENGTH:96.811;
// end cache tags

//---------------dance-single - BASIC----------------
#NOTES:
     dance-single:
     BASIC:
     Easy:
     3:
     0.272,0.260,0.052,0.248,0.000,155.000,5.000,24.000,0.000,0.000:
0000
0000
0000
0000
,
0000
0000
0000
0000
,
0020
0030
0100
0000
,
0010
0001
1000
0100
,
0200
0300
0010
0000
,
0001
1000
0010
0100
,
0020
0030
0100
0000
,
0001
1000
0100
0010
,
0200
0300
0010
0000
,
0010
0100
1000
0001
,
0020
0000
0000
0030
2000
0000
0000
3000
,
0002
0000
0000
0003
0200
0000
0000
0300
,
0002
0000
0000
0003
2000
0000
0000
3000
,
0010
0010
0010
0010
,
1000
1000
0001
0001
,
1000
0000
0000
0000
0000
0000
1000
0000
0000
0000
0000
0000
0200
0000
0000
0000
0000
0000
0000
0300
0000
0000
0000
0000
,
1001
0000
1001
0000
,
0010
1000
0100
0001
,
0020
0030
0100
0000
,
0010
1000
0001
0100
,
0200
0300
0010
0000
,
1000
0001
0010
0100
,
0020
0030
0100
0000
,
1000
0001
0100
0010
,
0200
0300
0010
0000
,
0100
0010
1000
0001
,
0020
0000
0000
0030
2000
0000
0000
3000
,
0002
0000
0000
0003
0200
0000
0000
0300
,
0002
0000
0000
0003
2000
0000
0000
3000
,
0100
0100
0100
0100
,
0001
0001
1000
1000
,
0001
0000
0000
0000
0000
0000
0001
0000
0000
0000
0000
0000
0200
0000
0000
0000
0000
0000
0000
0300
0000
0000
0000
0000
,
1001
0000
1001
0000
,
0010
0001
0100
1000
,
1000
1000
1000
0001
,
1000
0010
0100
0001
,
0001
0001
1000
0001
,
0010
0100
0010
0010
,
0010
1000
0001
0100
,
0010
1000
1000
1000
,
1000
0001
0001
0001
,
0001
1000
1000
1000
,
0001
1000
0010
0100
,
0001
0001
0001
1000
,
0001
0010
0100
0100
,
0100
0100
0001
1000
,
0100
0010
0010
0010
,
0001
0001
1000
1000
,
0100
0100
2000
0000
,
0000
3000
0000
0002
0000
0000
0000
0000
0000
0000
0003
0000
,
0000
1001
0000
0000
;

//---------------dance-single - ANOTHER----------------
#NOTES:
     dance-single:
     ANOTHER:
     Medium:
     6:
     0.446,0.441,0.403,0.331,0.041,231.000,39.000,32.000,0.000,0.000:
0000
0000
0000
0000
,
0000
0000
0000
0000
,
0020
0000
0030
1001
1001
0000
0000
0010
,
0001
1000
0010
0100
0001
1000
0001
0000
,
0200
0000
0300
1001
1001
0000
0000
1000
,
0001
1000
0010
0100
1000
0001
1000
0000
,
2000
0000
3000
0001
0001
0000
0000
0001
,
0100
0010
1000
0010
0100
0001
0100
0000
,
0002
0000
0003
1000
1000
0000
0000
1000
,
0001
1000
0001
1000
0100
0100
0000
0000
,
0020
0030
0002
0003
0200
0300
2000
3000
,
0002
0003
2000
3000
0020
0030
0200
0300
,
2000
3000
0002
0003
2000
3000
0002
0003
,
1001
1001
1001
1001
,
0010
0000
0001
0000
1000
0000
0000
0100
,
0010
0000
0000
0000
0000
0000
1000
0000
0000
0001
0000
0000
1000
0000
0000
0000
0100
0000
0000
0000
0001
0000
0000
0000
,
1010
0000
0011
0000
,
0010
0110
0100
1001
,
0020
0000
0030
0001
0001
0000
0000
1000
,
0001
1000
0001
0010
0100
0010
0100
0000
,
0020
0000
0030
1000
1000
0000
0000
0001
,
1000
0001
1000
0100
0010
0100
0010
0000
,
2000
0000
3000
0100
0100
0000
0000
0001
,
1000
0001
0100
0010
0100
1000
0001
0000
,
0002
0000
0003
0100
0100
0000
0000
0001
,
1000
0001
1000
0100
0010
0100
0000
0000
,
0020
0030
0002
0003
0200
0300
2000
3000
,
0002
0003
2000
3000
0020
0030
0200
0300
,
2000
3000
0002
0003
2000
3000
0002
0003
,
1001
1001
1001
1001
,
1000
0000
0001
0000
0010
0000
0000
0001
,
0001
0000
0000
0000
0000
0000
1000
0000
0000
0001
0000
0000
1000
0000
0000
0000
0100
0000
0000
0000
0001
0000
0000
0000
,
1010
0000
0011
0000
,
0010
1001
0100
0110
,
1010
0000
0011
0000
1010
0000
1000
0001
,
1000
0000
0001
1000
0001
0000
1100
0000
,
0101
0000
1100
0000
0010
0100
0010
0000
,
0100
0010
0100
0000
1001
0000
0110
0000
,
1001
0000
1000
0100
0001
0000
1000
0100
,
0001
1000
1000
0001
,
0001
1000
1000
0001
,
0001
0011
1010
0011
,
1000
0001
1000
0000
0001
1000
0001
0000
,
0101
0000
1100
0000
0101
0000
0001
1000
,
0001
0000
0001
1000
0001
0000
0110
0000
,
1001
0000
0110
0000
1000
0100
1000
0000
,
0001
0100
0001
0000
0010
0000
0001
0000
,
1000
0010
0100
0001
,
1000
0000
0000
1001
0000
0000
1000
0000
0000
0001
0000
0001
,
0000
1000
0000
0010
0000
0000
0100
0000
0100
0000
0010
0000
,
0100
0100
0100
0000
0000
0000
0000
0000
;

//---------------dance-single - MANIAC----------------
#NOTES:
     dance-single:
     MANIAC:
     Hard:
     7:
     0.512,0.467,0.723,0.165,0.165,261.000,70.000,16.000,0.000,0.000:
0000
0000
0000
0000
,
0000
0000
0000
0000
,
2200
0000
3300
0110
1100
0000
0000
0001
,
0100
0010
1000
0010
0100
0001
0100
0000
,
0202
0000
0303
0110
0101
0000
0000
1000
,
0100
0010
0001
0010
0100
1000
0100
0000
,
2200
0000
3300
0110
1100
0000
0000
0001
,
0100
0010
1000
0010
0100
0001
0100
0000
,
0202
0000
0303
0110
0101
0000
0000
1000
,
0100
0010
0001
0010
0100
1000
0000
0000
,
0001
0100
0000
0000
0001
0100
0000
0000
0010
1000
0000
0000
0010
1000
0000
0000
,
0100
1000
0000
0000
0100
1000
0000
0000
0001
0010
0000
0000
0001
0010
0000
0000
,
1000
0010
0000
0000
1000
0010
0000
0000
1000
0001
0000
0000
1000
0001
0000
0000
,
1100
0101
1100
0101
,
0001
0000
0100
0000
0010
0000
0000
1000
,
0010
0000
0000
0000
0000
0000
0100
0000
0000
0001
0000
0000
0010
0000
0000
0000
0100
0000
0000
0000
1000
0000
0000
0000
,
1100
0000
0011
0000
,
1100
0101
1100
0101
,
2200
0000
3300
0011
1100
0000
0000
0001
,
0100
0010
1000
0010
0100
0001
0100
0000
,
0202
0000
0303
1010
0101
0000
0000
1000
,
0100
0010
0001
0010
0100
1000
0100
0000
,
2200
0000
3300
0011
1100
0000
0000
0001
,
0100
0010
1000
0010
0100
0001
0100
0000
,
0202
0000
0303
1010
0101
0000
0000
1000
,
0100
0010
0001
0010
0100
1000
0000
0000
,
0001
0100
0000
0000
0001
0100
0000
0000
0010
1000
0000
0000
0010
1000
0000
0000
,
0100
1000
0000
0000
0100
1000
0000
0000
0001
0010
0000
0000
0001
0010
0000
0000
,
1000
0010
0000
0000
1000
0010
0000
0000
1000
0001
0000
0000
1000
0001
0000
0000
,
1001
1001
1001
1001
,
1000
0000
0100
0000
0010
0000
0000
0001
,
0010
0000
0000
0000
0000
0000
0100
0000
0000
1000
0000
0000
0010
0000
0000
0000
0100
0000
0000
0000
0001
0000
0000
0000
,
1100
0000
0011
0000
,
1100
0101
1100
0101
,
1100
0000
0101
0000
1010
0000
0010
0100
,
0001
1000
0100
0010
0001
0000
0101
0000
,
1100
0000
0011
0000
0010
0100
1000
0001
,
0100
0010
1000
0000
1100
0000
0011
0000
,
0101
0000
0100
0001
1000
0010
0100
0001
,
1000
1000
0001
1000
,
0001
0001
1000
0001
,
1000
0101
1100
1010
,
0010
1000
0001
0100
0010
1000
0100
0000
,
1100
0000
0101
0000
0011
0000
0010
0001
,
1000
0100
0010
0001
1000
0000
1001
0000
,
0110
0000
1001
0000
0100
0001
0100
1000
,
0100
0001
0100
0000
0101
0000
0011
0000
,
1010
1100
1010
0011
,
0101
0000
0000
1100
0000
0000
0010
0000
0000
0001
0000
0010
,
0000
0001
0000
1000
0000
0000
0100
0000
1000
0000
0100
0000
,
1000
0001
1000
0000
0000
0000
0000
0000
;

//---------------dance-single - BEGINNER----------------
#NOTES:
     dance-single:
     BEGINNER:
     Beginner:
     2:
     0.164,0.182,0.052,0.114,0.000,95.000,5.000,11.000,0.000,0.000:
0000
0000
0000
0000
,
0000
0000
0000
0000
,
0020
0030
0100
0000
,
0010
0000
1000
0000
,
0200
0300
0010
0000
,
0001
0000
0010
0000
,
0020
0030
0100
0000
,
0001
0000
0100
0000
,
0200
0300
0010
0000
,
0010
0000
1000
0000
,
0010
0000
1000
0000
,
0001
0000
0100
0000
,
0001
0000
1000
0000
,
0010
0000
0010
0000
,
1000
0000
0001
0000
,
1000
0000
0000
0000
0000
0000
0000
0000
0000
0000
0000
0000
0200
0000
0000
0000
0000
0000
0000
0300
0000
0000
0000
0000
,
1001
0000
1001
0000
,
0010
0000
0100
0000
,
0020
0030
0100
0000
,
0010
0000
0001
0000
,
0200
0300
0010
0000
,
1000
0000
0010
0000
,
0020
0030
0100
0000
,
1000
0000
0100
0000
,
0200
0300
0010
0000
,
0100
0000
1000
0000
,
0010
0000
1000
0000
,
0001
0000
0100
0000
,
0001
0000
1000
0000
,
0100
0000
0100
0000
,
0001
0000
1000
0000
,
0001
0000
0000
0000
0000
0000
0000
0000
0000
0000
0000
0000
0200
0000
0000
0000
0000
0000
0000
0300
0000
0000
0000
0000
,
1001
0000
1001
0000
,
0010
0000
0100
0000
,
1000
0000
1000
0000
,
1000
0000
0100
0000
,
0001
0000
1000
0000
,
0010
0000
0010
0000
,
0010
0000
0001
0000
,
0010
0000
1000
0000
,
1000
0000
0001
0000
,
0001
0000
1000
0000
,
0001
0000
0010
0000
,
0001
0000
0001
0000
,
0001
0000
0100
0000
,
0100
0000
0001
0000
,
0100
0000
0010
0000
,
0001
0000
1000
0000
,
0100
0000
2000
0000
,
0000
3000
0000
0000
0000
0000
0000
0000
0000
0000
0000
0000
,
0000
1001
0000
0000
;
