#TITLE:Supremacy;
#SUBTITLE:;
#ARTIST:KaW;
#TITLETRANSLIT:;
#SUBTITLETRANSLIT:;
#ARTISTTRANSLIT:;
#CREDIT:;
#BANNER:Supremacy.png;
#BACKGROUND:Supremacy-bg.png;
#LYRICSPATH:;
#CDTITLE:;
#MUSIC:Supremacy.mp3;
#OFFSET:0.020;
#SAMPLESTART:33.800;
#SAMPLELENGTH:12.000;
#SELECTABLE:YES;
#BPMS:0.000=142.000,128.250=71.000,176.250=142.000;
#STOPS:;
#BGCHANGES:;
// cache tags:
#FIRSTBEAT:16.250;
#LASTBEAT:275.250;
#SONGFILENAME:Songs/StepMix 1.0/Supremacy/Supremacy.sm;
#HASMUSIC:1;
#HASBANNER:1;
#MUSICLENGTH:136.965;
// end cache tags

//---------------dance-single - E. Holniker----------------
#NOTES:
     dance-single:
     E. Holniker:
     Challenge:
     11:
     0.661,0.770,0.000,0.190,1.000,608.000,0.000,26.000,85.000,1.000:






0000
0000
0000
0000
,
0000
0000
0000
0000
,
0000
0000
0000
0000
,
0000
0000
0000
0000
,
0000
1000
0010
0000
0010
0100
0000
0100
0010
0000
0010
1000
0000
1000
0000
0100
,
0000
0010
0001
0000
0001
0000
0000
0001
0000
0010
0100
0000
0000
0100
1000
0000
,
0000
1000
0100
0000
0100
1000
0000
0100
1000
0000
1000
0100
0000
0010
0000
0002
,
0000
2000
0000
0000
0000
0000
0000
0000
0000
3003
0000
0010
1000
0000
1000
0010
,
0000
1000
0100
0000
0100
0010
0000
0010
0001
0000
0001
0010
0000
0100
0000
1000
,
0000
0100
1000
0000
1000
0000
0000
1000
0000
0010
0100
0000
0000
0100
0001
0000
,
0000
1000
0100
0000
0100
0010
0000
0010
0001
0000
0001
0010
0000
0100
0000
2000
,
0000
0020
0000
0000
0000
0000
0000
3030
0001
0100
0000
0100
0000
0001
0100
0000
,
0000
0100
0010
0000
0010
1000
0000
1000
0100
0000
0100
0010
0000
0001
0000
1000
,
0000
0000
0100
0010
0010
0000
0000
0010
0000
1000
0100
0000
0000
0100
1000
0000
,
0000
1000
0100
0000
0100
0000
0100
0000
0000
0010
0001
0010
0000
0100
1000
0200
,
0000
2000
0000
0000
0000
0000
0000
0020
0000
0030
0300
0000
3000
0100
0000
0000
,
0000
1000
0001
0000
0001
1000
0000
1000
0010
0000
0010
0100
0000
0001
0000
1000
,
0000
0100
0010
0000
0010
0000
0000
0010
0000
0001
1000
0000
0000
1000
0100
0000
,
0000
0100
0010
0000
0010
0001
0000
0001
0010
0000
0010
0100
0000
1000
0000
0020
,
0000
0200
0000
0000
0000
0000
0000
0330
0001
1000
0000
1000
0000
0010
1000
0000
,
0000
1000
0100
0000
0100
0010
0000
0010
0001
0000
0001
0010
0000
0100
0000
1000
,
0000
0010
0100
0000
0100
0000
0000
0001
0000
1000
0010
0000
0000
0010
1000
0000
,
0000
1000
0100
0000
0100
0010
0000
0010
0001
0000
0001
0000
0010
0100
0010
0100
,
1000
0010
0000
0000
0000
0000
MMMM
0000
0000
0000
0000
0100
0001
0000
0100
0001
,
0000
1000
0010
0000
0010
0100
0000
0100
0001
0000
0001
1000
0000
0100
0000
0010
,
0000
0100
0010
0100
1000
0001
0000
MMMM
00M0
0100
0010
0001
0010
1000
0M00
MMMM
,
000M
0100
0010
0100
0001
0100
M000
MMMM
0000
100M
0100
0010
0001
M010
0000
MMMM
,
0000
010M
0010
1000
0010
0001
0M00
MMMM
M0MM
010M
0010
0100
1000
01M0
M00M
MMMM
,
00M0
010M
1000
0100
0010
0100
00M0
MMMM
M000
0100
0001
0010
0001
1000
0M00
MMMM
,
00MM
010M
0010
1000
0100
001M
0000
MMMM
M000
0M01
M010
0100
1000
0010
0100
M010
,
MMMM
100M
0100
0010
0100
0001
0100
001M
MMMM
M100
1000
0010
0100
0010
0001
0M10
,
MMMM
100M
0100
0010
0100
1000
0100
1000
0100
0010
0100
0010
0100
0001
0100
0001
,
0100
0020
0000
0000
0000
0000
0000
0000
0030
0002
0000
0000
0000
0000
0000
0203
,
0000
0000
2000
0000
0300
0000
0000
0000
0000
0000
0020
3000
0000
0000
0002
0030
0000
0000
0200
0003
0000
0000
0000
0000
0000
0000
2000
0300
0000
0000
0000
0000
,
0000
3020
0000
0000
0000
0000
0000
0000
0000
0032
0000
0000
0000
0000
0000
0000
,
0000
0000
0200
0003
0000
0000
0000
0000
0000
0000
2300
0000
0000
0000
0020
3000
0000
0000
0032
0000
0000
0000
0000
0000
0000
0000
0203
0000
0000
0000
0000
0000
,
0000
0300
1000
0000
0000
0000
0010
0000
0000
0000
1000
0000
0000
0000
0001
0000
0100
0000
0010
0000
1000
0000
0100
0000
0000
0000
0100
0000
0010
0000
0100
0000
,
0000
1000
0100
1000
1000
0001
0000
0100
0010
0000
0010
1000
0000
0100
0000
0010
,
0001
0100
1000
0010
0100
0010
0000
0001
0010
0000
0010
1000
0000
0100
0000
0010
,
0100
0000
1000
0100
1000
0100
1000
0000
0000
0000
0001
0010
0001
0010
0001
0000
0000
0000
0100
0000
0010
0000
0001
0000
0010
0000
0001
0000
0010
0000
0100
0000
,
1000
0100
0000
1000
0000
1000
0000
0100
0000
1000
0100
0000
0100
0010
0001
0010
,
0001
0010
0000
0100
0000
0100
0000
1000
0000
0010
1000
0000
1000
0010
1000
0010
,
1000
0001
0000
0100
0000
0010
0000
1000
0000
0100
1000
0000
1000
0100
0010
0001
,
0010
0000
0100
0000
0000
0000
1000
0000
0000
0000
0010
0000
0000
0000
0100
0000
0000
0000
0001
0000
0000
0000
0010
0000
0000
0000
0010
1000
0010
1000
0010
0000
,
0000
0000
0000
0100
0000
0010
0000
0001
0000
0010
0000
0010
0001
0010
0001
0010
,
0000
0001
0000
0010
0000
0100
0000
1000
0000
0010
0100
0010
0000
0001
0000
1000
,
0000
0010
0000
1000
0100
1000
0100
1000
0000
0001
0000
0010
0000
0100
0000
0010
,
0000
0100
0000
1000
0010
0100
0010
0100
0000
0001
1000
0100
0010
0100
0001
0100
,
0010
0001
0000
1000
0000
0010
0100
0010
1000
0100
0000
0010
0000
0001
0000
1000
,
0000
0010
1000
0010
0100
0010
0001
0010
0100
0010
0000
1000
0000
0100
0000
0010
,
0000
0001
1000
0100
0010
0100
0001
0100
0010
0100
0000
1000
0000
0010
0000
0100
,
0000
0010
1000
0010
0100
0010
0001
0010
0100
0010
1000
0100
0010
0100
0001
0100
,
0010
0001
1000
0000
1000
0000
0000
0010
0000
0100
0001
0000
0000
0001
1000
0000
,
0000
1000
0100
0000
0100
0010
0000
0010
0001
0000
0001
0010
0000
0100
0000
0010
,
0000
0100
1000
0000
1000
0000
0000
0000
0010
0100
0001
0000
0000
0001
0000
0000
,
0001
1000
0100
0000
0100
1000
0000
1000
0100
0000
0100
0010
0000
0001
0000
0010
,
0000
0100
1000
0000
1000
0000
0000
0010
0000
0100
0001
0000
0000
0001
1000
0000
,
0000
1000
0100
0000
0100
0010
0000
0010
0100
0000
0100
1000
0000
0001
0000
1000
,
0000
1000
0010
0000
0010
0000
0100
0000
0001
0000
0001
1000
0000
0100
0000
0010
,
0000
0001
1000
0000
1000
0010
0000
0010
0100
0000
0100
0001
0000
1000
0000
0100
,
0000
1000
0100
0000
0100
0000
0000
0100
0000
0010
0001
0000
0001
0000
0000
0001
,
0000
1000
0010
0000
0010
0100
0000
0100
0001
0000
1000
0100
0000
0010
0000
0100
,
0000
0001
0000
0100
0000
0000
0000
1000
0000
0010
0000
0000
1000
0000
0000
0001
,
0000
0100
0010
0000
0010
1000
0000
1000
0100
0000
0100
0010
0000
0001
0000
1000
,
0000
0010
1000
0000
1000
0010
0000
0001
0100
0000
0100
0010
0000
1000
0000
0100
,
0000
0010
0100
0000
0100
1000
0000
1000
0001
0000
0001
0100
0000
0010
0000
1000
,
0000
0100
0010
0000
0010
0000
0000
1000
0000
0100
1000
0000
1000
0000
0001
0000
,
0000
0100
0010
0000
0010
1000
0000
1000
0100
0000
0100
0010
0000
0002
0000
2000
,
3003
0000
0000
0000
;

//---------------dance-single - E. Holniker----------------
#NOTES:
     dance-single:
     E. Holniker:
     Hard:
     8:
     0.457,0.603,0.000,0.350,1.000,390.000,0.000,48.000,0.000,1.000:

0000
0000
0000
0000
,
0000
0000
0000
0000
,
0000
0000
0000
0000
,
0000
0000
0000
0000
,
0000
1000
0000
0000
0000
0010
0000
0000
0000
0100
0000
0000
0000
0001
0000
0000
,
0000
1000
0000
0000
0000
0100
0000
0000
0000
0010
0000
0000
0000
0100
0000
0000
,
0000
1000
0000
0100
0000
1000
0000
0100
0000
1000
0000
0100
0000
1000
0000
0100
,
0000
2000
0000
0000
0000
0000
0000
0000
0000
0001
0000
0000
0000
0001
3000
0000
,
0000
0100
0000
0000
0000
0010
0000
0000
0000
1000
0000
0000
0000
0100
0000
0000
,
0000
0010
0000
0100
0000
0010
0000
0000
0000
0100
0000
1000
0000
0100
0000
0000
,
0000
1000
0000
0001
0000
0010
0000
0001
0000
0100
0000
0010
0000
1000
0000
0100
,
0000
0020
0000
0000
0000
0000
0000
0000
0000
0100
0000
0000
0000
0100
0030
0000
,
0000
1000
0000
0100
0000
0010
0000
0100
0000
0001
0000
0100
0000
0010
0000
0100
,
0000
1000
0000
0100
0000
1000
0000
0000
0000
0001
0000
0100
0000
0001
0000
0000
,
0000
0100
0000
0010
0000
1000
0000
0100
0000
1000
0100
1000
0000
0100
1000
0100
,
0000
2000
0000
0000
0000
0000
0000
0000
0000
0001
0000
0000
0000
3001
0000
0000
,
0000
0200
0000
0000
0000
0320
0000
0000
0000
2030
0000
0000
0000
3100
0000
0000
,
0000
1000
0000
0100
0000
1000
0000
0000
0000
0001
0000
0100
0000
0001
0000
0000
,
0000
0100
0000
0010
0000
1000
0000
0000
0000
0100
0000
0010
0000
0100
0000
0000
,
0000
1000
0000
0001
0000
0100
0000
0010
0000
0001
0000
0010
0000
1000
0000
0000
,
0000
0100
0000
1000
0000
0000
0000
1000
0000
0100
0000
0010
0000
0000
0000
0000
,
0000
0001
0010
0000
0000
0010
0000
0000
0000
0100
0000
0000
0000
1000
0000
0000
,
0000
0010
1000
0000
0000
1000
0000
0000
0000
1000
0010
0000
0000
1000
0000
0002
,
0000
0000
0000
0000
0000
0100
0000
0000
0000
0100
0000
0000
0000
0100
0000
0003
,
0000
0020
0000
0000
0030
2000
0000
0000
3000
0200
0000
0000
0300
0020
0000
0000
,
0030
0002
0000
0000
0003
2000
0000
0000
3000
0020
0000
0000
0030
0200
0000
0000
,
0300
1000
0100
1000
0000
0010
0000
0000
0000
0001
0010
0001
0000
0100
0000
0000
,
0000
0010
0100
0010
0000
0001
0000
0000
0000
0100
1000
0100
0000
0010
0000
0000
,
0000
0010
0100
0010
0000
1000
0000
0000
0000
0001
1000
0001
0000
0100
0000
0000
,
0000
1000
0010
1000
0000
0100
0000
0000
0000
0001
0100
0001
0000
0010
0000
0000
,
0000
0100
0010
0100
0000
0001
0000
0000
0000
1000
0100
1000
0000
0010
0000
0000
,
0000
0010
0001
0010
0000
0100
0000
0010
0000
0001
0000
0100
0000
1000
0000
0000
,
0000
2000
0000
0000
0000
0000
0000
0000
3000
0020
0000
0000
0000
0000
0000
0230
,
0000
0302
0000
0000
0000
2003
0000
3200
0000
0320
0000
0000
0030
0002
0000
0000
,
0000
2003
0000
0000
0000
0000
0000
0000
0000
3200
0000
0000
0000
0000
0000
0000
,
0000
2300
0000
0000
0000
0020
0000
0000
0030
0002
0000
0000
0000
0000
0000
3003
,
0000
0100
0000
0010
0000
1000
0000
0100
0010
0100
0001
0100
0000
0010
0000
0100
,
0000
1000
0000
0010
0000
0100
0000
0001
1000
0010
0100
0010
0000
0001
0000
0010
,
0000
1000
0000
0100
0000
0010
0000
0100
1000
0100
0010
0100
0000
1000
0000
0001
,
0000
1000
1000
1000
0000
0001
0001
0001
0100
0010
1000
0100
0010
0100
0001
0100
,
0000
1000
0000
0100
0000
0100
0000
1000
0000
0001
0100
0000
0100
0010
1000
0100
,
0010
0100
0000
1000
0000
0001
0000
0100
0000
0010
1000
0000
1000
0100
0010
0100
,
0010
0100
0000
1000
0000
0001
0000
0100
0000
0010
1000
0000
1000
0001
1000
0001
,
1000
0010
0000
1000
0000
0100
0000
0010
0000
0100
1000
0000
1000
0100
0000
1000
,
0000
2000
0000
0000
3000
0200
0000
0000
0300
0020
0000
0000
0030
0002
0000
0000
,
0003
0020
0000
0000
0030
0200
0000
0000
0300
2000
0000
0000
3000
0200
0000
0000
,
0300
2000
0000
0000
3000
0020
0000
0000
0030
0200
0000
0000
0300
0002
0000
0000
,
0003
2000
0000
0000
3000
0020
0000
0000
0030
0100
0000
0000
0000
0001
0000
0000
,
0000
1000
0000
0000
0000
0100
0000
0000
0000
0010
0000
0000
0000
0001
0000
0000
,
0000
0010
0000
0000
0000
0100
0000
0000
0000
1000
0000
0000
0000
1000
0000
0000
,
0000
0010
0000
0000
0000
0100
0000
0000
0000
0001
0000
0000
0000
1000
0000
0000
,
0000
0100
0000
0010
0000
0100
0000
1000
0000
0100
0000
1000
0000
0100
0000
1000
,
0000
0001
0000
0000
0000
1000
0000
0000
0000
1000
0000
0000
0000
0001
0000
0000
,
0000
1000
0000
0000
0000
0010
0000
0000
0000
0010
0000
0100
0000
0010
0000
0000
,
0000
1000
0000
0100
0000
1000
0000
0000
0000
0001
0000
0010
0000
0001
0000
0000
,
0000
0010
0000
0100
0000
0010
0000
0100
0000
1000
0000
0010
0000
0100
0000
0010
,
0000
0001
0000
0000
0000
0010
0000
0000
0000
1000
0000
0000
0000
0100
0000
0000
,
0000
0010
0000
0100
0000
1000
0000
0100
0000
0001
0000
0100
0000
0010
0000
0100
,
0000
1000
0000
0000
0000
0010
0000
0000
0000
0100
0000
0000
0000
0010
0000
0000
,
0000
1000
0000
0100
0000
0010
0000
0100
0000
0001
0000
0100
0000
0010
0000
0100
,
0000
1000
0000
0000
0000
0010
0000
0000
0000
0100
0000
0000
0000
0001
0000
0000
,
0000
1000
0000
0100
0000
0010
0000
0100
0000
1000
0000
0100
0000
0010
0000
0100
,
0000
1000
0000
0000
0000
0100
0000
0000
0000
0001
0000
0000
0000
0100
0000
0000
,
0000
0010
0000
0100
0000
0010
0000
0001
0000
0010
0000
1000
0000
0010
0000
0100
,
0000
0010
0000
0000
0000
1000
0000
0000
0000
0100
0000
0000
0000
0010
0000
0000
,
0000
0100
0000
1000
0000
0100
0000
0010
0000
0100
0000
0001
0000
0100
0000
0010
,
0000
0200
0000
0000
0000
0000
0000
0000
0300
2000
0000
0000
0000
0000
0000
0000
,
3000
0020
0000
0000
0000
0032
0000
0000
0000
0200
0000
0000
0000
0000
0000
2000
,
0000
0000
0000
3000
0000
0000
0000
0000
0000
0000
0000
0000
0000
0303
0000
0000
;

//---------------dance-single - E. Holniker----------------
#NOTES:
     dance-single:
     E. Holniker:
     Medium:
     6:
     0.391,0.402,0.000,0.314,1.000,332.000,0.000,43.000,0.000,0.000:

0000
0000
0000
0000
,
0000
0000
0000
0000
,
0000
0000
0000
0000
,
0000
0000
0000
0000
,
0000
1000
0000
0000
0000
0010
0000
0000
0000
0100
0000
0000
0000
0001
0000
0000
,
0000
1000
0000
0000
0000
0100
0000
0000
0000
0010
0000
0000
0000
0100
0000
0000
,
0000
0001
0000
0100
0000
0001
0000
0000
0000
1000
0000
0010
0000
1000
0000
0000
,
0000
2000
0000
0000
0000
0000
0000
0000
0000
0001
0000
0000
0000
0001
3000
0000
,
0000
0100
0000
0000
0000
0010
0000
0000
0000
1000
0000
0000
0000
0100
0000
0000
,
0000
0010
0000
0100
0000
0010
0000
0000
0000
0100
0000
1000
0000
0100
0000
0000
,
0000
1000
0000
0001
0000
0010
0000
0001
0000
1000
0000
0010
0000
1000
0000
0100
,
0000
0002
0000
0000
0000
0000
0000
0000
0000
0100
0000
0000
0000
0103
0000
0000
,
0000
1000
0000
0100
0000
0010
0000
0000
0000
0001
0000
0100
0000
0010
0000
0000
,
0000
1000
0000
0100
0000
1000
0000
0000
0000
0001
0000
0100
0000
0001
0000
0000
,
0000
0100
0000
0010
0000
1000
0000
0100
0000
0010
0000
0001
0000
0010
0000
0100
,
0000
2000
0000
0000
0000
0000
0000
0000
0000
0001
0000
0000
0000
3001
0000
0000
,
0000
0100
0000
0000
0000
0010
0000
0000
0000
1000
0000
0000
0000
0100
0000
0000
,
0000
1000
0000
0100
0000
1000
0000
0000
0000
0010
0000
0100
0000
0010
0000
0000
,
0000
0100
0000
0001
0000
0010
0000
0000
0000
0100
0000
1000
0000
0100
0000
0000
,
0000
0010
0000
0100
0000
0010
0000
0000
0000
0001
0000
0010
0000
1000
0000
0000
,
0000
0100
0000
1000
0000
0000
0000
1000
0000
0100
0000
0010
0000
0000
0000
0000
,
0000
0001
0000
0000
0000
0010
0000
0000
0000
0100
0000
0000
0000
1000
0000
0000
,
0000
0010
0000
0000
0000
1000
0000
0000
0000
0010
0000
0000
0000
1000
0000
0002
,
0000
0000
0000
0000
0000
0100
0000
0000
0000
0100
0000
0000
0000
0100
0000
0003
,
0000
0020
0000
0000
0030
2000
0000
0000
3000
0200
0000
0000
0300
0020
0000
0000
,
0030
0002
0000
0000
0003
2000
0000
0000
3000
0020
0000
0000
0030
0200
0000
0000
,
0300
1000
0000
0100
0000
0010
0000
0000
0000
0001
0000
0010
0000
0100
0000
0000
,
0000
0100
0000
0010
0000
0001
0000
0000
0000
0100
0000
0010
0000
0001
0000
0000
,
0000
0010
0000
0100
0000
1000
0000
0000
0000
0001
0000
0010
0000
0100
0000
0000
,
0000
1000
0000
0010
0000
0100
0000
0000
0000
0100
0000
0010
0000
1000
0000
0000
,
0000
1000
0000
0100
0000
0010
0000
0000
0000
0001
0000
0100
0000
0001
0000
0000
,
0000
0010
0000
0001
0000
0010
0000
0001
0000
0010
0000
0100
0000
1000
0000
0000
,
0000
2000
0000
0000
0000
0000
0000
0000
0000
3020
0000
0000
0000
0000
0000
0230
,
0000
0302
0000
0000
0000
2003
0000
0000
0000
3002
0000
0000
0000
0000
0000
0000
,
0000
2003
0000
0000
0000
0000
0000
0000
0000
3200
0000
0000
0000
0000
0000
0000
,
0000
2300
0000
0000
0000
0000
0000
0000
0000
0002
0000
0000
0000
0000
0000
3003
,
0000
0100
0000
0010
0000
1000
0000
0100
0000
0001
0000
0100
0000
0010
0000
0100
,
0000
1000
0000
0010
0000
0100
0000
0001
0000
1000
0000
0010
0000
0001
0000
0010
,
0000
1000
0000
0100
0000
0010
0000
0100
0000
0010
0000
0100
0000
1000
0000
0001
,
0000
2000
0000
3000
0000
0002
0000
0003
0000
0010
0000
0100
0000
0001
0000
0100
,
0000
1000
0000
0100
0000
0001
0000
1000
0000
0001
0000
0100
0000
0010
0000
0100
,
0000
0010
0000
1000
0000
0001
0000
0100
0000
0010
0000
1000
0000
0100
0000
0010
,
0000
0100
0000
1000
0000
0001
0000
0100
0000
0010
0000
1000
0000
0001
0000
0001
,
0000
0010
0000
1000
0000
0100
0000
0010
0000
0100
0000
0001
0000
0100
0000
1000
,
0000
2000
0000
0000
3000
0200
0000
0000
0300
0020
0000
0000
0030
0002
0000
0000
,
0003
0020
0000
0000
0030
0200
0000
0000
0300
2000
0000
0000
3000
0200
0000
0000
,
0300
2000
0000
0000
3000
0020
0000
0000
0030
0200
0000
0000
0300
0002
0000
0000
,
0003
2000
0000
0000
3000
0020
0000
0000
0030
0100
0000
0000
0000
0001
0000
0000
,
0000
1000
0000
0000
0000
0100
0000
0000
0000
0010
0000
0000
0000
0001
0000
0000
,
0000
0010
0000
0000
0000
0100
0000
0000
0000
1000
0000
0000
0000
1000
0000
0000
,
0000
0010
0000
0000
0000
0100
0000
0000
0000
0001
0000
0000
0000
1000
0000
0000
,
0000
0100
0000
0010
0000
0100
0000
0000
0000
0100
0000
1000
0000
0100
0000
1000
,
0000
0001
0000
0000
0000
1000
0000
0000
0000
1000
0000
0000
0000
0001
0000
0000
,
0000
1000
0000
0000
0000
0010
0000
0000
0000
0010
0000
0100
0000
0010
0000
0000
,
0000
1000
0000
0100
0000
1000
0000
0000
0000
0001
0000
0010
0000
0001
0000
0000
,
0000
0010
0000
0100
0000
0010
0000
0000
0000
1000
0000
0010
0000
0100
0000
0010
,
0000
0001
0000
0000
0000
0010
0000
0000
0000
1000
0000
0000
0000
0100
0000
0000
,
0000
0010
0000
0100
0000
1000
0000
0000
0000
0001
0000
0100
0000
0010
0000
0100
,
0000
1000
0000
0000
0000
0010
0000
0000
0000
0100
0000
0000
0000
0010
0000
0000
,
0000
1000
0000
0000
0000
0010
0000
0100
0000
0000
0000
0100
0000
0010
0000
0000
,
0000
1000
0000
0000
0000
0010
0000
0000
0000
0100
0000
0000
0000
0001
0000
0000
,
0000
1000
0000
0100
0000
0010
0000
0000
0000
1000
0000
0100
0000
0010
0000
0100
,
0000
1000
0000
0000
0000
0100
0000
0000
0000
0001
0000
0000
0000
0100
0000
0000
,
0000
0010
0000
0100
0000
0010
0000
0000
0000
0010
0000
1000
0000
0010
0000
0100
,
0000
0010
0000
0000
0000
1000
0000
0000
0000
0100
0000
0000
0000
0010
0000
0000
,
0000
0100
0000
1000
0000
0100
0000
0000
0000
0100
0000
0001
0000
0100
0000
0010
,
0000
0200
0000
0000
0000
0000
0000
0000
0300
2000
0000
0000
0000
0000
0000
0002
,
3000
0000
0000
0003
0000
0020
0000
0000
0000
0200
0000
0000
0000
0000
0000
0000
,
0000
0000
0000
0000
0000
0000
0000
0000
0000
0000
0000
0000
0000
0330
0000
0000
;

//---------------dance-single - E. Holniker----------------
#NOTES:
     dance-single:
     E. Holniker:
     Easy:
     3:
     0.243,0.321,0.007,0.022,0.832,229.000,1.000,3.000,0.000,0.000:

0000
0000
0000
0000
,
0000
0000
0000
0000
,
0000
0000
0000
0000
,
0000
0000
0000
0000
,
0000
1000
0000
0000
0000
0100
0000
0000
0000
1000
0000
0000
0000
0100
0000
0000
,
0000
1000
0000
0000
0000
0100
0000
0000
0000
1000
0000
0000
0000
0100
0000
0000
,
0000
0010
0000
0000
0000
0100
0000
0000
0000
0010
0000
0000
0000
0001
0000
0000
,
0000
1000
0000
0000
0000
0000
0000
0000
0000
0000
0000
0000
0000
0000
0000
0000
,
0000
1000
0000
0000
0000
0100
0000
0000
0000
1000
0000
0000
0000
0100
0000
0000
,
0000
1000
0000
0000
0000
0100
0000
0000
0000
1000
0000
0000
0000
0000
0000
0000
,
0000
0001
0000
0000
0000
0100
0000
0000
0000
0001
0000
0000
0000
0100
0000
0000
,
0000
0001
0000
0000
0000
0100
0000
0000
0000
0001
0000
0000
0000
0100
0000
0000
,
0000
0010
0000
0000
0000
0100
0000
0000
0000
0010
0000
0000
0000
0100
0000
0000
,
0000
0010
0000
0000
0000
0100
0000
0000
0000
0010
0000
0000
0000
0100
0000
0000
,
0000
0010
0000
0000
0000
1000
0000
0000
0000
0100
0000
0000
0000
1000
0000
0000
,
0000
0200
0000
0000
0000
0000
0000
0000
0000
1000
0000
0000
0000
0000
0300
0000
,
0000
1000
0000
0000
0000
0001
0000
0000
0000
1000
0000
0000
0000
0010
0000
0000
,
0000
1000
0000
0000
0000
0010
0000
0000
0000
0100
0000
0000
0000
0010
0000
0000
,
0000
0100
0000
0000
0000
0010
0000
0000
0000
0001
0000
0000
0000
0010
0000
0000
,
0000
1000
0000
0000
0000
0100
0000
0000
0000
0010
0000
0000
0000
0100
0000
0000
,
0000
1000
0000
0000
0000
0100
0000
0000
0000
0001
0000
0000
0000
0100
0000
0000
,
0000
0010
0000
0000
0000
0001
0000
0000
0000
1000
0000
0000
0000
0010
0000
0000
,
0000
0100
0000
0000
0000
0100
0000
0000
0000
0010
0000
0000
0000
0010
0000
0000
,
0000
1000
0000
0000
0000
0000
0000
0000
0000
0000
0000
0000
0000
0000
0000
0000
,
0000
0001
0000
0000
0000
1000
0000
0000
0000
0010
0000
0000
0000
0100
0000
0000
,
0000
0010
0000
0000
0000
0001
0000
0000
0000
0010
0000
0000
0000
1000
0000
0000
,
0000
0100
0000
0000
0000
0010
0000
0000
0000
0100
0000
0000
0000
1000
0000
0000
,
0000
0100
0000
0000
0000
0001
0000
0000
0000
0100
0000
0000
0000
0010
0000
0000
,
0000
0100
0000
0000
0000
1000
0000
0000
0000
0010
0000
0000
0000
0100
0000
0000
,
0000
0010
0000
0000
0000
1000
0000
0000
0000
0010
0000
0000
0000
0001
0000
0000
,
0000
0010
0000
0000
0000
0001
0000
0000
0000
0010
0000
0000
0000
1000
0000
0000
,
0000
0100
0000
0000
0000
1000
0000
0000
0000
1000
0000
0000
0000
1000
0000
0000
,
0000
0110
0000
0000
0000
0000
0000
0000
0000
1000
0000
0000
0000
0000
0000
0001
,
0000
0100
0000
0000
0000
0010
0000
1000
0000
0100
0000
0000
0000
0010
0000
0000
,
0000
0001
0000
0000
0000
0000
0000
0000
0000
1000
0000
0000
0000
0000
0000
0000
,
0000
0100
0000
0000
0000
1000
0000
0100
0000
0010
0000
0000
0000
0001
0000
0000
,
0000
1000
0000
0000
0000
0001
0000
0000
0000
0100
0000
0000
0000
0010
0000
0000
,
0000
1000
0000
0000
0000
0100
0000
0000
0000
0010
0000
0000
0000
0001
0000
0000
,
0000
1000
0000
0000
0000
0100
0000
0000
0000
0010
0000
0000
0000
0100
0000
0000
,
0000
2000
0000
0000
0000
0000
0000
3000
0000
0002
0000
0000
0000
0000
0000
0003
,
0000
1000
0000
1000
0000
0000
0010
0000
0000
0100
0000
0100
0000
0001
0000
0000
,
0000
1000
0000
1000
0000
0100
0000
0000
0000
0010
0000
0010
0000
0100
0000
0000
,
0000
1000
0000
1000
0000
0010
0000
0000
0000
0100
0000
0100
0000
0010
0000
0000
,
0000
1000
0000
1000
0000
0100
0000
0010
0000
0010
0000
0001
0000
0001
0000
0000
,
0000
1000
0000
0000
0000
0010
0000
0000
0000
1000
0000
0000
0000
0010
0000
0000
,
0000
1000
0000
0000
0000
0010
0000
0000
0000
1000
0000
0000
0000
0000
0000
0000
,
0000
0001
0000
0000
0000
0100
0000
0000
0000
0001
0000
0000
0000
0100
0000
0000
,
0000
0001
0000
0000
0000
0100
0000
0000
0000
0010
0000
0000
0000
0000
0000
0000
,
0000
1000
0000
0000
0000
0100
0000
0000
0000
0010
0000
0000
0000
0100
0000
0000
,
0000
1000
0000
0000
0000
0100
0000
0000
0000
0010
0000
0000
0000
0000
0000
0000
,
0000
0001
0000
0000
0000
1000
0000
0000
0000
0010
0000
0000
0000
1000
0000
0000
,
0000
0001
0000
0000
0000
0100
0000
0000
0000
0010
0000
0000
0000
0000
0000
0000
,
0000
1000
0000
0000
0000
0100
0000
0000
0000
0010
0000
0000
0000
0100
0000
0000
,
0000
0010
0000
0000
0000
0100
0000
0000
0000
1000
0000
0000
0000
0010
0000
0000
,
0000
1000
0000
0000
0000
0000
0000
0000
0000
0000
0000
0000
0000
0000
0000
0000
,
0000
0001
0000
0000
0000
0100
0000
0000
0000
0001
0000
0000
0000
0010
0000
0000
,
0000
0001
0000
0000
0000
0000
0000
0000
0000
0000
0000
0000
0000
0000
0000
0000
,
0000
1000
0000
0000
0000
0100
0000
0000
0000
0010
0000
0000
0000
0100
0000
0000
,
0000
0001
0000
0000
0000
0000
0000
0000
0000
0000
0000
0000
0000
0000
0000
0000
,
0000
0010
0000
0000
0000
0100
0000
0000
0000
0010
0000
0000
0000
1000
0000
0000
,
0000
0010
0000
0000
0000
0000
0000
0000
0000
0000
0000
0000
0000
0000
0000
0000
,
0000
1000
0000
0000
0000
0100
0000
0000
0000
0010
0000
0000
0000
0100
0000
0000
,
0000
0001
0000
0000
0000
0000
0000
0000
0000
0000
0000
0000
0000
0000
0000
0000
,
0000
1000
0000
0000
0000
0010
0000
0000
0000
0100
0000
0000
0000
0010
0000
0000
,
0000
1000
0000
0000
0000
0000
0000
0000
0000
0000
0000
0000
0000
0000
0000
0000
,
0000
0001
0000
0000
0000
0100
0000
0000
0000
0001
0000
0000
0000
0010
0000
0000
,
0000
0100
0000
0000
0000
1000
0000
0000
0000
0100
0000
0000
0000
0000
0000
0000
,
0000
0010
0000
0000
0000
0001
0000
0000
0000
1000
0000
0000
0000
0000
0000
0000
;

//---------------dance-single - E. Holniker----------------
#NOTES:
     dance-single:
     E. Holniker:
     Beginner:
     1:
     0.192,0.199,0.000,0.000,0.672,184.000,0.000,0.000,0.000,0.000:

0000
0000
0000
0000
,
0000
0000
0000
0000
,
0000
0000
0000
0000
,
0000
0000
0000
0000
,
0000
1000
0000
0000
0000
0100
0000
0000
0000
1000
0000
0000
0000
0100
0000
0000
,
0000
0010
0000
0000
0000
0000
0000
0000
0000
0001
0000
0000
0000
0000
0000
0000
,
0000
1000
0000
0000
0000
0001
0000
0000
0000
1000
0000
0000
0000
0000
0000
0000
,
0000
0010
0000
0000
0000
0000
0000
0000
0000
0100
0000
0000
0000
0000
0000
0000
,
0000
1000
0000
0000
0000
0100
0000
0000
0000
1000
0000
0000
0000
0000
0000
0000
,
0000
0100
0000
0000
0000
0000
0000
0000
0000
0010
0000
0000
0000
0000
0000
0000
,
0000
0001
0000
0000
0000
0010
0000
0000
0000
0001
0000
0000
0000
0000
0000
0000
,
0000
0010
0000
0000
0000
0000
0000
0000
0000
0100
0000
0000
0000
0000
0000
0000
,
0000
1000
0000
0000
0000
0010
0000
0000
0000
1000
0000
0000
0000
0000
0000
0000
,
0000
0000
0000
0010
0000
0000
0000
0000
0000
0100
0000
0000
0000
0000
0000
0000
,
0000
0001
0000
0000
0000
1000
0000
0000
0000
0100
0000
0000
0000
1000
0000
0000
,
0000
0100
0000
0000
0000
0000
0000
0000
0000
0000
0000
0000
0000
0000
0000
0000
,
0000
0010
0000
0000
0000
0001
0000
0000
0000
0010
0000
0000
0000
0000
0000
0000
,
0000
0100
0000
0000
0000
1000
0000
0000
0000
0100
0000
0000
0000
0000
0000
0000
,
0000
0010
0000
0000
0000
0100
0000
0000
0000
0010
0000
0000
0000
0000
0000
0000
,
0000
0010
0000
0000
0000
0000
0000
0000
0000
1000
0000
0000
0000
0000
0000
0000
,
0000
0010
0000
0000
0000
1000
0000
0000
0000
0000
0000
0001
0000
0000
0000
0000
,
0000
1000
0000
0000
0000
0001
0000
0000
0000
0100
0000
0000
0000
0000
0000
0000
,
0000
0001
0000
0000
0000
0100
0000
0000
0000
0010
0000
0000
0000
0000
0000
0000
,
0000
1000
0000
0000
0000
1000
0000
0000
0000
0100
0000
0000
0000
0010
0000
0000
,
0000
0001
0000
0000
0000
0010
0000
0000
0000
0000
0000
0100
0000
0000
0000
0000
,
0000
1000
0000
0000
0000
0100
0000
0000
0000
1000
0000
0000
0000
0000
0000
0000
,
0000
0100
0000
0000
0000
0010
0000
0000
0000
0100
0000
0000
0000
0000
0000
0000
,
0000
0001
0000
0000
0000
1000
0000
0000
0000
0001
0000
0000
0000
0000
0000
0000
,
0000
0100
0000
0000
0000
0001
0000
0000
0000
0100
0000
0000
0000
0000
0000
0000
,
0000
0010
0000
0000
0000
1000
0000
0000
0000
0010
0000
0000
0000
0000
0000
0000
,
0000
1000
0000
0000
0000
0100
0000
0000
0000
1000
0000
0000
0000
0000
0000
0000
,
0000
0001
0000
0000
0000
0100
0000
0000
0000
0001
0000
0000
0000
0000
0000
0000
,
0000
1000
0000
0000
0000
0000
0000
0000
0000
0010
0000
0000
0000
0000
0000
0000
,
0000
0100
0000
0000
0000
0000
0000
0000
0000
1000
0000
0000
0000
0000
0000
0000
,
0000
0010
0000
0000
0000
0000
0000
0000
0000
0001
0000
0000
0000
0000
0000
0000
,
0000
0100
0000
0000
0000
0000
0000
0000
0000
1000
0000
0000
0000
0000
0000
0000
,
0000
0010
0000
0000
0000
0100
0000
0000
0000
1000
0000
0000
0000
0000
0000
0000
,
0000
0100
0000
0000
0000
0010
0000
0000
0000
0001
0000
0000
0000
0000
0000
0000
,
0000
1000
0000
0000
0000
0100
0000
0000
0000
0010
0000
0000
0000
0001
0000
0000
,
0000
0010
0000
0000
0000
0100
0000
0000
0000
1000
0000
0000
0000
0010
0000
0000
,
0000
0100
0000
0000
0000
0000
0000
0000
0000
1000
0000
0000
0000
0000
0000
0000
,
0000
0001
0000
0000
0000
0000
0000
0000
0000
0010
0000
0000
0000
0000
0000
0000
,
0000
0100
0000
0000
0000
0000
0000
0000
0000
1000
0000
0000
0000
0000
0000
0000
,
0000
0010
0000
0000
0000
0000
0000
0000
0000
0001
0000
0000
0000
0000
0000
0000
,
0000
1000
0000
0000
0000
0100
0000
0000
0000
1000
0000
0000
0000
0000
0000
0000
,
0000
0100
0000
0000
0000
0000
0000
0000
0000
0010
0000
0000
0000
0000
0000
0000
,
0000
0001
0000
0000
0000
1000
0000
0000
0000
0010
0000
0000
0000
0000
0000
0000
,
0000
0100
0000
0000
0000
0000
0000
0000
0000
1000
0000
0000
0000
0000
0000
0000
,
0000
0100
0000
0000
0000
1000
0000
0000
0000
0100
0000
0000
0000
0000
0000
0000
,
0000
0010
0000
0000
0000
0001
0000
0000
0000
0010
0000
0000
0000
0000
0000
0000
,
0000
0100
0000
0000
0000
1000
0000
0000
0000
0010
0000
0000
0000
0100
0000
0000
,
0000
0010
0000
0000
0000
0001
0000
0000
0000
0010
0000
0000
0000
0001
0000
0000
,
0000
0010
0000
0000
0000
0000
0000
0000
0000
1000
0000
0000
0000
0000
0000
0000
,
0000
0100
0000
0000
0000
0100
0000
0000
0000
1000
0000
0000
0000
1000
0000
0000
,
0000
0001
0000
0000
0000
0000
0000
0000
0000
0100
0000
0000
0000
0000
0000
0000
,
0000
0010
0000
0000
0000
1000
0000
0000
0000
0100
0000
0000
0000
0010
0000
0000
,
0000
0100
0000
0000
0000
0000
0000
0000
0000
0001
0000
0000
0000
0000
0000
0000
,
0000
0100
0000
0000
0000
1000
0000
0000
0000
0010
0000
0000
0000
0100
0000
0000
,
0000
0001
0000
0000
0000
0000
0000
0000
0000
1000
0000
0000
0000
0000
0000
0000
,
0000
0100
0000
0000
0000
1000
0000
0000
0000
0100
0000
0000
0000
0000
0000
0000
,
0000
0010
0000
0000
0000
0010
0000
0000
0000
0100
0000
0000
0000
0000
0000
0000
,
0000
0001
0000
0000
0000
1000
0000
0000
0000
0010
0000
0000
0000
1000
0000
0000
,
0000
0100
0000
0000
0000
0010
0000
0000
0000
1000
0000
0000
0000
0100
0000
0000
,
0000
0010
0000
0000
0000
0001
0000
0000
0000
1000
0000
0000
0000
0010
0000
0000
,
0000
1000
0000
0000
0000
0000
0000
0000
0000
0100
0000
0000
0000
0000
0000
0000
,
0000
0010
0000
0000
0000
0100
0000
0000
0000
0010
0000
0000
0000
0000
0000
0000
,
0000
0100
0000
0000
0000
1000
0000
0000
0000
0100
0000
0000
0000
0000
0000
0000
,
0000
1000
0000
0000
0000
1000
0000
0000
0000
0001
0000
0000
0000
0001
0000
0000
,
0000
0010
0000
0000
0000
0000
0000
0000
0000
0000
0000
0000
0000
0000
0000
0000
;
