#TITLE:Kanon;
#SUBTITLE:- The Place Where The Wind Arrives;
#ARTIST:Ayana;
#TITLETRANSLIT:;
#SUBTITLETRANSLIT:;
#ARTISTTRANSLIT:;
#CREDIT:Anime Toshokan;
#BANNER:Kanon - The Place Where The Wind Arrives.png;
#BACKGROUND:Kanon - The Place Where The Wind Arrives bg.png;
#LYRICSPATH:;
#CDTITLE:dejiko.png;
#MUSIC:Kanon - The Place Where The Wind Arrives.mp3;
#OFFSET:-0.010;
#SAMPLESTART:88.550;
#SAMPLELENGTH:14.700;
#SELECTABLE:YES;
#BPMS:0.000=130.020;
#STOPS:;
#BGCHANGES:4.000=Kanon - The Place Where The Wind Arrives.avi=1.000=0=0=1,
256.000=Kanon - The Place Where The Wind Arrives bg.png=1.000=0=0=1,
99999=-nosongbg-=1.000=0=0=0 // don't automatically add -songbackground-
;
// cache tags:
#FIRSTBEAT:8.000;
#LASTBEAT:260.000;
#SONGFILENAME:Songs/DDR Anime 3rd Mix/Kanon - The Place Where The Wind Arrives/Kanon - The Place Where The Wind Arrives.sm;
#HASMUSIC:1;
#HASBANNER:1;
#MUSICLENGTH:130.247;
// end cache tags

//---------------dance-single - BASIC----------------
#NOTES:
     dance-single:
     BASIC:
     Easy:
     3:
     0.174,0.250,0.146,0.046,0.000,134.000,19.000,6.000,0.000,0.000:
0000
0000
0000
0000
,
0000
0000
0000
0000
,
0100
0000
0000
0100
0000
0000
0100
0000
,
0000
0000
0000
0000
,
0010
0000
0000
0010
0000
0000
0010
0000
,
0000
0000
0000
0000
,
0000
0000
0000
0000
,
0000
0000
0000
0000
,
1001
1000
0010
0100
,
0001
0001
0100
0000
,
1000
0001
0000
0001
,
0010
1000
0100
0001
,
0010
1000
0100
0000
,
0100
0001
0100
1000
,
0100
0010
1000
0001
,
0100
0000
0000
0000
,
0000
0010
1000
0010
,
0001
1000
0010
0001
,
1000
0010
0000
0100
,
1000
0010
0001
0010
,
0100
0000
0100
0010
,
0010
0100
0100
0010
,
0110
0000
0000
0000
0000
0000
0000
0101
,
0000
0000
0000
0000
,
0010
0010
0010
0000
,
0000
0000
0000
0000
,
0100
0100
0100
0000
,
0000
0000
0000
0000
,
0001
0001
0001
0000
,
0000
0000
0000
0000
,
1000
1000
1000
0000
,
0010
0100
0010
0100
,
0010
0100
0100
0000
,
0000
0000
0000
0000
,
0100
0010
0010
0000
,
0000
0000
0000
0000
,
1000
1000
0001
0000
,
0000
0000
0000
0000
,
0001
0001
1000
0100
,
0100
0100
0001
1000
,
1001
1000
0001
0010
,
0100
1000
0001
0001
,
1000
1000
0100
0100
,
0010
0010
0000
0000
,
1001
1000
1000
0001
,
0001
1000
1000
0000
,
0110
0000
0000
0000
,
1001
0000
0000
0000
,
0000
1001
0000
0101
,
0000
1100
0000
0101
,
0000
1010
0000
0011
,
0000
1001
0000
0000
,
0110
1000
0010
0100
,
0001
1000
0010
0000
,
1001
0000
0000
0000
,
1001
0000
0000
0000
,
0020
0000
0000
0000
,
0030
0000
0000
0000
,
0200
0000
0000
0000
,
0300
0000
0000
0000
,
2002
0000
0000
0000
,
3003
0000
0000
0000
,
0000
0000
0000
0000
,
0000
0100
0010
0100
,
2002
0000
0000
0000
,
3003
0000
0000
0000
;

//---------------dance-single - ANOTHER----------------
#NOTES:
     dance-single:
     ANOTHER:
     Medium:
     5:
     0.279,0.374,0.315,0.107,0.000,199.000,41.000,14.000,0.000,0.000:
0000
0000
0000
0000
,
0000
0000
0000
0000
,
0001
0000
0000
1000
0000
0000
0110
0000
,
0000
0000
0000
0000
0100
0010
0000
0000
,
0001
0000
0000
1000
0000
0000
0110
0000
,
0000
0000
0000
2000
,
3000
0000
0000
0002
,
0003
0000
0000
0000
,
1001
1000
0010
0001
,
0100
1000
0001
0010
,
1000
0010
0100
0010
,
0001
1000
0100
0001
,
0101
1000
0100
0001
,
1000
0001
0010
1000
,
1100
0010
0100
1001
,
0100
1001
1010
0101
,
0110
0001
0100
0001
,
0100
1000
0010
0001
,
1000
0010
0010
0100
,
1000
0010
0001
1000
,
0110
0010
0100
0001
,
0010
0000
0001
0000
0100
0000
0000
0022
,
0000
0000
0033
0000
0000
0000
0000
2200
,
0000
0000
0000
3300
,
1001
0010
1001
0000
,
1000
1000
0001
0001
,
1001
0100
1001
0000
,
0001
0001
1000
1000
,
1001
0010
1001
0000
,
1000
1000
0001
0001
,
1001
0010
1001
1000
,
0100
0001
0100
1000
,
1001
0010
1001
0000
,
0001
0001
1000
1000
,
1001
0100
1001
0000
,
1000
1000
0001
0001
,
1001
0010
1001
0000
,
1000
1000
0001
0001
,
1001
0110
1001
1000
,
0001
1001
0100
0010
,
0110
1000
0100
0001
,
0010
1000
0100
0001
,
0001
1000
1000
0010
,
0100
0000
0001
0000
0010
0000
0100
0100
,
0100
1000
1000
0001
,
0001
0000
1000
0000
0001
0000
0010
0100
,
0010
0000
0000
0000
0000
0000
1000
0001
,
1000
0000
0001
1000
,
1001
1000
0010
0001
,
1100
0001
0010
1000
,
0101
0100
0010
0100
,
1001
0000
1000
0000
0001
0000
0010
0100
,
0100
1000
1000
0010
,
0100
0001
0000
1010
,
1100
0000
0000
0011
,
0101
0000
0000
0000
,
0002
0000
0000
2000
,
3003
0000
0000
0000
,
2000
0000
0000
0002
,
3003
0000
0000
0000
0010
0100
0000
0000
,
0020
0000
0000
0200
,
0330
0000
0000
0000
0000
0000
0010
0010
,
0010
0000
0000
0000
0000
0000
0100
0100
,
0100
0000
0000
0000
,
2002
0000
0000
0000
,
3003
0000
0000
0000
;

//---------------dance-single - MANIAC----------------
#NOTES:
     dance-single:
     MANIAC:
     Hard:
     7:
     0.385,0.449,0.522,0.138,0.000,265.000,68.000,18.000,0.000,0.000:
0000
0000
0000
0000
,
0000
0000
0000
0000
,
0110
0000
0000
1100
0000
0000
0101
0000
,
0000
0000
0100
0000
0100
0010
0000
0000
,
0011
0000
0000
0110
0000
0000
1100
0000
,
0000
0000
0000
0000
0000
0000
1000
1000
,
0100
0000
0000
0000
0000
0000
0001
0001
,
0100
0000
0000
1001
0000
0000
0010
1001
,
0101
1000
0100
0100
,
0010
0001
0010
0010
,
1000
0100
0100
0010
,
0100
0000
1000
0000
0100
0000
0001
0010
,
0100
1000
0100
0010
,
0100
0000
0001
0000
0100
0000
1000
0100
,
0100
0000
0010
0000
0100
0000
0001
0001
,
0100
0001
1000
0001
1000
0010
0100
0010
,
0100
0001
0100
0010
,
0100
1000
0100
0001
,
0100
0010
0100
0100
,
1000
0000
0010
0000
0001
0000
1000
1000
,
0100
0010
0100
0010
,
0010
0000
0100
0000
0100
0000
0010
1000
,
0202
0000
0303
0000
0000
0000
0100
0001
,
2200
0000
0000
3300
,
0110
1100
0101
0000
,
1000
0100
1000
0000
0001
0100
0001
0000
,
1001
1100
0101
0000
,
0000
1000
0100
0000
0000
0001
0100
0000
,
0110
1100
0101
0000
,
1000
0100
0100
0000
0001
0100
0100
0000
,
1001
0000
0110
0000
1100
0000
1000
0100
,
0010
1000
0100
1000
0001
0010
0100
0010
,
1001
0110
0101
0000
,
1000
1000
0100
0000
0001
0001
0100
0000
,
0101
1100
0110
0000
,
0000
0100
0100
0000
0000
0010
0010
0000
,
1100
0101
1001
0000
,
1000
0010
0001
0000
0001
0010
1000
0000
,
1001
0000
1001
0000
1001
0000
1000
0001
,
1000
0001
1000
0100
0010
0100
0010
0100
,
0110
0000
1000
0100
0010
0000
0001
0010
,
0100
0000
1000
0100
0010
0000
0001
0010
,
0100
0000
1000
0100
1000
0000
0001
0100
,
0001
0000
0010
0100
0010
0000
1001
1001
,
1001
0000
1000
0100
1000
0000
0001
0100
,
0001
0000
1000
0100
1000
0000
0110
0110
,
0110
0000
0000
0000
0000
0000
1001
1001
,
1001
0000
0000
0001
0001
0010
1000
1000
,
1001
1100
0001
1100
,
1000
0101
0001
0101
,
0010
1010
0100
0011
,
1000
0000
1010
0000
1000
0000
1010
0110
,
0101
0000
1000
0100
1000
0010
0100
0000
,
0100
0001
1000
0100
0010
0000
0011
0110
,
1100
0000
0000
0000
0000
0000
0110
0110
,
1001
0000
0000
0000
,
0002
0000
0000
0003
0000
0000
0200
0000
0000
0300
0000
0000
0022
0000
0000
0000
,
0033
0000
0000
0000
,
2000
0000
0000
3000
0000
0000
0200
0000
0000
0300
0000
0000
2020
0000
0000
0000
,
3030
0000
0100
0000
1001
1100
0000
0000
,
0020
0000
0000
0030
0000
0000
2000
0000
0000
3000
0000
0000
0220
0000
0000
0000
,
0330
0000
0000
0000
0000
0000
0001
0100
,
1000
0000
0000
0000
0000
0000
1000
0100
,
0001
0000
0000
0100
0010
0000
0010
0100
,
2002
0000
0000
0000
,
3003
0000
0000
0000
;

//---------------dance-single - BEGINNER----------------
#NOTES:
     dance-single:
     BEGINNER:
     Beginner:
     1:
     0.120,0.175,0.115,0.046,0.000,88.000,15.000,6.000,0.000,0.000:
0000
0000
0000
0000
,
0000
0000
0000
0000
,
0100
0000
0000
0100
,
0000
0000
0000
0000
,
0010
0000
0000
0010
,
0000
0000
0000
0000
,
1001
0000
0000
0000
,
0110
0000
0000
0000
,
1001
0000
0010
0000
,
0001
0000
0100
0000
,
1000
0000
0000
0001
,
0010
0000
0100
0000
,
0010
0000
0100
0000
,
0100
0000
0100
0000
,
0100
0000
1000
0000
,
0100
0000
0000
0000
,
0000
0010
1000
0000
,
0001
0000
0010
0000
,
1000
0000
0000
0100
,
1000
0000
0001
0000
,
0100
0000
0100
0000
,
0010
0000
0100
0000
,
0110
0000
0000
0000
,
1001
0000
0000
0000
,
0010
0000
0010
0000
,
0000
0000
0000
0000
,
0100
0000
0100
0000
,
0000
0000
0000
0000
,
0001
0000
0001
0000
,
0000
0000
0000
0000
,
1000
0000
1000
0000
,
0010
0000
0010
0000
,
0010
0000
0100
0000
,
0000
0000
0000
0000
,
0100
0000
0010
0000
,
0000
0000
0000
0000
,
1000
0000
0001
0000
,
0000
0000
0000
0000
,
0001
0000
1000
0000
,
0100
0000
0001
0000
,
1001
0000
0001
0000
,
0100
0000
0001
0000
,
1000
0000
0100
0000
,
0010
0000
0000
0000
,
1001
0000
1000
0000
,
0001
0000
1000
0000
,
0110
0000
0000
0000
,
1001
0000
0000
0000
,
1000
0000
0100
0000
,
1000
0000
0001
0000
,
1000
0000
0001
0000
,
1000
0000
0000
0000
,
0110
0000
0010
0000
,
0001
0000
0010
0000
,
1001
0000
0000
0000
,
1001
0000
0000
0000
,
0020
0000
0000
0000
,
0030
0000
0000
0000
,
0200
0000
0000
0000
,
0300
0000
0000
0000
,
2002
0000
0000
0000
,
3003
0000
0000
0000
,
0110
0000
0000
0000
,
0000
0100
0010
0000
,
2002
0000
0000
0000
,
3003
0000
0000
0000
;
