#TITLE:Panyo Panyo Digi Charat;
#SUBTITLE:- Happy!Smile!Hello!;
#ARTIST:榎本温子;
#TITLETRANSLIT:;
#SUBTITLETRANSLIT:;
#ARTISTTRANSLIT:Atsuko Enomoto;
#CREDIT:Anime Toshokan;
#BANNER:Panyo Panyo Digi Charat - Happy!Smile!Hello!.png;
#BACKGROUND:Panyo Panyo Digi Charat - Happy!Smile!Hello! bg.png;
#LYRICSPATH:;
#CDTITLE:dejiko.png;
#MUSIC:Panyo Panyo Digi Charat - Happy!Smile!Hello!.mp3;
#OFFSET:-4.559;
#SAMPLESTART:47.180;
#SAMPLELENGTH:11.100;
#SELECTABLE:YES;
#BPMS:0.000=174.000;
#STOPS:;
#BGCHANGES:;
// cache tags:
#FIRSTBEAT:3.500;
#LASTBEAT:243.000;
#SONGFILENAME:Songs/DDR Anime 5th Mix/Panyo Panyo Digi Charat - Happy!Smile!Hello!/Panyo Panyo Digi Charat - Happy!Smile!Hello!.sm;
#HASMUSIC:1;
#HASBANNER:1;
#MUSICLENGTH:90.468;
// end cache tags

//---------------dance-single - BASIC----------------
#NOTES:
     dance-single:
     BASIC:
     Easy:
     5:
     0.363,0.403,0.376,0.221,0.000,176.000,34.000,20.000,0.000,0.000:
0000
0000
0000
0000
0000
0000
0000
1000
,
0000
0000
0000
0010
0000
0000
0000
1000
,
0000
0000
0000
0001
0000
0000
0000
0100
,
0000
0011
0000
1001
,
0000
0000
0110
0000
0000
1001
0000
0110
,
0000
1100
0000
2002
,
0000
0000
0000
3003
,
1000
1000
1000
0100
,
1000
0010
1000
0001
,
1000
0100
0010
0001
,
2002
0000
0000
3003
,
0110
0000
1001
0000
0110
0000
0000
2002
,
0000
0000
0000
3003
0000
0000
0001
0000
,
0001
0001
0010
0001
,
0100
0001
1000
0000
,
0010
0010
0010
0100
,
0010
1000
0010
0001
,
1000
0100
0010
0001
,
2002
0000
3003
0000
,
0110
0000
1001
0000
0110
0000
0000
1001
,
0000
1000
0100
0010
,
0001
0000
1000
0001
,
0100
0000
0010
0000
0000
1000
0001
1000
,
0000
1000
0000
0001
,
0000
0100
0000
0100
,
0010
1001
0100
1001
,
0010
0110
1001
0110
,
0000
1000
0100
0010
,
0001
1000
0100
0010
,
0001
0000
1000
0000
0100
0010
0000
2002
,
0000
0000
0000
0000
0000
3003
0000
0000
,
0001
1000
0001
0100
,
0001
0010
0001
0001
,
1000
0001
1000
0010
,
1000
0100
1000
1000
,
0100
0010
0100
0001
,
0100
1000
0100
0100
,
0010
0100
0010
1000
,
0010
0011
1100
0000
,
1000
1000
1000
0100
,
1000
0010
1000
0001
,
0100
0100
0100
0010
,
0100
0001
0100
1000
,
2002
0000
3003
0000
,
2002
0000
3003
0000
,
1100
0000
0011
0000
0000
1000
0001
1000
,
0000
0000
0100
0000
0010
0000
0100
0020
,
0000
0000
0000
0000
,
0000
0030
0000
0000
,
0001
0010
0001
0100
,
0001
1000
0001
0001
,
0010
0100
0010
1000
,
0010
0001
0010
0010
,
2200
0000
3300
0000
,
0022
0000
0033
0000
,
0011
0000
1100
0000
0000
1000
0001
1000
,
0000
0000
0010
0000
0100
0000
0010
0100
,
0000
0000
0000
0000
0000
0000
0000
1001
,
0000
0000
0000
0000
,
0000
0200
0000
0000
,
0000
0000
0000
0300
;

//---------------dance-single - ANOTHER----------------
#NOTES:
     dance-single:
     ANOTHER:
     Medium:
     7:
     0.439,0.403,0.431,0.199,0.000,221.000,39.000,18.000,0.000,0.000:
0000
0000
0000
0000
0000
0000
0000
0100
,
0000
0001
0010
0001
0000
0100
1000
0100
,
0000
0001
0010
0001
0000
0100
1000
0100
,
0000
1001
0000
1010
,
0000
0000
0110
0000
0000
1001
0000
0110
,
0000
0000
1001
0000
0000
0000
0000
2002
,
0000
0000
0000
3003
,
0001
0100
0000
0001
0100
0000
0001
1000
,
0000
0001
0000
1000
0000
0001
1000
0000
,
0100
0000
0010
0000
0001
0100
0000
1001
,
0000
0000
0000
0000
0000
1000
0001
1000
,
0001
0000
0100
0000
0001
1000
0000
0220
,
0000
0000
0330
1000
,
0010
0100
0001
0010
,
0100
0000
0100
0010
0000
0100
0010
0000
,
1000
0001
0000
0100
0010
0100
0000
1001
,
0000
0110
0000
0100
0010
0000
1001
0000
,
0010
0000
0100
0000
1000
0010
0000
2002
,
0000
0000
0000
3003
0000
0010
0100
0010
,
0100
0000
1001
0000
0010
0100
0000
1001
,
0000
1000
0100
0010
,
0001
0000
0000
0100
0010
0100
0010
0200
,
0000
0000
0000
0300
,
1000
0010
0100
1001
,
0010
0100
0001
1001
,
1000
0110
0001
0110
,
1000
0110
1001
0110
,
0000
1000
0010
0100
,
0001
0000
0010
0100
0000
0000
0100
0010
,
0100
0000
1001
0000
0100
0010
0000
2002
,
0000
0000
0000
3003
,
1001
0000
0110
0000
1001
0000
0010
0100
,
0000
0000
1000
0000
0001
0000
0010
0100
,
0000
0010
0100
0000
1001
0000
0010
0200
,
0000
0000
0000
0000
0000
0300
0000
1000
,
0001
0000
0110
0000
1000
0001
0000
0110
,
0000
0000
1000
0000
0001
0000
0100
0010
,
0000
0000
1001
0000
0110
0000
0100
0020
,
0000
0000
0000
0000
0000
0030
0000
0000
,
1000
0000
0100
0000
0010
0000
0001
0010
,
0000
0000
1000
0000
0010
0000
0001
1000
,
0000
1000
0001
0000
1001
0000
0010
0200
,
0000
0000
0000
0000
0000
0300
0000
1000
,
0001
0000
0001
1000
0000
0000
0001
0010
,
0001
0000
1000
0001
0000
0010
0100
0020
,
0000
0000
1030
0000
0000
1000
0010
1000
,
0000
0000
0000
0001
0010
0001
0010
0002
,
0000
0000
0000
0000
,
0000
0000
0000
0003
,
0001
0000
0010
0000
0100
0000
1000
0100
,
0000
0000
0110
0000
1001
0000
1000
0001
,
0000
0001
1000
0000
0110
0000
0001
2000
,
0000
0000
0000
0000
0000
3000
0000
0001
,
1000
0000
1000
0001
0000
0000
0010
0100
,
0010
0000
1000
0001
0000
0010
0100
0010
,
0000
0000
1001
0000
0000
0001
0100
0001
,
0000
0000
0000
0100
0010
0100
0010
0200
,
0000
0000
0000
0000
0000
0300
0000
1001
,
0000
0010
0100
0001
0010
0100
1000
0010
,
0000
0220
0000
0000
,
0000
0000
0000
0330
;

//---------------dance-single - MANIAC----------------
#NOTES:
     dance-single:
     MANIAC:
     Hard:
     8:
     0.538,0.504,0.420,0.166,0.017,288.000,38.000,15.000,0.000,0.000:
0000
0000
0000
0000
0000
0000
0000
1100
,
0000
0001
0100
0001
0100
0001
0100
0010
,
0000
0010
1000
0010
1000
0010
1000
0100
,
0000
0100
1000
0001
0100
0010
0000
0100
,
1000
0001
0100
0010
0000
1001
0000
0110
,
0000
0100
1000
0001
0100
0010
0000
2002
,
0000
0000
0000
3003
,
0010
0100
0000
1000
0001
0000
0100
0010
,
0000
0011
0000
1100
0000
0001
1000
0000
,
0001
0010
0001
0100
1000
0100
0000
0022
,
0000
0000
0000
0033
0000
0001
1000
0001
,
1000
0000
1001
0000
1000
0001
0000
1001
,
0000
0000
0000
0000
0000
0010
0100
0001
,
0010
1000
0100
0001
0010
0000
1100
0000
,
0110
0000
0010
0001
0000
1000
0100
0000
,
1000
0001
0000
0010
0100
0001
0000
0110
,
0000
1100
0000
0001
0010
0000
1100
0000
,
0001
0010
1000
0010
0100
0001
0000
1100
,
0000
0000
0000
0000
0000
0100
0010
0100
,
0110
0000
1001
0000
0100
0010
0000
1001
,
0000
1000
0100
0010
,
0001
0000
0000
0010
0100
0001
1000
0200
,
0000
0000
0000
0000
0000
0010
0010
0310
,
0000
0000
0000
0000
1000
0000
0000
0000
0001
0000
0000
0010
1000
0000
0000
0000
,
0010
0000
0000
0000
1000
0000
0100
0000
0000
0000
0000
0010
1000
0000
0000
0000
,
0001
0010
1000
0000
0001
0010
1000
0000
,
0001
0110
1001
0110
,
0000
0000
0000
0000
1000
0000
0000
0000
0010
0000
0000
0100
1000
0000
0000
0000
,
0010
0000
0100
0010
0000
0000
1000
0001
,
0100
0000
0110
0000
1000
0001
0000
0220
,
0000
0000
0000
0330
,
1000
0001
0010
0100
1000
0001
0010
0100
,
1000
0000
1100
0000
0011
0000
1000
0010
,
0000
0001
1000
0000
0110
0000
1000
0001
,
0100
0010
0100
0010
0100
0010
1000
0000
,
0001
0000
0110
0000
1000
0010
0000
0110
,
0000
0000
1100
0000
0001
0000
0100
0010
,
0000
1000
0010
0100
0001
0010
1000
0200
,
0000
0001
1000
0300
,
0001
0010
0100
1000
0001
0010
0100
1000
,
0000
0000
1100
0000
0110
0000
0010
0100
,
0000
0001
1000
0000
0110
0000
1000
0010
,
0100
0001
1000
0001
1000
0001
1000
0100
,
0010
0000
0100
0010
0000
0000
1000
0001
,
0100
0000
1000
0010
0000
0100
1000
0020
,
0000
0000
0130
0000
0000
0100
1000
0010
,
0000
0000
0000
0100
0010
1000
0001
0020
,
0000
1000
0000
1000
,
0000
1000
0000
1030
,
1000
0001
0100
0010
0001
1000
0010
0100
,
0000
0000
1100
0000
0011
0000
1000
0010
,
0000
0010
1000
0000
0011
0000
1000
0010
,
0100
0001
0010
1000
0010
0100
1000
0100
,
0001
0000
0001
1000
0000
0000
0100
0010
,
1000
0000
0100
0001
0000
0100
1000
0020
,
0000
0000
0130
0000
0000
0010
1000
0100
,
0000
0000
0000
1000
0001
0100
1000
0220
,
0000
0000
0000
0000
0000
0330
0000
1001
,
0000
0010
0100
0001
0010
0100
1000
0001
,
0000
0220
0000
0000
,
0000
0000
0000
0330
;

//---------------dance-single - SMANIAC----------------
#NOTES:
     dance-single:
     SMANIAC:
     Challenge:
     9:
     0.608,0.571,0.442,0.166,0.022,330.000,40.000,15.000,0.000,0.000:
0000
0000
0000
0000
0000
0000
0000
1010
,
0000
0100
0010
1000
0001
1000
0010
0100
,
0000
0001
0100
0010
1000
0010
0100
0001
,
0000
0010
0001
1000
0100
0001
0000
0010
,
0001
1000
0100
0001
0000
1010
0000
0011
,
0000
0010
0100
0001
0100
1000
0000
2020
,
0000
0000
0000
3030
,
0001
0010
1000
0100
0010
0100
0010
0001
,
0010
1000
0100
0001
0010
1000
0100
0010
,
1000
0001
1000
0010
0100
0010
0000
2002
,
0000
0000
0000
3003
0000
0001
0100
1000
,
0110
0000
1001
0000
0010
0110
0000
1100
,
0000
0010
0100
0001
0000
0001
0010
1000
,
0001
0100
0010
1000
0001
0100
1000
0100
,
0010
0000
0001
1100
0000
0100
0110
0000
,
0100
1000
0100
0001
0010
1000
0100
0010
,
0001
0100
0010
1000
0001
0010
0100
0010
,
1000
0001
0100
0001
0010
1000
0000
0110
,
0000
1000
0010
0100
0000
0010
0100
1000
,
0101
0000
1010
0000
0010
0101
0000
1010
,
0000
1100
0110
0011
,
1100
0000
0000
1000
0100
0001
0100
0020
,
0000
0000
0000
0000
0000
1000
1000
1030
,
0000
0000
0000
0000
0110
0000
0000
0000
1100
0000
0000
0001
0100
0000
0000
0000
,
0101
0000
0000
0000
0100
0000
0010
0000
0000
0000
0000
0001
0100
0000
0000
0000
,
0100
0100
0010
0000
0010
0010
0100
0000
,
1000
0011
1100
0011
,
0000
0000
0000
0000
0100
0000
0000
0000
0001
0000
0000
0010
0100
0000
0000
0000
,
0001
0000
0000
0000
0100
0000
0001
0000
0000
0000
0000
1000
0100
0000
0001
0000
,
0100
0000
1010
0000
0001
1000
0000
0022
,
0000
0000
0000
0033
,
0100
1000
0001
0010
0100
1000
0001
0010
,
0100
1000
0100
0010
1000
0010
0100
0001
,
0010
1000
0100
0000
0011
0000
0100
1000
,
0010
0001
0010
0001
0010
0001
0100
0000
,
1000
0000
1001
0000
0101
0001
0000
0011
,
0000
0000
0110
0000
1000
0000
0010
0001
,
0100
0100
1000
0010
0001
0100
0100
0020
,
0000
1000
0100
0030
,
1000
0001
0100
0100
0001
1000
0010
0010
,
0100
0001
1000
1000
0010
1000
0001
0001
,
0010
1000
0100
0000
0011
0000
0100
0001
,
0010
1000
0100
1000
0100
1000
0100
0010
,
0001
0000
0010
0001
0000
0000
0100
1000
,
0010
0000
0110
0001
0000
0010
1100
0002
,
0000
0000
0013
0000
0000
0010
0100
0001
,
0000
0000
0000
0010
0001
0100
1000
0002
,
0000
0100
0000
0100
,
0100
0100
0100
0100
0100
0100
0103
0100
,
0100
1000
0010
0001
1000
0100
0001
0010
,
0100
1000
0100
0010
0001
1000
0100
0001
,
0010
0001
0100
0000
1001
0000
0100
0001
,
0010
1000
0001
0100
0001
0010
0100
0010
,
1000
0000
1000
0100
0000
0000
0010
0001
,
0100
0000
0010
1000
0000
0010
0100
0002
,
0000
0000
0013
0000
0000
0001
0100
0010
,
0000
0000
0000
1000
0100
0001
0010
0202
,
0000
0000
0000
0000
0000
0303
0000
1100
,
0000
0001
0010
1000
0100
0010
0100
1000
,
0000
0022
0000
0000
,
0000
0000
0000
0033
;

//---------------dance-single - BEGINNER----------------
#NOTES:
     dance-single:
     BEGINNER:
     Beginner:
     2:
     0.204,0.269,0.199,0.188,0.000,94.000,18.000,17.000,0.000,0.000:
0000
0000
0000
0000
,
0000
0000
0000
0000
,
0000
0000
0000
0000
,
0000
0010
0000
1000
,
0000
0100
0000
0000
,
0000
1001
0000
0000
,
0000
0000
0000
0000
,
1000
0000
1000
0000
,
1000
0000
1000
0000
,
1000
0000
0010
0000
,
2002
0000
3003
0000
,
0110
0000
0110
0000
,
0000
0000
0000
0001
,
0001
0000
0010
0000
,
0100
0000
1000
0000
,
0010
0000
0010
0000
,
0010
0000
0010
0000
,
1000
0000
0010
0000
,
2002
0000
3003
0000
,
0110
0000
0110
0000
,
0000
1000
0100
0000
,
0001
0000
1000
0000
,
0100
0000
0000
0000
,
0001
0000
1000
0000
,
0001
0000
0100
0000
,
0010
0000
0100
0000
,
0010
0000
1001
0000
,
0000
1000
0100
0000
,
0001
0000
0100
0000
,
0001
0000
0100
0000
,
1001
0000
0000
0000
,
0001
0000
0001
0000
,
0001
0000
0001
0000
,
1000
0000
1000
0000
,
1000
0000
1000
0000
,
0100
0000
0100
0000
,
0100
0000
0100
0000
,
0010
0000
0010
0000
,
0010
0000
1100
0000
,
1000
0000
1000
0000
,
1000
0000
1000
0000
,
0100
0000
0100
0000
,
0100
0000
0100
0000
,
2002
0000
3003
0000
,
2002
0000
3003
0000
,
1100
0000
0000
0001
,
0000
0100
0010
0000
,
2002
0000
0000
0000
,
3003
0000
0000
0000
,
0001
0000
0001
0000
,
0001
0000
0001
0000
,
0010
0000
0010
0000
,
0010
0000
0010
0000
,
2200
0000
3300
0000
,
0022
0000
0033
0000
,
0011
0000
0000
0001
,
0000
0010
0100
0000
,
2002
0000
0000
0000
,
3003
0000
0000
0000
,
0000
0200
0000
0000
,
0000
0000
0000
0300
;
