#TITLE:El Hazard;
#SUBTITLE:- Illusion;
#ARTIST:Invoice;
#TITLETRANSLIT:;
#SUBTITLETRANSLIT:;
#ARTISTTRANSLIT:;
#CREDIT:Anime Toshokan;
#BANNER:El Hazard - Illusion.png;
#BACKGROUND:El Hazard - Illusion bg.png;
#LYRICSPATH:;
#CDTITLE:dejiko.png;
#MUSIC:El Hazard - Illusion.mp3;
#OFFSET:-0.576;
#SAMPLESTART:61.960;
#SAMPLELENGTH:12.000;
#SELECTABLE:YES;
#DISPLAYBPM:160.000;
#BPMS:0.000=160.040,220.000=153.300;
#STOPS:;
#BGCHANGES:28.000=El Hazard - Illusion.avi=1.000=0=0=1,
235.000=El Hazard - Illusion bg.png=1.000=0=0=1,
99999=-nosongbg-=1.000=0=0=0 // don't automatically add -songbackground-
;
// cache tags:
#FIRSTBEAT:19.000;
#LASTBEAT:235.000;
#SONGFILENAME:Songs/DDR Anime 4th Mix/El Hazard - Illusion/El Hazard - Illusion.sm;
#HASMUSIC:1;
#HASBANNER:1;
#MUSICLENGTH:97.987;
// end cache tags

//---------------dance-single - CHALLENGE----------------
#NOTES:
     dance-single:
     CHALLENGE:
     Challenge:
     8:
     0.481,0.510,0.592,0.061,0.077,266.000,58.000,6.000,0.000,0.000:
0000
0000
0000
0000
,
0000
0000
0000
0000
,
0000
0000
0000
0000
,
0000
0000
0000
0000
,
0000
0000
0000
1001
,
1100
0000
0000
0101
0000
0000
1010
0000
,
0000
0011
0000
0000
1001
0000
0000
0000
,
0011
0000
0100
0001
0000
0000
0110
0000
,
0000
0000
0100
1000
0000
0000
0101
0000
,
0000
0000
0010
0001
0000
0000
1100
0000
,
0000
0000
1000
0010
0000
0000
0110
0000
,
0010
0100
0010
0000
1000
0100
1000
0000
,
0010
0001
0100
0000
1000
0100
0100
0000
,
0100
0010
0100
0010
0100
0010
0001
1000
,
0001
1000
0001
1000
0001
1100
0101
0000
,
0000
0000
0100
0001
1000
0010
0100
0010
,
0001
0010
0100
1000
0000
0000
0110
0000
,
0110
0000
0010
0001
0010
0100
1000
0100
,
0010
0000
0000
0110
0000
0000
0110
0000
,
1001
0000
0000
0100
0001
0010
0100
1000
,
0100
0010
0100
0001
0000
0000
0100
1000
,
0100
0000
0000
0010
0010
0000
1010
0000
,
0011
0000
0000
1100
0000
0000
0011
0000
,
0000
0000
0100
1000
0100
0010
0100
0010
,
0100
1000
0100
0010
0000
0000
1100
0000
,
0101
0000
1000
0100
0010
0001
0100
1000
,
0010
0000
0000
0101
0000
0000
0110
0000
,
1001
0000
0000
0100
0001
0010
0100
1000
,
0100
0010
0100
0010
1000
0100
0001
0010
,
0100
0000
0000
0100
0220
0000
0000
0000
,
0330
0000
0000
0000
0000
0000
0000
0000
0000
0000
0000
1000
0100
1000
0100
1000
,
0100
0110
0001
0110
,
1000
0110
0001
0110
,
1000
0110
0001
0110
,
0100
0110
0010
0110
,
0001
1001
1000
1001
,
0010
0100
1001
0110
,
2002
0000
0000
3003
,
0000
0000
0000
0000
0001
0010
0100
1000
,
0000
0011
0101
0000
0000
0000
0010
0000
,
0000
0000
0010
0000
0000
1001
0110
0000
,
0000
0000
0001
0010
0100
1000
0100
0010
,
0001
0000
0010
0100
1000
0010
0100
1000
,
0100
0000
0010
0001
0010
0100
0010
1000
,
0100
0000
0001
0010
0001
0100
1000
0000
,
0001
0100
0001
0000
0000
0000
1000
0100
1000
0000
0000
0000
0001
0100
0001
0000
,
0000
0000
1000
0100
1000
0000
0000
0000
0010
0100
0010
0000
0000
0000
0000
0000
,
1001
1100
0110
0101
,
1100
0000
0110
0000
1001
0100
0100
0100
,
0100
0000
0010
0001
0010
0100
1000
0100
,
0010
0001
0100
0010
0100
1000
0001
0100
,
0010
1000
0100
0010
0100
1000
0100
0010
,
0001
0100
0010
1000
0100
0010
0001
0000
,
1000
0100
1000
0000
0000
0000
0001
0100
0001
0000
0000
0000
1000
0100
1000
0000
,
0000
0000
0001
0100
0001
0000
0000
0000
0010
0100
0010
0000
0000
0000
0000
0000
,
1001
0000
1100
0000
,
0101
0000
0000
0000
0000
0000
0000
0000
0000
0000
0000
0000
0110
0000
0000
0000
0000
0000
0000
1100
0000
0000
0202
0000
,
0000
0000
0000
0000
,
0000
0000
0000
0303
;
