#TITLE:Oceans of Time;
#SUBTITLE:;
#ARTIST:e^2;
#TITLETRANSLIT:;
#SUBTITLETRANSLIT:;
#ARTISTTRANSLIT:;
#CREDIT:;
#BANNER:Oceans_of_Time__Cut_-banner.jpg;
#BACKGROUND:Oceans_of_Time__Cut_-bg.jpg;
#LYRICSPATH:;
#CDTITLE:;
#MUSIC:Oceans of Time (Cut).mp3;
#OFFSET:-1.740;
#SAMPLESTART:42.034;
#SAMPLELENGTH:12.000;
#SELECTABLE:YES;
#BPMS:0.000=142.000,80.000=71.000,96.000=142.000,160.000=71.000,176.000=141.980;
#STOPS:;
#BGCHANGES:;
// cache tags:
#FIRSTBEAT:15.500;
#LASTBEAT:244.000;
#SONGFILENAME:Songs/StepMix 1/Oceans of Time/Oceans_of_Time__Cut_.sm;
#HASMUSIC:1;
#HASBANNER:1;
#MUSICLENGTH:121.814;
// end cache tags

//---------------dance-single - ----------------
#NOTES:
     dance-single:
     :
     Hard:
     8:
     0.489,0.576,0.172,0.181,0.070,374.000,21.000,22.000,0.000,3.000:
0000
0000
0000
0000
,
0000
0000
0000
0000
,
0000
0000
0000
0000
,
0000
0000
0000
0000
0000
0000
0000
1001
,
1002
1000
0010
1000
,
2000
0003
0000
0000
0010
0000
0000
0000
0001
0000
0000
0000
0010
0000
0000
0000
,
0200
3000
0000
0000
0010
0000
0000
0000
1000
0000
0000
0000
0001
0000
0000
0000
,
2000
0300
0000
0000
0010
0000
0000
0000
0100
0000
0000
0000
3001
0000
1000
0000
,
0001
0010
0001
0100
0000
0010
0100
0010
,
0000
1000
0100
1000
0000
0010
0100
0001
,
0100
0010
0100
1000
0000
1000
0100
0001
,
0000
0001
0010
0100
0000
0100
1000
0010
,
1000
0010
1000
0000
0010
0100
0001
0000
,
0010
0100
1000
0100
0010
0001
1000
0000
,
0010
0100
0010
0000
0010
1000
0100
0000
,
1000
0001
0010
0001
1000
0010
0100
0010
,
1000
0100
0010
0000
0010
0001
0100
0000
,
0010
1000
0100
1000
0010
1000
0001
0000
,
1000
0010
0100
0000
0010
1000
0100
0000
,
1000
0100
0010
0001
1000
0100
0010
0100
,
2000
0000
0002
0000
,
0200
0300
0000
0000
0020
0030
0110
3003
,
0001
0001
1000
1000
0010
0100
0010
0001
,
1000
0000
0001
0000
0010
0000
0001
0000
0010
0000
0001
0000
0010
0000
0100
0000
0010
0000
1000
0000
0010
0000
0000
0000
0000
0000
0001
0000
0000
0001
0000
0000
,
1000
0100
1000
0001
0010
0001
0100
0000
,
0010
1000
0100
1000
0010
0001
0010
0000
,
1000
0100
1000
0010
0100
0001
0010
0001
,
0100
0010
0100
0010
0100
0000
1100
0000
,
0001
0010
0001
1000
0100
1000
0010
0000
,
0100
0001
0010
0001
1000
0010
0100
0000
,
0010
1000
0100
1000
0010
0100
0001
0010
,
0100
0100
1000
0010
0100
0000
0101
0000
,
1010
0000
0101
0000
0001
0010
0100
0000
,
1100
0000
0011
0000
1000
0001
0100
0000
,
0010
1000
1100
0000
0001
0100
0101
0000
,
1000
0001
0010
0001
0100
0000
1001
0000
,
1000
0100
1000
0100
1000
0100
1000
0100
,
0010
0001
0010
0001
0010
0001
0010
0001
,
1000
0100
0010
0100
1000
0010
0100
0001
,
0010
0100
1000
0100
0010
0000
0101
0000
,
2000
0000
0000
0000
3002
0000
0020
0003
2000
0030
0000
0000
0002
3000
0000
0000
,
0200
0003
0000
0000
2000
0300
0000
0000
0020
3000
0000
0000
0200
0030
0002
0300
,
0020
0003
1000
0000
0001
0000
0100
0000
1000
0000
0100
0000
0001
0000
1000
0000
,
0200
0030
1000
0000
0010
0000
0001
0000
0301
0100
1000
0010
0001
0010
1000
0100
,
1000
0100
1000
0010
0100
0001
0010
0000
,
0010
0001
0010
0100
1000
0100
0010
0000
,
0100
1000
0100
0010
0001
1000
0100
0000
,
0100
1000
0100
0000
1000
0000
0010
0000
0100
0000
0000
0000
0101
0000
0000
0000
,
0001
0100
0010
0100
0010
1000
0100
0000
,
0100
1000
0010
0001
0010
1000
0100
0000
,
0010
0001
0010
0100
1000
0001
0010
0000
,
1000
0100
1000
0000
0010
0000
0100
0000
0001
0000
0000
0000
1100
0000
0000
0000
,
1000
0100
1000
0000
0100
0000
1000
0000
0010
0000
0100
0000
0001
0000
0000
0000
,
0010
0001
0010
0000
0100
0000
1000
0000
0001
0000
0010
0000
0001
0000
0000
0000
,
1000
0100
1000
0000
0010
0000
0100
0000
0001
0000
0010
0000
0001
0000
0000
0000
,
1000
0001
1000
0000
0010
0000
0100
0000
0010
0000
0000
0000
1001
0000
0000
0000
,
1000
0101
0001
1100
,
0010
0110
0100
1001
,
1000
0100
1000
0100
1000
0100
1000
0100
,
1000
0100
0001
0100
1000
0100
0001
0100
,
2200
0000
0000
0000
,
3300
0000
0000
0000
;

//---------------dance-single - ----------------
#NOTES:
     dance-single:
     :
     Medium:
     5:
     0.313,0.346,0.222,0.156,0.000,221.000,27.000,19.000,0.000,5.000:
0000
0000
0000
0000
,
0000
0000
0000
0000
,
0000
0000
0000
0000
,
0000
0000
0000
0000
,
2000
0000
0000
0000
,
3200
0000
0000
0000
,
0320
0000
0000
0000
,
0032
0000
0000
0000
,
1003
0100
1100
0000
,
0001
0100
0101
0000
,
1000
0100
0011
0000
,
0001
0010
1100
0000
,
1000
1000
0001
0001
,
0010
0010
0100
0000
,
1000
0010
0100
0001
,
0010
0001
0100
0000
,
1000
1000
0010
0010
,
0100
0001
0010
0100
,
1000
0010
0100
0001
,
0010
0100
1000
0100
,
2001
0000
3020
0000
,
0230
0000
0302
0023
,
0130
1000
0010
0100
,
0001
0010
0100
1000
0001
0010
0100
1000
,
1000
0100
1000
1010
,
0100
0001
0100
0101
,
0010
1000
0010
1010
,
1000
0000
0100
0000
1000
0000
0001
0010
,
0001
0100
0010
1010
,
1000
0100
1000
0011
,
1000
0100
1000
0010
,
0100
0010
0100
0010
0100
0000
0001
0000
,
1000
0100
1000
0110
,
0010
0100
0001
0011
,
0100
1000
0100
1100
,
0010
0100
0010
0000
0100
0000
0100
0000
,
1000
0100
1000
1010
,
0100
1000
0100
1001
,
0010
0100
0001
0011
,
1000
0100
1000
0000
0001
0010
0001
0000
,
2001
0000
0000
0001
3002
0000
0000
0100
,
0203
0000
0000
0010
0320
0000
0000
1000
,
2030
0000
0000
0001
3002
0000
0000
0010
,
0023
0000
0002
0000
1000
0000
1000
0033
,
1000
0100
1000
0010
,
0101
0001
0100
0010
,
1010
0100
1000
0010
,
1000
0001
1000
0001
1000
0000
1001
0000
,
1000
0100
1000
0010
,
0101
0010
0010
1000
,
1100
0100
1000
0001
,
0011
0000
0100
0000
1000
0000
1000
0100
,
0010
0001
0010
0001
,
0011
1000
0100
1000
,
1100
0010
0100
0010
,
1010
0100
0101
0010
,
1000
1000
1000
1000
,
0001
0001
0001
0001
,
1000
0001
1000
0001
1000
0001
1000
0001
,
2000
0002
0010
0010
,
0010
3003
0000
0000
0000
0000
0000
0000
;

//---------------dance-single - ----------------
#NOTES:
     dance-single:
     :
     Easy:
     3:
     0.144,0.222,0.057,0.164,0.000,96.000,7.000,20.000,0.000,0.000:
0000
0000
0000
0000
,
0000
0000
0000
0000
,
0000
0000
0000
0000
,
0000
0000
0000
0000
,
1000
0000
0000
0000
,
0010
0000
0000
0000
,
0100
0000
0000
0000
,
0001
0000
0000
0000
,
0010
0000
0000
0000
,
0010
0000
0000
0000
,
0010
0000
0000
0000
,
0010
0000
0000
0000
,
1000
0000
0100
0000
,
1000
0000
0000
0000
,
0001
0000
0010
0000
,
0001
0000
0000
1000
,
1000
0000
0010
0000
,
0100
0000
0000
0001
,
0001
0000
0010
0000
,
0100
0000
1000
0000
,
2000
0000
3020
0000
,
0230
0000
0320
0000
,
2030
0000
3002
0000
,
0023
0000
0230
0000
,
1300
0000
1000
0000
,
0010
0000
0010
0000
,
0200
0000
0000
0300
,
0020
0000
0000
0030
,
1000
0000
1000
0000
,
0001
0000
0001
0000
,
0020
0000
0000
0030
,
0200
0000
0000
0300
,
1010
0000
0000
0000
,
0101
0000
0000
0000
,
1001
0000
0000
0000
,
0110
0110
0110
0000
,
1000
0000
1000
0000
,
0001
0000
0001
0000
,
0010
0000
0100
0000
,
1000
0000
0100
0010
,
0002
0000
2003
0000
,
3020
0000
0230
0000
,
0302
0000
0023
0000
,
2030
0000
3020
0000
,
0031
0000
0100
0000
,
0010
0000
0000
0000
,
1000
0000
1000
0000
,
0010
0000
0000
0000
,
0010
0000
0010
0000
,
1000
0000
0000
0000
,
0100
0000
0000
0000
,
1000
0000
0010
0000
,
0100
0000
0000
0000
,
0100
0000
0001
0000
,
0010
0000
0010
0000
,
0100
0000
0000
0000
,
1000
0000
0001
0000
,
1000
0001
1000
0000
,
1000
0000
0001
0000
,
1000
0001
1000
0001
,
1001
0000
0000
0000
;

//---------------dance-single - ----------------
#NOTES:
     dance-single:
     :
     Beginner:
     1:
     0.067,0.148,0.066,0.000,0.000,49.000,8.000,0.000,0.000,0.000:
0000
0000
0000
0000
,
0000
0000
0000
0000
,
0000
0000
0000
0000
,
0000
0000
0000
0000
,
1001
0000
0000
0000
,
0000
0000
0000
0000
,
0010
0000
0000
0000
,
0000
0000
0000
0000
,
0001
0000
0000
0000
,
0000
0000
0000
0000
,
0000
0000
0000
0000
,
0000
0000
0000
0010
,
0010
0000
0000
0000
,
0000
0000
0000
0000
,
0001
0000
0000
0000
,
0000
0000
0000
1000
,
1000
0000
0000
0000
,
0000
0000
0000
0000
,
0100
0000
0000
0000
,
0010
0000
0000
0000
,
1001
0000
0000
0000
,
0001
0000
0000
0000
,
1000
0000
0000
0000
,
0010
0000
0000
0000
,
0100
0000
0000
0000
,
0000
0000
0000
0000
,
0100
0000
0000
0000
,
0001
0000
0000
0000
,
1000
0000
0000
0000
,
0000
0000
0000
0010
,
0010
0000
0000
0000
,
0000
0000
0000
0000
,
0100
0000
0000
0000
,
0001
0000
0000
0000
,
1000
0000
0000
0000
,
0000
0000
0000
0000
,
0010
0000
0000
0000
,
0000
0000
0000
0000
,
0100
0000
0000
0000
,
0001
0000
0000
1000
,
1001
0000
0000
0000
,
0000
0000
0000
0000
,
0010
0000
0100
0000
,
1000
0000
0001
0000
,
0010
0000
0000
0000
,
0010
0000
0000
0000
,
0100
0000
0000
0000
,
1000
0000
0000
0000
,
0001
0000
0000
0000
,
0010
0000
0000
0000
,
0100
0000
0000
0000
,
1000
0000
0000
0000
,
0001
0000
0000
0000
,
0010
0000
0000
0000
,
1000
0000
0000
0000
,
0100
0000
0000
0000
,
1001
0000
0000
0000
,
1001
0000
0000
0000
,
0110
0000
0000
0000
,
0110
0000
0000
0000
,
1001
0000
0000
0000
;

//---------------dance-double - ----------------
#NOTES:
     dance-double:
     :
     Easy:
     4:
     0.205,0.323,0.066,0.181,0.000,145.000,8.000,22.000,0.000,0.000:
00000000
00000000
00000000
00000000
,
00000000
00000000
00000000
00000000
,
00000000
00000000
00000000
00000000
,
00000000
00000000
00000000
00000000
,
00100000
00000000
00000000
00000000
,
00001000
00000000
00000000
00000000
,
01000000
00000000
00000000
00000000
,
00001000
00000000
00000000
00000000
,
00010000
00000000
00001000
00000000
,
00100000
00000000
01000000
10000000
,
00100000
00000000
01000000
00000000
,
00010000
00000000
00100000
00001000
,
00010000
00001000
00000000
00100000
,
00000000
00001000
00000000
00010000
,
00000000
00000100
00000000
00000010
,
00000000
00000001
00000000
00000100
,
00000000
00010000
00000000
00001000
,
00000000
01000000
00000000
00010000
,
00000000
00100000
00000000
00001000
,
00010000
00001000
00100000
00001000
,
00022000
00000000
00000000
00030000
00200000
00000000
00000000
00003000
,
00020000
00000000
00000000
00300000
10000000
00000000
00100000
00000000
,
02000000
00000000
00000000
00030000
00002000
00000000
00000000
03000000
,
00020000
00000000
00000000
00030000
00000200
00000000
00000000
00003300
,
00001100
00010000
00000000
00001000
,
00000000
00100000
00000000
00001000
,
00011000
00010000
00000000
00001000
,
00000000
00010000
00000000
01000000
,
11000000
00100000
00000000
01000000
,
00000000
00001000
00000000
00100000
,
00000000
00001000
00000000
00010000
,
00011000
00000100
00000000
00000010
,
00000000
00000100
00000000
00010000
,
00000000
00001000
00000000
00100000
,
00000000
00010000
00000000
01000000
,
00000000
00001000
00000000
00010000
,
00000000
00000100
00000010
00000001
,
00000000
00010000
00001000
00100000
,
00000000
01000000
00001000
00010000
,
00000000
00000100
00010000
00001000
,
00022000
00030000
02000000
03000000
,
00020000
00003000
00000200
00000000
00000300
00030000
00002000
00000000
,
00000002
00003003
00000020
00000031
,
00000200
00000000
00001300
00000000
00200000
00000000
00010000
00310000
,
00010000
00100000
01000000
00000000
,
00001000
00010000
00000100
00000000
,
00000010
00000001
00000100
00000000
,
00001000
00010000
00000100
00010000
,
00001000
00010000
00100000
00000000
,
00100000
00010000
01000000
00000000
,
00100000
00100000
10000000
00000000
,
00001000
00000000
00010000
00000000
,
00000100
00000010
00000100
00000000
,
00010000
00001000
00010000
00000000
,
00100000
01000000
00100000
00000000
,
10000000
01000000
00100000
00010000
,
02000000
00000000
00000000
00000000
00001000
00000000
00000000
03000000
,
00002000
00000000
00010000
00000000
,
00103000
00001000
00010000
00000100
,
00000010
00000010
00000010
00000110
,
00002002
00000000
00000000
00000000
00000000
00003003
00000000
00000000
;

//---------------dance-double - ----------------
#NOTES:
     dance-double:
     :
     Medium:
     6:
     0.330,0.551,0.189,0.345,0.000,216.000,23.000,42.000,0.000,0.000:
00000000
00000000
00000000
00000000
,
00000000
00000000
00000000
00000000
,
00000000
00000000
00000000
00000000
,
00000000
00000000
00000000
00000000
,
00002000
00000000
00023000
00000000
,
00230000
00000000
20300000
00000000
,
32000000
00000000
03200000
00000000
,
00320000
00000000
00000000
00000000
01030000
00000000
00001000
00010000
,
00021000
00001000
00000000
00001000
,
00000000
00001000
00000000
00031000
,
00012000
00010000
00000000
00010000
,
00000000
00000000
00010000
00000000
00000000
00000000
00010000
00003000
,
00010000
00000100
00001000
00000010
,
00000000
00000010
00001000
00010000
,
00000000
00010000
01000000
10000000
,
00000000
00000000
00100000
00000000
01000000
00000000
00010000
00100000
,
00001000
00010000
00001000
00000100
,
00000000
00000010
00000001
00000100
,
00000000
00000010
00001000
00000100
,
00001000
00000000
00000100
00010000
00001000
00010000
00000100
00010000
,
00022000
00033000
00220000
00330000
,
00002200
00000000
00003300
00000000
00202000
00303000
00022000
00033000
,
00220000
00330000
00010000
00100000
02000000
00000000
13000000
00100000
,
02000000
00000000
00000000
03000000
00110000
00000000
00011000
00000000
,
00010100
00010000
00001000
00100000
,
00011000
01000000
00001000
00010000
,
00011000
00000100
00000010
00000001
,
00000100
00000010
00002000
00000000
,
00003100
00010000
00001000
00100000
,
00001000
00010000
00000100
00000010
,
00000001
00000100
00000010
00000001
,
00000020
00000000
00001000
00000000
,
00001030
00010000
00100000
00000000
,
00100000
10000000
01000000
00000000
,
00010000
00001000
00000100
00000000
,
00001100
00000000
00110000
00000000
,
00010000
00001000
00100000
00001000
,
00010000
00000100
00000010
00000001
,
00001000
00000100
00010000
00001000
,
00200000
00000000
00000000
00000000
00010000
00000000
10000000
00300000
,
00102000
00000000
00000000
00010000
02003000
00000000
03200000
00000000
,
20300000
32000000
03020000
00032000
,
00003100
00001000
00000100
00000000
00010000
00001000
00010000
00000000
,
00100000
00010000
00100000
01000000
20000000
00000000
00010000
30000000
,
00110000
10000000
01000000
00100000
,
00011000
00100000
00001000
00010000
,
00001100
00000010
00000001
00000100
,
00000001
00000010
00000001
00000000
00000100
00000010
00000100
00000001
,
00000010
00000001
00001000
00000100
,
00010000
00001000
00100000
00010000
,
01000000
00100000
00010000
00100000
,
10000000
00000000
01000000
00000000
00100000
00000000
00010000
00001000
,
00010000
01000000
00100000
10000000
,
01000000
10000000
00100000
01000000
,
01010000
00100000
00001000
00010000
,
00011000
00100000
00011000
00000010
,
00020000
00032000
00203000
00320000
,
02030000
03200000
10300000
00000000
,
10000000
01000000
00100000
01000000
10000000
00100000
01000000
00010000
,
00100000
00010000
00100000
00001000
00100000
00010000
00100000
00001000
,
00022000
00000000
00000000
00000000
,
00033000
00000000
00000000
00000000
;

//---------------dance-double - ----------------
#NOTES:
     dance-double:
     :
     Hard:
     9:
     0.525,0.701,0.296,0.369,0.012,363.000,36.000,45.000,0.000,11.000:
00000000
00000000
00000000
00000000
,
00000000
00000000
00000000
00000000
,
00000000
00000000
00000000
00000000
,
00000000
00000000
00000000
00000000
00000000
00000000
00000000
00101000
,
00021000
00000000
00001000
00030000
00012000
00000000
00013000
00000000
,
00012000
00000000
00103000
00000000
00102000
00000000
00103000
00010000
,
02010000
03010000
00210000
00301000
,
00021000
00000000
00030100
00000000
00000012
00000000
00001003
00000100
,
00010000
00001000
00100000
00000000
00002000
00000000
01003000
00000000
,
00100000
01000000
00100000
00000000
20000000
00000000
30010000
00000000
,
00100000
00001000
00010000
00000000
00000020
00000000
00000130
00000000
,
00010000
00001000
00200000
00000000
00310000
01000000
00100000
00010000
,
00100000
10000000
01000000
00000000
00100000
00010000
01000000
00000000
,
00001000
00010000
00000100
00010000
00001000
00100000
00001000
00000000
,
00010000
00001000
00000100
00000000
00000100
00001000
00010000
00000000
,
00010000
01000000
10000000
01000000
00010000
01000000
10000000
00100000
,
00010000
00100000
00010000
00000000
00010000
00100000
10000000
00000000
,
01000000
00100000
00010000
01000000
00001000
00010000
00000100
00000000
,
00000010
00000001
00001000
00000000
00000010
00001000
00000001
00000000
,
00000001
00000010
00001000
00000010
00000100
00000001
00000100
00001000
,
00002200
00000000
00000010
00000000
,
00010000
00003300
00000000
00000000
00122000
00000000
01000000
00033000
,
20120000
00000000
00000000
00000000
30030000
00000000
00000000
00000000
00000000
00022000
00000000
00000000
00100000
00000000
00033000
00000000
00000000
00000000
00000000
00000000
00000000
00002200
00000000
00000000
,
00000010
00000000
00000000
00000000
00003300
00000000
00000000
00000000
00000000
00000000
00000000
00000000
00000000
00000000
00000000
00000000
00000000
00000000
00000000
00000000
00000000
20200000
00000000
00000000
00010000
00000000
00000000
30300000
00000000
00000000
00000000
00000000
00000000
00000000
00000000
00000000
01011100
00000000
00000000
00000000
00000000
00000000
00000000
00000000
00000000
00000000
00000000
00000000
,
00010000
00001000
00100000
00010000
01000000
00100000
00010000
00100000
,
10000000
01000000
00100000
01000000
10000000
00100000
01000000
00010000
,
00100000
00001000
00010000
00000100
00000010
00000001
00000010
00000100
,
00010000
00000100
00010000
00001000
01000000
00000000
01100000
00000000
,
10000000
00100000
00010000
00100000
10000000
01000000
00010000
01000000
,
00100000
00010000
01000000
00100000
00010000
00100000
01000000
00001000
,
00100000
00010000
01000000
00001000
00010000
00000100
00000010
00000001
,
00000100
00000010
00001000
00000100
00000010
00000000
00000110
00000000
,
00010000
00001000
00100000
00000000
00011000
00000000
00101000
00000000
,
00010000
00100000
01000000
00000000
10100000
00000000
01010000
00000000
,
00010000
00001000
00010000
00000000
00010100
00000000
00001010
00000000
,
00001000
00000100
00000001
00000100
00002000
00000000
00003010
00000000
,
00010000
00001000
00100000
00001000
00010000
00000100
00010000
00001000
,
00100000
00001000
00010000
00000100
00000010
00000001
00000100
00000010
,
00000001
00000010
00001000
00010000
00100000
10000000
00100000
00010000
,
01000000
00100000
10000000
00100000
00010000
00000000
00110000
00000000
,
20100000
00000000
00000000
00000000
32000000
00000000
00002000
03000000
00000200
00003000
00000000
00000000
00000000
00000000
00000000
00000000
,
00002000
00000300
00000000
00000000
00203000
00000000
00000000
00000000
10300000
00100000
00020000
00000000
20030000
00000000
32000000
00000000
,
03020000
00000000
00000000
00000000
00031000
00000100
00000002
00000003
00002200
00000000
00000000
00000000
00003300
00000000
00022000
00033000
,
00001200
00010000
00001000
00010300
00022000
00100000
00000010
00033000
,
00011000
00001000
00100000
00010000
01000000
10000000
01000000
00001000
,
00010000
00000100
00000001
00000100
00010000
00001000
00100000
00001000
,
01000000
00010000
00100000
10000000
00100000
00010000
01000000
00100000
,
00010000
00001000
00000010
00000001
00000100
00000000
00000101
00000000
,
00010000
00001000
00100000
10000000
00100000
00010000
01000000
00100000
,
00010000
00001000
00000010
00000001
00000010
00001000
00010000
01000000
,
10000000
00100000
01000000
00010000
00100000
00001000
00010000
00000100
,
00000010
00000001
00000100
00000010
00001000
00000000
00101000
00000000
,
01000000
00001000
00100000
00010000
10000000
00100000
00010000
00001000
,
00000010
00000001
00000010
00001000
00010000
00100000
10000000
01000000
,
10000000
00100000
00010000
00100000
10000000
01000000
00010000
01000000
,
10000000
00100000
01000000
00001000
00010000
00000100
00000010
00000001
,
00000100
00001000
00000100
00000000
00000100
00000001
00000100
00000000
,
00000100
00010000
00100000
00000000
10010000
00000000
01001000
00000000
,
00010000
00001000
00100000
00001000
00010000
00000100
00000010
00000001
,
00000010
00000100
00001000
00010000
00100000
01000000
10000000
00010000
,
20020000
00000000
00000000
00000000
,
30030000
00000000
00000000
00000000
;

//---------------dance-double - ----------------
#NOTES:
     dance-double:
     :
     Challenge:
     10:
     0.597,0.825,0.369,0.287,0.144,429.000,45.000,35.000,0.000,24.000:
00000000
00000000
00000000
00000000
,
00000000
00000000
00000000
00000000
,
00000000
00000000
00000000
00000000
,
00000000
00000000
00000000
00000000
00000000
00000000
00000000
00100010
,
00011000
00001000
00100000
00001000
00010000
00000100
00010000
00001000
,
00100000
00000000
00001000
00000000
00010000
00000000
00000100
00000000
00010000
00000000
00001000
00000000
00100000
00001000
00010000
00000000
,
00001000
00010000
00000100
00010000
00001000
00100000
00001000
00010000
,
00000100
00000000
00010000
00000000
00001000
00000000
00100000
00000000
00001000
00000000
00010000
00000000
00000100
00010000
00001000
00000000
,
00011000
00001000
01000000
00000100
00000000
00000100
01000000
00001000
,
00000000
00001000
00100000
00000010
00000000
00100000
00001000
00010000
,
00001000
01000000
00010000
10000000
00000000
10000000
00001000
00010000
,
00000000
00010000
00000001
00001000
00000000
00000001
00010000
00001000
,
10000000
00100000
00010000
00100000
10000000
01000000
00010000
01000000
,
00100000
10000000
00100000
00010000
01000000
00001000
00100000
00000010
,
00010000
00001000
00100000
10000000
00100000
00010000
01000000
00100000
,
10000000
01000000
00010000
01000000
10000000
00010000
01000000
00001000
,
00010000
00000100
00000010
00000001
00000100
00000010
00000001
00000010
,
00010000
00001000
00100000
10000000
00100000
00010000
01000000
00010000
,
00100000
00001000
00010000
00000100
00000010
00000001
00000100
00000010
,
00001000
00000100
00100000
00001000
01000000
00100000
00010000
00100000
,
20020000
00000000
00000000
00000000
30030000
00000000
00200000
00000000
00022000
00033000
00300000
00000000
00000000
00000000
00020000
00000000
,
00000220
00000000
00000330
00000000
00000000
00000000
00000000
00000000
00030000
00000000
00000000
00000000
00000000
00000000
00000200
00000000
00000022
00000333
00000000
00000000
00000000
00000000
00000200
00000000
00002002
00000000
00000300
00000000
00003003
00000000
00000000
00000000
,
00002200
00000000
00000000
00000000
00000000
00000000
00000000
00003300
00000000
00000000
00000000
00000000
20000000
00000000
00000000
00000000
00110000
00000000
00000000
00000000
00000000
30000000
00000000
00000000
00000000
00000000
00000000
00000000
02000000
00000000
00000000
00000000
,
00022000
00000000
00033000
00000000
00000000
03000000
00000000
00000000
00000000
00000000
00000000
00000000
00000000
00000000
00000000
00000000
00010000
00001000
00010000
00001000
00100000
00001000
00010000
00000100
00010000
00001000
00100000
00010000
01000000
00100000
00010000
00100000
,
10000000
01000000
00100000
00010000
01000000
00100000
00010000
00001000
,
00000010
00000001
00000100
00000010
00010000
00001000
01000000
00000100
,
00010000
00001000
00100000
00001000
01000000
00010000
10000000
01000000
,
10000000
00000000
00100000
00000000
01000000
00000000
00020000
00000000
02000000
00000000
00000000
00000000
10000000
03030000
00000000
00000000
,
01000000
00010000
00100000
00010000
01000000
00001000
00010000
00000100
,
01000000
00010000
00100000
00001000
01000000
00001000
00010000
00000010
,
00001000
00000100
00010000
00001000
00100000
00010000
01000000
00100000
,
00010000
00001000
00000010
00000002
00000200
00000000
00000010
00000303
,
00000001
00000100
00001000
00010000
00100000
10000000
01000000
10000000
,
00100000
01000000
00010000
00100000
00000100
00010000
00001000
00100000
,
00000100
01000000
00010000
10000000
00001000
00010000
00000001
00001000
,
00000100
00010000
00001000
00200000
00020000
00000000
10000000
00330000
,
10000000
01000000
00100000
01000000
10000000
00100000
00010000
00100000
,
10000000
01000000
00010000
00001000
00000010
00000001
00000100
00000010
,
00000001
00000010
00001000
00000100
00100000
00000100
00010000
00001000
,
01000000
00010000
10000000
00001000
00010000
00000001
00000100
00000010
,
00002002
00000000
00000000
00000010
00020000
00003003
02030100
00000000
,
00110000
00000000
00000000
00000000
00101000
00000000
00000000
00000000
00011000
00000000
00000000
00000000
00100010
03000000
00000000
00000000
,
00022000
00000000
00000000
00000000
00000000
00000000
00100000
00000000
00000010
00033000
00000000
00000000
00100010
00000000
00000000
00000000
,
00011000
00000000
00000000
00000000
02000200
00000000
00000000
00000000
00011000
00000000
00000000
00000000
00010000
00001000
00010000
00001000
,
00011000
03000300
00000000
00000000
01000100
00000000
00000000
00000000
00010000
00000000
00001000
00000000
00100000
00000000
00000000
00000000
,
00011000
00000000
00100010
00000000
00010000
00001000
00000100
00000000
,
00001100
00000000
00110000
00000000
00010000
00001000
00100000
00001000
,
00010000
00000000
00000100
00000000
00010000
00000000
00011000
00000000
00001000
00010000
00001000
00100000
00001000
00010000
00000100
00000010
,
00000001
00000100
00000010
00001000
00000100
00010000
00001000
10000000
,
00010000
00100000
01000000
00100000
00001000
01000000
00001000
00010000
,
00000100
00010000
00001000
00100000
00001000
00010000
00000100
00000000
,
00000010
00000100
00000010
00001000
00000010
00000000
00000001
00000000
00000100
00000010
00001000
00000100
00010000
00001000
00100000
00000000
,
00001000
00100000
10000000
00100000
00001000
00010000
00000100
00010000
,
00001000
00100000
00010000
01000000
00100000
00010000
00001000
00000010
,
00000001
00000100
00000010
00010000
00001000
01000000
00100000
10000000
,
01000000
00000100
00000010
00000001
00000100
00100000
00010000
01000000
,
00001000
00010000
00011000
00000000
00100000
00000100
00100100
00000000
,
00011000
00101000
00100010
00000000
00011000
00010100
01000100
00000000
,
00011000
00110000
00011000
00001100
00000110
00000011
00000110
00010100
,
00010000
00001000
00100000
00010000
01000000
00100000
00010000
00100000
10000000
01000000
00100000
00001000
00010000
00000100
00000010
00000001
,
00000200
00000000
00000000
00000000
00000000
00000000
00000000
00000300
;

//---------------dance-single - M.Lippy----------------
#NOTES:
     dance-single:
     M.Lippy:
     Challenge:
     10:
     0.708,0.825,0.140,0.213,0.833,561.000,17.000,26.000,0.000,10.000:
0000
0000
0000
0000
,
0000
0000
0000
0000
,
0000
0000
0000
0000
,
0000
0000
0000
0000
0000
0000
0000
0011
,
1001
1000
0100
0010
0100
1000
0010
0100
,
0010
0000
1000
0000
0100
0000
0001
0000
0100
0000
1000
0000
0010
0100
0002
0000
,
0010
0003
0001
0000
1000
0000
0010
0000
0100
0000
0010
0000
0001
0000
0010
0000
,
1000
0000
0100
0000
0010
0000
0001
0000
0010
0000
0100
0000
1000
0100
0020
0000
,
0001
0030
1000
0000
0010
0000
0100
0000
0000
0000
0001
0100
0001
0100
0001
0000
,
1000
0000
0100
0000
0010
0000
0001
0000
0000
0000
1000
0100
1000
0100
1000
0000
,
0010
0000
0100
0000
0010
0000
1000
0000
0000
0000
1000
0001
1000
0001
0010
0000
,
0001
0000
0100
0000
0010
0000
1000
0000
0000
0000
1000
0100
0010
0001
1000
0000
,
1001
1000
0100
1000
0010
0100
0010
1000
,
0100
0000
0010
0000
0001
0000
0100
0000
0010
0000
1000
0000
1000
0100
0010
0001
,
1000
0010
0100
0001
0010
0001
1000
0010
,
0100
0000
0010
0000
0001
0000
0010
0000
1000
0000
0100
0000
0010
0001
1000
0010
,
0100
0010
1000
0010
0001
0010
1000
0100
,
0010
0000
0001
0000
0100
0000
0010
0000
0001
0000
0010
0000
1000
0100
0010
0100
,
1000
0100
1000
0010
0100
0010
0100
0001
,
0010
0000
0001
0000
0100
0000
0010
0000
0100
0001
1000
0000
1000
0100
0010
0000
,
0220
0000
0000
0000
0000
0330
1000
0000
1010
0000
1000
0010
0100
0001
0100
0010
,
0110
0000
1000
0100
0010
0001
0010
1000
0010
0000
0200
0000
0020
0330
1000
0100
,
1100
0000
0010
0001
0010
0100
0010
0100
1000
0010
0100
0010
0100
0010
0001
0010
,
0020
0000
0032
0000
0203
0000
0320
0030
0100
1000
0100
1000
0100
0010
0100
0010
,
1000
0001
0010
0000
0010
0001
0000
0100
0010
0000
1000
0100
0000
0010
0001
0000
,
1000
0001
1000
0000
0001
1000
0000
1000
0001
0000
0001
0010
0000
0100
1000
0000
,
0001
0010
0001
0000
0001
0010
0000
0100
1000
0000
0100
0010
0000
0010
0001
0000
,
1000
0001
0010
0000
0010
0001
0000
0001
1000
0010
0100
0000
0001
0010
0000
0001
,
0100
0010
1000
0000
1000
0100
0000
1000
0100
0000
0010
0001
0000
0100
0010
0000
,
1000
0100
0010
0000
0001
1000
0000
1000
0010
0000
0010
0100
0000
0100
0001
0000
,
0001
0010
0100
0000
1000
0010
0000
0100
0001
0000
1000
0001
0000
0010
0001
0000
,
1000
0001
1000
0000
1000
0001
0000
0001
1000
0001
0010
0000
0010
0001
0000
0100
,
0010
1000
0002
0000
0000
0010
0000
0000
1000
0000
0000
0100
0000
0000
0010
0000
,
1003
0010
0200
0000
0000
0001
0000
0000
0010
0000
0000
1000
0000
0000
0001
0000
,
0301
0100
0020
0000
0000
1000
0000
0000
0100
0000
0000
0001
0000
0000
0100
0000
,
1030
0001
2000
0000
0000
0010
0000
3010
0100
0001
0020
0000
0000
0001
0000
0031
,
0100
0010
1000
0000
1000
0100
0000
0010
0001
0000
0001
0100
0000
0100
0001
0010
,
0001
0100
0010
0000
0010
1000
0000
1000
0100
0000
0010
0001
0000
0001
0100
0010
,
1000
0100
0010
0000
0010
0001
0000
0001
0100
0000
0100
0010
0000
0010
0100
0001
,
0010
0100
1000
0100
0000
0100
1000
0010
0100
0001
0100
0010
0000
0010
1000
0100
,
0020
0000
0000
0002
2000
0000
0000
0003
,
0002
0000
0000
0000
0200
0003
3300
0000
0002
0000
0000
0000
0200
0000
0333
0000
,
0220
0000
0000
1000
1000
0000
0000
0000
,
0002
0000
1000
0000
1003
0000
1001
0330
,
1000
0100
0010
0000
0010
0001
0000
0001
0100
0000
0100
0010
0000
0010
0100
0010
,
1000
0100
1000
0000
0010
0100
0000
0001
0100
0000
0010
1000
0000
0100
0010
0001
,
0100
0010
1000
0000
1000
0001
0000
0001
0010
0000
0010
0001
0000
0001
0100
0010
,
1000
0001
0010
0000
0001
0010
0000
0001
0010
0100
1000
0000
0001
0010
0000
0010
,
0001
0100
0010
0000
0001
0010
0000
0010
1000
0000
1000
0100
0000
0010
0001
0100
,
0010
1000
0100
0000
0010
0001
0000
0001
1000
0000
1000
0010
0000
0010
0100
0001
,
0010
0100
1000
0000
1000
0100
0000
0010
0001
0000
0100
0010
0000
0010
0100
0001
,
0010
0100
1000
0001
0000
0001
0010
0001
0100
0010
1000
0100
0000
0100
1000
0010
,
0100
0001
0010
0000
0001
0100
0000
0010
1000
0000
0010
0100
0000
0010
0100
0010
,
0001
0010
1000
0000
1000
0100
0000
0010
0001
0000
0001
0100
0000
0100
0010
0001
,
0010
1000
0100
0000
0010
0001
0000
0001
0100
0000
0100
0010
0000
0010
1000
0100
,
1000
0010
0100
0001
0000
0001
0010
0001
0100
0010
1000
0100
0000
0100
1000
0010
,
0100
0010
0110
0000
0010
0001
0011
0000
,
0001
0010
1010
0000
0010
0100
0110
0000
,
1001
0100
1001
0010
0110
0100
1100
0010
,
1000
0010
0100
0010
0001
0010
1000
0100
0010
0100
0001
0100
1000
0010
0100
1000
,
0200
0000
0000
0000
0000
0000
0000
0000
0000
0000
0000
0000
0000
0000
0000
0300
;
