#TITLE:Vandread;
#SUBTITLE:- Trust;
#ARTIST:Salia;
#TITLETRANSLIT:;
#SUBTITLETRANSLIT:;
#ARTISTTRANSLIT:;
#CREDIT:Anime Toshokan;
#BANNER:Vandread - Trust.png;
#BACKGROUND:Vandread - Trust bg.png;
#LYRICSPATH:;
#CDTITLE:dejiko.png;
#MUSIC:Vandread - Trust.mp3;
#OFFSET:2.896;
#SAMPLESTART:57.790;
#SAMPLELENGTH:12.200;
#SELECTABLE:YES;
#DISPLAYBPM:158.000;
#BPMS:0.000=158.110,48.000=158.000;
#STOPS:;
#BGCHANGES:41.000=Vandread - Trust.avi=1.000=0=0=1,
209.000=Vandread - Trust bg.png=1.000=0=0=1,
99999=-nosongbg-=1.000=0=0=0 // don't automatically add -songbackground-
;
// cache tags:
#FIRSTBEAT:20.000;
#LASTBEAT:213.000;
#SONGFILENAME:Songs/DDR Anime 1st Mix/Vandread - Trust/Vandread - Trust.sm;
#HASMUSIC:1;
#HASBANNER:1;
#MUSICLENGTH:83.963;
// end cache tags

//---------------dance-single - BASIC----------------
#NOTES:
     dance-single:
     BASIC:
     Easy:
     3:
     0.269,0.285,0.155,0.024,0.000,143.000,13.000,2.000,0.000,0.000:
0000
0000
0000
0000
,
0000
0000
0000
0000
,
0000
0000
0000
0000
,
0000
0000
0000
0000
,
0000
0000
0000
0000
,
0000
0110
0000
0000
,
0000
1000
0000
0000
,
0000
0001
0000
0000
,
0000
0010
0000
0000
,
0000
0100
0000
0000
,
0000
1001
0000
0200
,
0000
0000
0000
0300
,
0010
0100
1000
0001
,
0100
0001
0001
1000
,
1000
0010
0010
0100
,
0010
0100
1000
0001
,
1000
0001
1000
0001
,
0001
0001
1000
1000
,
1000
0110
0000
1001
,
0000
0110
0000
1001
,
0000
1000
0001
1000
,
0001
0010
0100
1000
,
0001
0100
0010
0001
,
1000
1000
0001
0001
,
0010
0100
0001
0010
,
0100
1000
0001
1000
,
0000
0110
0000
0110
,
0000
1001
0000
1001
,
0000
1000
0100
0001
,
0010
1000
0100
0001
,
0010
0010
0001
0100
,
1000
0010
0001
0100
,
1000
0001
1000
0001
,
1000
0001
0000
1001
,
0000
0010
0100
1000
,
0001
0100
0000
0010
,
1000
0001
0100
0010
,
0000
0200
0000
0000
,
0000
0000
0000
0000
,
0000
0000
0000
0300
,
0000
1001
0000
0010
,
0010
0010
0010
1000
,
1000
1000
1000
0001
,
0001
0001
0001
0100
,
0100
0100
0100
0010
,
1000
0010
1000
0010
,
0001
0010
0001
0100
,
1000
0001
0100
0010
,
0001
1000
0010
0100
,
1000
0001
0100
0100
,
0000
0010
0000
0100
,
0000
0010
0000
0100
,
0000
0001
1000
0001
,
1000
0110
0000
0000
;

//---------------dance-single - ANOTHER----------------
#NOTES:
     dance-single:
     ANOTHER:
     Medium:
     5:
     0.388,0.539,0.524,0.036,0.000,181.000,44.000,3.000,0.000,0.000:
0000
0000
0000
0000
,
0000
0000
0000
0000
,
0000
0000
0000
0000
,
0000
0000
0000
0000
,
0000
0000
0000
0000
,
0000
0010
0000
1000
,
0000
1000
0000
0001
,
0000
0010
0000
0100
,
0000
1000
0000
0100
,
0000
0001
0000
0001
,
0000
0010
0100
1001
,
0000
0100
0100
0000
0100
0200
0000
0300
,
0100
0001
1000
0001
,
0100
0010
1000
1000
,
0001
0001
0100
0010
,
1000
1000
0001
0001
,
0100
1000
0001
1000
,
0100
1000
0100
0001
,
1010
0011
1010
0011
,
1010
0011
1010
0011
,
0100
0010
0001
1000
,
0001
0010
0100
1000
,
1100
0101
1100
0101
,
1100
0101
1100
0101
,
0010
0100
0001
0010
,
0100
1000
0001
1000
,
1001
1001
0110
0110
,
1001
1001
0110
1001
,
0100
0010
0100
1000
,
0001
0001
1000
0010
,
1100
0011
1100
0011
,
1010
0101
1010
0101
,
1000
0001
0001
1000
,
0001
1000
0100
1001
,
1000
0001
0010
0100
,
1001
0001
1000
0100
,
1000
0100
0001
0100
,
0001
0000
0100
0000
0100
0000
0100
0100
,
0000
0000
0100
0100
0100
0000
0100
0100
,
0200
0000
0000
0300
,
1010
0011
0010
1000
,
0001
0100
1100
1000
,
0010
0001
0010
1000
,
0100
0101
1000
0001
,
0010
0100
1000
0001
,
0110
1000
0001
0001
,
0100
0010
0001
0011
,
0100
0010
0010
1000
,
0001
1010
0100
1000
,
0010
0001
0100
1000
,
0001
0100
1000
0001
,
0010
0000
0100
0000
2000
0000
0000
3000
,
0000
0010
0001
0000
1000
0100
0000
1001
,
0000
1001
0000
0000
;

//---------------dance-single - MANIAC----------------
#NOTES:
     dance-single:
     MANIAC:
     Hard:
     7:
     0.441,0.507,0.238,0.071,0.012,233.000,20.000,6.000,0.000,0.000:
0000
0000
0000
0000
,
0000
0000
0000
0000
,
0000
0000
0000
0000
,
0000
0000
0000
0000
,
0000
0000
0000
0000
,
0000
0000
1000
0100
0000
0000
1001
0000
,
0010
0100
0010
0100
,
1000
0001
1000
0001
,
0001
0010
1000
0100
,
0010
0000
0100
0000
0001
0000
1001
2002
,
0000
0000
0000
3003
,
0000
1000
0001
0010
0100
0001
1000
0000
,
1001
0000
0100
0100
0000
0000
1000
0000
,
0001
0000
0010
0100
0010
0000
0100
0000
,
1000
0000
0100
0010
0100
0000
0010
0000
,
0000
1000
2000
0000
0001
0002
0000
0000
,
3003
0000
0001
0000
1000
0000
0010
0001
,
0100
1000
1000
0001
,
1000
0001
0010
0100
1000
0001
0010
0100
,
0010
0001
1000
0100
0010
0001
1000
0100
,
0000
0000
0100
0000
0001
1000
0001
0000
,
1000
0001
1000
0000
0010
0000
0001
0000
,
1000
0001
0010
0100
1000
0001
0010
0100
,
0010
0001
1000
0100
0010
0001
1000
0100
,
0000
0000
1000
0000
0001
0000
0100
0010
,
0100
0010
0100
0000
0001
0000
1000
0000
,
0001
1000
0010
0100
0001
1000
0010
0100
,
1000
0001
0100
0010
1000
0001
0100
0010
,
0000
0000
0100
0000
1000
0000
0001
1000
,
0001
1000
0001
0000
0010
0000
0010
0000
,
0001
1000
0010
0100
0001
1000
0010
0100
,
1000
0001
0100
0010
1000
0001
0100
0010
,
0000
0010
1000
0001
,
0100
1000
0001
1001
,
1000
0010
0001
0100
,
0010
1000
1001
1000
,
0001
1000
0100
0010
,
1001
0000
1000
0000
0001
0000
1000
0001
,
0000
0000
0000
1000
0001
0000
0000
1000
,
0001
1000
0001
1000
0001
1000
0001
0000
,
0100
0100
0001
0001
,
1000
1000
0100
0100
,
0010
0010
0001
1000
,
0001
0000
1100
1100
0000
0000
0001
0000
,
1000
0100
0010
0100
,
1001
0001
0001
1000
,
1000
1001
0010
0110
,
0100
0100
0010
0010
,
0110
0100
1001
1000
,
0100
0001
0010
1000
,
0000
0000
1000
0000
1000
0000
1000
0000
0001
0000
0000
1000
0000
0000
0000
0000
,
0000
0000
0001
0000
0001
0000
0001
0000
1000
0000
0000
0001
0000
0000
0000
0000
,
0000
1001
1001
0000
0110
0110
0000
2002
,
0000
3003
1001
0000
0000
0000
0000
0000
;

//---------------dance-single - BEGINNER----------------
#NOTES:
     dance-single:
     BEGINNER:
     Beginner:
     2:
     0.163,0.252,0.131,0.012,0.000,84.000,11.000,1.000,0.000,0.000:
0000
0000
0000
0000
,
0000
0000
0000
0000
,
0000
0000
0000
0000
,
0000
0000
0000
0000
,
0000
0000
0000
0000
,
0110
0000
0000
0000
,
1000
0000
0000
0000
,
0001
0000
0000
0000
,
0010
0000
0000
0000
,
0100
0000
0000
0000
,
1001
0000
0000
0000
,
0000
0000
0000
0000
,
0010
0000
1000
0000
,
0100
0000
0001
0000
,
1000
0000
0010
0000
,
0010
0000
1000
0000
,
1000
0000
1000
0000
,
0001
0000
1000
0000
,
1000
0000
0000
1001
,
0000
0110
0000
1001
,
0000
1000
0001
0000
,
0001
0000
0100
0000
,
0001
0000
0010
0000
,
1000
0000
0001
0000
,
0010
0000
0001
0000
,
0100
0000
0001
0000
,
0000
0110
0000
0110
,
0000
1001
0000
1001
,
0000
1000
0100
0000
,
0010
0000
0100
0000
,
0010
0000
0001
0000
,
1000
0000
0001
0000
,
1000
0000
1000
0000
,
1000
0000
0000
1001
,
0000
0010
0100
0000
,
0001
0000
0000
0010
,
1000
0000
0100
0000
,
0200
0000
0000
0000
,
0000
0000
0000
0000
,
0000
0000
0300
0000
,
0000
1001
0000
0010
,
0010
0000
0010
0000
,
1000
0000
1000
0000
,
0001
0000
0001
0000
,
0100
0000
0100
0000
,
1000
0000
1000
0000
,
0001
0000
0001
0000
,
1000
0000
0100
0000
,
0001
0000
0010
0000
,
1000
0000
0100
0000
,
0000
0010
0000
0100
,
0000
0010
0000
0100
,
0000
0001
1000
0000
,
1000
0000
0000
0000
;
