#TITLE:VITAL UNITY;
#SUBTITLE:;
#ARTIST:Kita-Keru;
#TITLETRANSLIT:;
#SUBTITLETRANSLIT:;
#ARTISTTRANSLIT:;
#CREDIT:;
#BANNER:vitalunity-bn.bmp;
#BACKGROUND:vitalunity-bg.bmp;
#LYRICSPATH:;
#CDTITLE:;
#MUSIC:Vital Unity.mp3;
#OFFSET:-0.720;
#SAMPLESTART:0.720;
#SAMPLELENGTH:12.020;
#SELECTABLE:YES;
#DISPLAYBPM:666.000;
#BPMS:0.000=329.999,320.000=990.000,356.000=330.000;
#STOPS:;
#BGCHANGES:;
// cache tags:
#FIRSTBEAT:16.000;
#LASTBEAT:500.500;
#SONGFILENAME:Songs/StepMix 2/Vital Unity/Vital Unity.sm;
#HASMUSIC:1;
#HASBANNER:1;
#MUSICLENGTH:88.066;
// end cache tags

//---------------dance-single - ----------------
#NOTES:
     dance-single:
     :
     Challenge:
     13:
     1.000,1.000,0.647,0.238,0.000,684.000,57.000,21.000,284.000,21.000:
0000
0000
0000
0000
,
0000
0000
0000
0000
,
0000
0000
0000
0000
,
0000
0000
0000
0000
,
0001
0010
0001
0010
0100
0010
0100
0010
,
0100
1000
0100
1000
0100
0010
0100
0010
,
0001
0010
0100
1000
0001
0010
0100
1000
,
0001
0100
0010
1000
0001
0100
0010
1000
,
0100
0001
0100
1000
0100
0000
0001
0000
,
0001
0000
0010
1000
0010
0100
0010
1000
,
0001
0010
0001
1000
0001
0100
0001
1000
,
0001
0011
0011
1001
,
0010
0100
0010
0100
0001
1000
0001
1000
,
0001
0100
0001
0100
0001
0010
0001
0010
,
0002
2003
3020
0230
,
0302
0023
0230
1300
,
22MM
00MM
001M
00MM
,
00MM
00MM
00M1
00M1
,
00MM
00MM
001M
00MM
,
00MM
00M1
00MM
33M1
,
M000
00M0
0M00
000M
M2M2
0000
M0M0
0000
,
M0M0
M0M0
M010
M010
,
M0M0
M0M0
10M0
M0M0
,
M0M0
M010
M0M0
M313
,
000M
00M0
0M00
M000
0220
0000
M00M
0000
,
M00M
M00M
100M
100M
,
M00M
M00M
M001
M00M
,
M00M
100M
M00M
M331
,
M000
00M0
0M00
000M
MM22
0000
MM00
0000
,
MM00
MM00
M100
M100
,
MM00
MM00
1M00
MM00
,
MM00
M100
MM00
1M33
,
MM1M
MM1M
MM1M
MM1M
,
M1MM
M1MM
M1MM
M1MM
,
MMM1
MMM1
MMM1
MMM1
,
M1M1
1MM1
M1M1
1MM1
,
1MMM
1MMM
1MMM
1MMM
,
M1MM
M1MM
M1MM
M1MM
,
MMM1
MMM1
MMM1
MMM1
,
M11M
M1M1
M11M
M101
,
0001
0010
0001
0010
0001
0010
0001
0010
,
1000
0010
1000
0010
1000
0010
1000
0010
,
0100
0010
0100
0010
0100
0010
0100
0010
,
0001
0010
0100
1000
0001
0010
0100
1000
,
0010
1000
0010
1000
0010
1000
0010
1000
,
0010
0001
0010
0001
0010
0001
0010
0001
,
0010
0100
0010
0100
0010
0100
0010
0100
,
1000
0010
0100
0001
1000
0010
0100
0001
,
1000
0100
1000
0001
1000
0010
0100
0010
,
0001
1000
0100
0001
0100
0010
0100
1000
,
0001
0010
0001
1000
0001
0010
0001
0100
,
0101
1010
0011
1010
,
0010
1000
0001
1000
0010
1000
0010
0100
,
0001
0100
1000
0010
1000
0100
0001
0100
,
0001
0010
0100
1000
0001
0010
0100
1000
,
0001
0100
0010
1000
0001
0100
0010
1000
,
0001
0010
0001
0010
0100
0010
0100
0010
,
1000
0010
1000
0010
0100
0010
0100
0010
,
0001
0010
0001
0010
0100
1000
0100
0010
,
0110
0011
1001
0110
,
0001
1000
0010
0100
0001
1000
0010
0100
,
0001
1000
0100
0010
0100
0010
0001
0010
,
1000
0010
0100
0001
1000
0010
0100
0001
,
1000
0100
0010
0001
1000
0100
0010
0001
,
1000
0010
1000
0010
1000
0010
1000
0010
,
1010
0000
0110
0000
0001
0010
MMMM
0000
,
0100
0010
0100
0010
0100
0010
0100
0010
,
0110
0000
0001
0000
0010
1000
MMMM
0000
,
1000
0010
0001
0010
1000
0010
0001
0010
,
0011
0000
0100
0000
0001
0010
MMMM
0000
,
0001
1000
0010
0100
0001
0010
0100
1000
,
1100
0000
0001
0000
1010
0010
MMMM
0000
,
0010
0100
0001
0010
0100
1000
0010
0100
,
0110
0000
0011
0000
1100
10M0
MMMM
0000
,
0010
1000
0001
0010
0100
1000
0010
0100
,
0120
0000
0130
0000
0110
0100
MMMM
0000
,
1000
0010
1000
0010
0100
0010
0100
0010
,
0110
0000
1001
0000
0011
0001
MMMM
0000
,
1000
0010
0100
0001
1000
0010
0100
0001
,
0201
0000
0310
0000
0101
0100
MMMM
0000
,
22MM
0000
00MM
0000
,
00MM
0000
00MM
0000
,
00MM
0000
00MM
0000
,
00MM
0000
00MM
0000
,
00MM
0000
00MM
0000
,
00MM
0000
00MM
0000
,
00MM
0300
0M00
0000
0MMM
0000
0M00
0000
,
0MMM
0000
0M00
3000
MMMM
0000
MM00
0000
,
MMMM
MM00
MMMM
MMMM
,
0001
0010
0001
0010
0001
0010
0001
0010
,
0100
1000
0100
1000
0100
1000
0100
0010
,
0001
1000
0001
1000
0001
1000
0001
1000
,
0010
0100
0010
0100
0010
0100
0010
1000
,
0100
1000
0100
1000
0100
1000
0100
1000
,
0010
0100
0010
0100
0010
0100
0010
0001
,
0010
1000
0010
1000
0010
1000
0010
1000
,
0100
0010
0100
0010
0100
0010
0100
0001
,
0010
1000
0010
0000
1100
0000
1100
0000
,
0010
1000
0010
0000
0101
0000
1001
0000
,
0010
1000
0010
0000
0101
0000
0110
0000
,
0010
1000
0010
0000
1100
0000
0101
0000
,
0010
1000
0010
0000
0011
0000
1010
0000
,
0010
1000
0010
0000
1100
0000
0011
0000
,
0010
1000
0010
0000
0101
0000
0011
0000
,
1000
0010
0100
0000
0011
0000
1100
0000
,
0001
0010
0100
0010
1000
0010
0100
0010
,
0001
0010
0100
1000
0001
0010
0100
1000
,
0010
1000
0010
0100
0010
0001
0010
0100
,
1000
0100
0010
0001
1000
0100
0010
0001
,
0100
1000
0100
1000
0100
0010
0001
0010
,
0001
0010
0001
1000
0001
0010
0001
0100
,
0010
1000
0010
0100
0010
1000
0010
0100
,
0001
0010
0001
1000
0001
0010
0001
0100
,
1000
0100
1000
0100
0010
0100
0010
0100
,
0001
0100
0010
0100
0010
0100
1000
0100
,
1000
0100
0010
0001
1000
0100
0010
0001
,
1000
0010
0100
0001
1000
0010
0100
0001
,
0010
1000
0010
0100
0010
0001
0010
0100
,
0010
1000
0010
0001
0010
0100
0010
0001
,
0100
1000
0100
1000
0100
0010
0100
0010
,
1000
0010
1000
0001
1000
0010
1000
0010
,
0001
0010
0001
0010
0100
0010
0100
1000
,
0100
1000
0100
0010
0100
0010
0100
0001
,
0100
0010
1000
0001
0100
0010
1000
0001
,
1000
0100
0010
0001
1000
0100
0010
0001
,
2002
0000
3003
MMMM
0000
0000
0000
0000
0000
0000
0000
0000
0000
0000
0000
0000
0000
0000
0000
0000
0000
0000
0000
0000
;

//---------------dance-single - ----------------
#NOTES:
     dance-single:
     :
     Hard:
     10:
     1.000,1.000,0.136,1.000,0.000,598.000,12.000,92.000,0.000,0.000:
0000
0000
0000
0000
,
0000
0000
0000
0000
,
0000
0000
0000
0000
,
0000
0000
0000
0000
,
0100
0010
0100
0000
0010
0000
0100
0000
,
0010
1000
0010
1000
0010
0100
0010
0100
,
0020
0032
2003
3020
,
0230
0302
2003
3010
,
1000
0001
1000
0000
0010
0000
0100
0000
,
0001
0010
0001
0000
1000
0000
0010
0000
,
0100
0001
0100
0001
0100
0010
0100
0010
,
0100
0101
0001
1001
,
1000
0100
1000
0100
1000
0010
1000
0010
,
1000
0001
1000
0001
1000
0010
1000
0010
,
2000
3200
0320
0032
,
0023
0230
2300
3100
,
0220
0030
0002
0000
,
0000
0000
0003
0000
0020
0030
0020
0000
,
0000
0030
2000
0000
,
3000
0002
0003
0002
,
0303
0000
0220
0000
,
0000
0000
0300
0000
2000
3000
0002
0000
,
0000
0003
0200
0000
,
0300
0002
0003
2000
,
3030
0000
2200
0000
,
0000
0000
0300
0000
0020
0030
0020
0000
,
0000
0030
0002
0000
,
0003
0200
0300
0020
,
3030
0000
0202
0000
,
0000
0000
0300
0000
2000
3000
2000
0000
,
0000
3000
0200
0000
,
0300
0020
0030
0103
,
1000
0100
1000
0000
0010
0100
0010
0000
,
1000
0100
1000
0000
0001
0010
0001
0000
,
0100
0001
0100
0000
0010
0001
0010
0000
,
0001
0100
1000
0100
,
0001
0010
0001
0000
0100
0001
0100
0000
,
0001
0010
0001
0000
0100
1000
0100
0000
,
0010
0100
0010
0000
0001
1000
0001
0000
,
1000
0010
0001
0010
,
1000
0010
0100
0000
0010
1000
0010
0000
,
0100
0001
0100
0000
1000
0100
1000
0000
,
0010
0100
0010
0000
0001
0010
0001
0000
,
1000
0100
0001
0010
,
0001
0100
0010
0000
1000
0010
1000
0000
,
0100
0001
0100
0000
0010
0100
0010
0000
,
0001
0010
0001
0000
1000
0100
1000
0000
,
0001
0010
0100
1000
,
0001
0010
0001
0000
0010
0000
0100
0000
,
1000
0100
1000
0100
1000
0010
1000
0010
,
1000
0000
0100
0010
0100
0000
0001
0000
,
0200
2300
3200
0302
,
0013
0001
0010
0001
0010
0100
0010
0100
,
0010
1000
0010
1000
0010
0100
0010
0100
,
0002
0023
2030
3020
,
0032
0023
0230
1300
,
0001
0010
0001
0000
0100
0000
0010
0000
,
1000
0010
1000
0010
1000
0001
1000
0001
,
1000
0000
0010
0000
0001
0100
0001
0000
,
2000
3010
0020
0130
,
0001
0010
0001
0010
0001
0100
0001
0100
,
0002
2003
3020
0230
,
0302
0023
0230
2300
,
3020
0230
0302
1003
,
0100
0010
0100
0010
0100
0010
0100
0010
,
0100
0000
0001
0000
0001
0200
0000
0300
,
0100
0010
0100
0010
0100
0010
0100
0010
,
0100
0000
1000
0000
0010
0200
0000
0300
,
0001
1000
0001
1000
0001
1000
0001
1000
,
0001
0000
0100
0000
0010
2000
0000
3000
,
1000
0001
1000
0001
1000
0001
1000
0001
,
1000
0000
0010
0000
0100
0002
0000
0003
,
0010
0001
0010
0001
0010
0001
0010
0001
,
0010
0000
0100
0000
0001
2000
0000
3000
,
0001
0010
0001
0010
0001
0010
0001
0010
,
0001
0000
0010
0000
0100
2000
0000
3000
,
1000
0100
1000
0100
1000
0100
1000
0100
,
1000
0000
0100
0000
0010
0002
0000
0003
,
0100
1000
0100
1000
0100
1000
0100
1000
,
0100
0000
0001
0000
0010
2000
0000
3000
,
2002
0000
0000
0000
,
0000
0000
0000
0000
,
0000
0000
0000
0000
,
0000
0000
0000
0000
,
0000
0000
0000
0000
,
0000
0000
0000
0000
,
0000
0000
0000
0000
,
0000
0000
0000
0000
,
0000
0000
0000
3003
,
1000
0001
1000
0001
1000
0001
1000
0000
,
0010
0100
0010
0100
0010
0100
0010
0000
,
1000
0100
1000
0100
1000
0100
1000
0000
,
0010
0001
0010
0001
0010
0001
0010
0000
,
0001
0100
0001
0100
0001
0100
0001
0000
,
0010
1000
0010
1000
0010
1000
0010
0000
,
0100
0001
0100
0001
0100
0001
0100
0000
,
0010
0001
0010
0001
0010
0001
0010
0000
,
0100
0001
0100
0000
0010
0100
0010
0000
,
0100
0001
0100
0000
0010
1000
0010
0000
,
1000
0100
0010
0000
0001
0010
0100
0000
,
0010
0100
0001
0000
0010
0100
1000
0000
,
0001
0010
0001
0000
0100
0001
0100
0000
,
0010
0001
0010
0000
1000
0100
0010
0000
,
0001
0010
0100
0000
0100
0010
0001
0000
,
0001
0100
1000
0000
1000
0100
0001
0000
,
0001
0010
0100
1000
0001
0010
0100
1000
,
0001
0100
0010
1000
0001
0100
0010
1000
,
0001
1000
0010
0100
0001
1000
0010
0100
,
1000
0100
0010
0001
1000
0100
0010
0001
,
0010
0100
0010
1000
0010
0000
0100
0000
,
0001
0010
0100
1000
0100
0010
0001
0000
,
1000
0100
1000
0100
1000
0010
1000
0010
,
1000
1100
0100
0110
,
0010
0001
0010
0001
0010
0100
0010
0100
,
0010
1000
0010
1000
0010
0100
0010
0100
,
0020
0030
0022
0033
,
0002
0023
0230
2300
,
3001
0010
0001
1000
0001
0000
0100
0000
,
1000
0010
0100
0001
0010
0100
1000
0000
,
0100
0001
0100
0001
0100
0010
0100
0010
,
0100
0101
0001
1001
,
1000
0100
0010
0001
1000
0100
0010
0001
,
0010
0100
0001
1000
0010
0100
0001
1000
,
0002
0203
2300
3200
,
0302
0023
2030
3020
,
0200
0330
0000
0000
0000
0000
0000
0000
0000
0000
0000
0000
;

//---------------dance-single - ----------------
#NOTES:
     dance-single:
     :
     Medium:
     8:
     0.694,0.710,0.829,0.273,0.000,331.000,73.000,24.000,0.000,0.000:
0000
0000
0000
0000
,
0000
0000
0000
0000
,
0000
0000
0000
0000
,
0000
0000
0000
0000
,
0100
0010
0100
0001
,
0100
1000
0100
0010
,
0110
0000
1010
0000
,
0101
0000
1001
0000
,
1000
0100
0010
0001
,
0010
0000
1010
0000
,
1000
0010
0001
0010
,
1000
0100
1000
0100
,
0001
0010
0100
0010
,
0001
1000
0010
0100
,
0110
0000
1010
0000
,
1001
0000
0011
0000
,
1001
0000
2000
0000
,
0000
0000
0001
3002
,
0000
0000
0203
0000
,
0000
0010
0000
0310
,
0000
0000
2000
0000
,
0000
0000
0100
3200
,
0000
0000
0320
0000
,
0000
0001
0000
0031
,
0000
0000
1002
0000
,
0000
0000
0010
0023
,
0000
0000
0230
0000
,
0000
0001
0000
1300
,
0000
0000
1020
0000
,
0000
0000
0100
0230
,
0000
0000
0302
0000
,
0000
1000
0000
0103
,
0101
0000
1001
0000
,
1100
0000
1001
0000
,
0101
0000
1001
0000
,
1000
0010
0100
0001
,
1001
0000
0011
0000
,
1001
0000
1010
0000
,
1001
0000
0011
0000
,
0001
0010
0100
1000
,
1001
0000
0110
0000
,
1001
0000
0110
0000
,
1001
0000
0110
0000
,
0010
1000
0010
0100
,
0110
0000
0011
0000
,
0110
0000
1100
0000
,
0110
0000
0011
0000
,
0001
0100
1000
0100
,
0001
0010
0100
0010
,
0001
0000
1001
0000
,
1000
0100
0010
0001
,
0010
0010
0010
0010
,
1000
0010
0001
0010
,
1000
0100
0001
0100
,
1100
0000
0101
0000
,
1100
0000
0101
0000
,
0001
0010
0100
1000
,
0001
0000
1001
0000
,
1000
0001
0100
0010
,
1000
1000
1000
1000
,
0010
0100
0001
0010
,
0100
1000
0100
0010
,
0011
0000
1001
0000
,
0011
0000
1001
0000
,
0100
0100
0100
0100
,
0100
0000
0001
0000
0100
0001
0000
0000
,
0100
0100
0100
0100
,
0100
0000
1000
0000
0100
1000
0000
0000
,
0010
0010
0010
0010
,
0010
0000
0001
0000
0010
0001
0000
0000
,
0010
0010
0010
0010
,
0010
0000
1000
0000
0010
1000
0000
0000
,
0001
0001
0001
0001
,
0001
0000
0100
0000
0001
0100
0000
0000
,
0001
0001
0001
0001
,
0001
0000
1000
0000
0001
1000
0000
0000
,
1000
1000
1000
1000
,
1000
0000
0001
0000
1000
0001
0000
0000
,
1000
1000
1000
1000
,
1000
0000
0010
0000
1000
0010
0000
0000
,
0022
0000
0000
0000
,
0000
0000
0000
0000
,
0000
0000
0000
0000
,
0000
0000
0000
0000
,
0000
0000
0000
0000
,
0000
0000
0000
0000
,
0000
0000
0000
0000
,
0033
0000
0000
0000
,
0000
0000
0000
0000
,
1000
0010
1000
0010
,
0100
0001
0100
0001
,
0100
0010
0100
0010
,
1000
0001
1000
0001
,
0100
1000
0100
1000
,
0010
1000
0010
1000
,
0100
0010
0100
0010
,
1000
0001
1000
0001
,
1002
0000
1003
0000
,
2001
0000
3001
0000
,
0120
0000
0130
0000
,
0210
0000
0310
0000
,
0012
0000
0013
0000
,
0021
0000
0031
0000
,
1020
0000
1030
0000
,
1200
0000
1300
0000
,
1100
0000
1100
0000
,
0011
0000
0011
0000
,
1010
0000
1010
0000
,
0101
0000
0101
0000
,
0001
0010
1000
0010
,
0001
0000
1001
0000
,
1000
0010
0100
0001
,
0010
0010
0010
0010
,
0010
0100
0001
0100
,
0010
1000
0100
0010
,
0011
0000
1001
0000
,
1100
0000
1001
0000
,
1000
0100
1000
0001
,
1000
0010
1000
0100
,
1000
0010
0100
0001
,
1000
1000
1000
1000
,
1000
0001
0010
0100
,
0010
0100
1000
0001
,
1001
0000
0011
0000
,
1010
0000
0011
0000
,
2002
3003
0000
0000
0000
0000
0000
0000
0000
0000
0000
0000
;

//---------------dance-single - ----------------
#NOTES:
     dance-single:
     :
     Beginner:
     4:
     0.258,0.497,0.079,0.148,0.000,139.000,7.000,13.000,0.000,0.000:
0000
0000
0000
0000
,
0000
0000
0000
0000
,
0000
0000
0000
0000
,
0000
0000
0000
0000
,
0100
0000
0000
0000
,
0100
0000
0000
0000
,
0010
0000
0010
0000
,
0010
0000
0010
0000
,
0010
0000
0000
0000
,
1000
0000
0000
0000
,
0010
0000
0000
0000
,
0200
0000
0000
0300
,
0100
0000
0000
0000
,
0001
0000
0000
0000
,
0010
0000
0010
0000
,
0010
0000
0010
0000
,
0010
0000
1000
0000
,
0000
0000
0001
0000
,
0000
0000
1000
0000
,
0000
0001
0000
1000
,
0000
0000
0010
0000
,
0000
0000
0100
0000
,
0000
0000
0010
0000
,
0000
0100
0000
0010
,
0000
0000
0001
0000
,
0000
0000
1000
0000
,
0000
0000
0001
0000
,
0000
1000
0000
0001
,
0000
0000
0100
0000
,
0000
0000
0010
0000
,
0000
0000
0100
0000
,
0000
0010
0000
0100
,
0010
0000
0000
0000
,
0010
0000
0000
0000
,
0010
0000
0000
0000
,
1000
0000
1000
0000
,
1000
0000
0000
0000
,
1000
0000
0000
0000
,
1000
0000
0000
0000
,
0001
0000
0001
0000
,
0001
0000
0000
0000
,
0001
0000
0000
0000
,
0001
0000
0000
0000
,
0100
0000
0100
0000
,
0100
0000
0000
0000
,
0100
0000
0000
0000
,
0100
0000
0000
0000
,
1001
0000
1001
0000
,
1001
0000
0000
0000
,
0001
0000
0000
0000
,
0100
0000
0000
0000
,
0010
0000
0010
0000
,
0010
0000
0000
0000
,
0100
0000
0000
0000
,
1000
0000
1000
0000
,
1000
0000
1000
0000
,
1000
0000
0000
0000
,
0010
0000
0000
0000
,
0100
0000
0000
0000
,
0001
0000
0001
0000
,
0001
0000
0000
0000
,
1000
0000
0000
0000
,
0010
0000
0010
0000
,
0010
0000
0010
0000
,
0010
0000
0000
0000
,
0100
0000
0000
0000
,
0001
0000
0000
0000
,
1000
0000
0000
0000
,
1000
0000
0000
0000
,
0100
0000
0000
0000
,
0010
0000
0000
0000
,
0001
0000
0000
0000
,
0010
0000
0000
0000
,
1000
0000
0000
0000
,
0100
0000
0000
0000
,
0010
0000
0000
0000
,
0001
0000
0000
0000
,
0100
0000
0000
0000
,
0010
0000
0000
0000
,
1000
0000
0000
0000
,
2002
0000
0000
0000
,
0000
0000
0000
0000
,
3003
0000
0000
0000
,
0000
0000
0000
0000
,
0000
0000
0000
0000
,
0000
0000
0000
0000
,
0000
0000
0000
0000
,
0000
0000
0000
0000
,
0000
0000
0000
0000
,
1000
0000
0000
0000
,
1000
0000
0000
0000
,
0001
0000
0000
0000
,
0001
0000
0000
0000
,
0010
0000
0000
0000
,
0010
0000
0000
0000
,
0100
0000
0000
0000
,
0100
0000
0000
0000
,
0020
0000
0030
0000
,
0020
0000
0030
0000
,
0200
0000
0300
0000
,
0200
0000
0300
0000
,
0002
0000
0003
0000
,
0002
0000
0003
0000
,
2000
0000
3000
0000
,
2000
0000
3000
0000
,
1001
0000
0000
0000
,
0001
0000
0000
0000
,
0100
0000
0000
0000
,
0110
0000
0000
0000
,
1000
0000
0000
0000
,
0010
0000
0000
0000
,
0100
0000
0000
0000
,
0001
0000
0001
0000
,
0001
0000
0000
0000
,
0010
0000
0000
0000
,
0100
0000
0010
0000
,
0100
0000
0010
0000
,
0100
0000
0000
0000
,
0001
0000
0000
0000
,
1000
0000
0000
0000
,
0010
0000
1000
0000
,
0100
0000
0000
0000
,
0001
0000
0000
0000
,
1000
0000
0001
0000
,
1000
0000
0001
0000
,
2002
3003
0000
0000
0000
0000
0000
0000
0000
0000
0000
0000
;

//---------------dance-single - ----------------
#NOTES:
     dance-single:
     :
     Easy:
     6:
     0.488,0.710,0.466,0.352,0.000,229.000,41.000,31.000,0.000,0.000:
0000
0000
0000
0000
,
0000
0000
0000
0000
,
0000
0000
0000
0000
,
0000
0000
0000
0000
,
0100
0000
0001
0000
,
0100
0000
1000
0000
,
0200
0000
0302
0000
,
0023
0000
2030
0000
,
3001
0000
0010
0000
,
0100
0000
0010
0000
,
0001
0000
1000
0000
,
0020
0000
0100
0000
,
0130
0000
0001
0000
,
0010
0000
1000
0000
,
2000
0000
3200
0000
,
0320
0000
0032
0000
,
1003
0000
0100
0000
,
0000
0000
0010
0010
,
0000
0000
0100
0000
,
0000
0101
0000
0101
,
0000
0000
1000
0000
,
0000
0000
0001
0001
,
0000
0000
0100
0000
,
0000
1010
0000
1010
,
0000
0000
0010
0000
,
0000
0000
0100
0100
,
0000
0000
0001
0000
,
0000
1001
0000
1001
,
0000
0000
0010
0000
,
0000
0000
1000
1000
,
0000
0000
0001
0000
,
0000
0110
0000
0010
,
1000
0000
1000
0000
,
0001
0000
0001
0000
,
0100
0000
0100
0000
,
1000
0001
1000
0001
,
1000
0000
1000
0000
,
0010
0000
0010
0000
,
0100
0000
0100
0000
,
0001
1000
0001
1000
,
0001
0000
0001
0000
,
0010
0000
0010
0000
,
1000
0000
1000
0000
,
0100
0010
0100
0010
,
0100
0000
0100
0000
,
0010
0000
0010
0000
,
1000
0000
1000
0000
,
0010
0100
0010
0100
,
0010
0000
1000
0000
,
0001
0000
0100
0000
,
0010
0000
0001
0000
,
0020
0000
0001
0000
,
0031
0000
0010
0000
,
1000
0000
0010
0000
,
0011
0000
1010
0000
,
0011
0000
1010
0000
,
0011
0000
0001
0000
,
0100
0000
1000
0000
,
0100
0000
0001
0000
,
0020
0000
1000
0000
,
1030
0000
0100
0000
,
0010
0000
0001
0000
,
1001
0000
0101
0000
,
1100
0000
0101
0000
,
1000
0100
1000
0100
,
1000
0000
0010
0000
,
0001
0100
0001
0100
,
0001
0000
0010
0000
,
1000
0001
1000
0001
,
1000
0000
0100
0000
,
0010
0100
0010
0100
,
0010
0000
0100
0000
,
0001
0010
0100
1000
,
0001
0000
0100
0000
,
1000
0010
0100
0001
,
1000
0000
0010
0000
,
0010
0001
0010
1000
,
0010
0000
0100
0000
,
0100
1000
0100
0001
,
0100
0000
0010
0000
,
2002
0000
0000
0000
,
0000
0000
0000
0000
,
0000
0000
0000
0000
,
0000
0000
0000
0000
,
0000
0000
0000
0000
,
0000
0000
0000
0000
,
0000
0000
0000
0000
,
3003
0000
0000
0000
,
0000
0000
0000
0000
,
1000
0000
0000
0000
,
0001
0000
0000
0000
,
0100
0000
0000
0000
,
0010
0000
0000
0000
,
1000
0000
0000
0000
,
0100
0000
0000
0000
,
0010
0000
0000
0000
,
0001
0000
0000
0000
,
1001
0000
0101
0000
,
1001
0000
0101
0000
,
1001
0000
1100
0000
,
1001
0000
1100
0000
,
0110
0000
0011
0000
,
0110
0000
0011
0000
,
0110
0000
1010
0000
,
0110
0000
1010
0000
,
2002
0000
0000
3003
,
0202
0000
0000
0303
,
0022
0000
0000
0033
,
0220
0000
0000
0330
,
0100
0000
0010
0000
,
1000
0000
0001
0000
,
0100
0000
1000
0000
,
0202
0000
0000
0303
,
0001
0000
0010
0000
,
0100
0000
1000
0000
,
0200
0000
0301
0000
,
0200
0000
2300
0000
,
3100
0000
0010
0000
,
0001
0000
1000
0000
,
0100
0000
0010
0000
,
2020
0000
0000
3030
,
1000
0000
0010
0000
,
0100
0000
0001
0000
,
2010
0000
0010
0000
,
0100
0000
3100
0000
,
2002
3003
0000
0000
0000
0000
0000
0000
0000
0000
0000
0000
;
