#TITLE:Super Trouper;
#SUBTITLE:;
#ARTIST:A-Teens;
#TITLETRANSLIT:;
#SUBTITLETRANSLIT:;
#ARTISTTRANSLIT:;
#CREDIT:Plaguefox (gamecast.org/plaguemix);
#BANNER:supertrouper-bn.png;
#BACKGROUND:supertrouper-bg.png;
#LYRICSPATH:;
#CDTITLE:pm1cd.png;
#MUSIC:supertrouper.ogg;
#OFFSET:0.000;
#SAMPLESTART:29.295;
#SAMPLELENGTH:15.499;
#SELECTABLE:YES;
#BPMS:0.000=125.008;
#STOPS:;
#BGCHANGES:;
// cache tags:
#FIRSTBEAT:17.000;
#LASTBEAT:213.000;
#SONGFILENAME:Songs/Plaguemix Series/Super Trouper/supertrouper.sm;
#HASMUSIC:1;
#HASBANNER:1;
#MUSICLENGTH:104.647;
// end cache tags

//---------------dance-single - LIGHT----------------
#NOTES:
     dance-single:
     LIGHT:
     Easy:
     3:
     0.224,0.254,0.057,0.076,0.000,150.000,6.000,8.000,0.000,0.000:
0000
0000
0000
0000
,
0000
0000
0000
0000
,
0000
0000
0000
0000
,
0000
0000
0000
0000
,
0000
1000
0000
0001
,
0000
1000
0000
0000
,
0000
0001
0100
0001
,
0001
1000
0000
1000
,
0000
0010
0000
0010
,
0000
0001
0000
0001
,
0000
0100
0000
0100
,
0000
1000
0000
1000
,
0000
0100
0000
0100
,
0000
0001
0000
0001
,
0000
0010
0010
0010
,
0000
0100
0100
0100
,
0100
0020
0000
0000
,
0030
0001
0001
0001
,
0001
0100
0000
0100
,
0000
0010
0010
0010
,
0010
2000
0000
0000
,
3000
0100
0100
0100
,
0100
0010
0000
0010
,
0000
1000
1000
1000
,
1000
0010
0010
0010
,
0010
0001
0001
0001
,
0001
0100
0100
0100
,
0100
1000
1000
0100
,
0100
0001
0001
0010
,
0010
0000
0220
0000
0000
0000
0000
0330
,
0000
1001
0110
1001
,
0000
1000
0000
1000
,
0000
0001
0100
1000
,
0100
0001
0000
0001
,
0000
2000
0000
0000
,
3000
0100
0010
1000
,
0001
0200
0000
0000
,
0300
0100
0010
0001
,
1000
0220
0000
0000
,
0330
1000
0001
1000
,
0001
1000
0100
0001
,
0100
0001
1000
0001
,
1000
0001
0010
1000
,
0010
0010
0100
0010
,
0100
0010
1000
0001
,
0100
0100
0010
0100
,
0010
0110
0001
1000
,
0001
1000
0100
0001
,
0100
0001
1000
0001
,
1000
0001
0010
1000
,
0010
0010
0100
0010
,
0100
0010
1000
0001
,
0100
0100
0010
0100
,
0010
0100
0000
0000
;

//---------------dance-single - STANDARD----------------
#NOTES:
     dance-single:
     STANDARD:
     Medium:
     4:
     0.310,0.356,0.201,0.115,0.000,194.000,21.000,12.000,0.000,0.000:




0000
0000
0000
0000
,
0000
0000
0000
0000
,
0000
0000
0000
0000
,
0000
0000
0000
0000
,
0000
0001
0001
0100
,
0100
0001
0000
0000
,
0000
1000
0100
1000
,
1000
0100
1001
0010
,
1001
0100
1001
0010
,
1001
1000
1100
0001
,
0101
1000
1100
0001
,
0101
0001
0011
1000
,
1010
0001
0011
1000
,
1010
0010
1001
0100
,
1001
0110
1001
0110
,
1001
0100
0100
0100
,
0010
0100
0020
0000
0000
0000
0000
0000
,
0031
1000
0001
0000
0001
0000
0001
0000
,
0001
0100
0000
0100
,
0000
0000
0010
0000
0010
0000
0010
0100
,
0001
0010
2000
0000
0000
0000
0000
0000
,
3100
0010
0100
0000
0100
0000
0100
0000
,
0100
0010
0000
0010
,
0000
1000
1000
1000
,
1000
0000
0010
0100
0001
0100
0010
0100
,
0001
1000
1000
1000
,
1000
0100
0000
0100
,
0100
1000
1000
0100
,
0100
0000
0001
0010
0100
1000
0010
1000
,
0100
0010
0000
2002
0000
0000
0000
0000
,
0000
0000
3003
0000
,
0000
1000
1000
0001
,
1000
0000
0001
1000
0001
0100
0001
0000
,
1000
0001
0001
0001
,
1000
2000
0000
0000
,
3000
0100
0010
1000
,
0001
0200
0000
0000
,
0300
0000
0100
0010
0100
0001
1000
0000
,
0001
0000
0220
0000
0000
0330
1001
0000
,
0000
1000
0001
1000
,
0001
0000
1000
0100
0001
0100
1000
0000
,
0001
0001
1000
0001
,
1000
0002
0010
0010
,
0013
1000
0001
1000
,
0001
2000
0010
0010
,
3010
0000
1000
0100
0001
0100
1000
0000
,
0010
1000
0001
1000
,
0001
0000
1000
0100
0001
0100
1000
0000
,
0001
0001
1000
0001
,
1000
0002
0010
0010
,
0013
1000
0001
1000
,
0001
2000
0010
0010
,
3010
0000
1000
0100
0001
0100
1000
0000
,
0010
0100
0000
0000;

//---------------dance-single - HEAVY----------------
#NOTES:
     dance-single:
     HEAVY:
     Hard:
     6:
     0.374,0.433,0.153,0.096,0.076,248.000,16.000,10.000,0.000,0.000:
0000
0000
0000
0000
,
0000
0000
0000
0000
,
0000
0000
0000
0000
,
0000
0000
0000
0000
,
0000
0001
0010
0001
,
1000
0100
0000
0000
,
0000
0010
0001
0010
0100
1000
0001
0000
,
0100
0000
0000
0000
0001
0000
1000
0000
0100
0000
0010
0000
0001
0000
0010
0001
,
0000
0010
0001
0000
0000
0000
1000
0000
0100
0000
0010
0000
0001
0000
0010
0001
,
0000
0010
0001
0000
0000
0000
0100
0000
0001
0000
1000
0000
0010
0000
1000
0010
,
0000
1000
0010
0000
0000
0000
0100
0000
0001
0000
1000
0000
0010
0000
1000
0010
,
0000
1000
0010
0000
0000
0000
0010
0000
1000
0000
0001
0000
0100
0000
0001
0100
,
0000
0001
0100
0000
0000
0000
0010
0000
1000
0000
0001
0000
0100
0000
0001
0100
,
0000
0001
0100
0000
0000
0000
0001
0000
0010
0000
0100
0000
1000
0000
0100
1000
,
0000
0100
1000
0000
0000
0000
0001
0000
0010
0000
0100
0000
1000
0000
0100
1000
,
0000
0100
1000
0000
0001
0000
1000
0000
0100
0000
0010
0000
0100
0000
1000
0000
,
0001
0100
0001
0000
0000
0000
0000
0010
,
0001
0100
0000
0010
0100
0000
0001
0000
,
0100
1001
0000
1001
,
0000
0000
1000
0001
0100
0010
0100
0001
,
1000
0100
1000
0000
0000
0000
0000
0010
,
1000
0100
0000
0010
0100
0000
1000
0000
,
0100
1001
0000
1001
,
0000
0000
0000
0000
1000
0001
1000
0001
,
1000
0100
1000
0100
1000
0001
0100
0001
,
0000
0000
0000
0000
0001
1000
0001
0100
,
0001
1000
0001
0000
0000
0000
0000
0000
,
0000
0000
0000
0000
0100
1000
0001
0010
,
0001
0010
0001
0010
0100
1000
0010
1000
,
0100
0010
0000
2002
0000
0000
0000
0000
,
0000
0000
3003
0000
,
0000
1001
1001
1100
,
1100
0000
0010
0001
0100
0001
0010
0000
,
1100
0001
1000
0001
,
0100
0002
0000
0000
,
0003
1000
0001
1000
,
0100
2000
0000
0000
,
3000
0000
0010
1000
0100
1000
0010
0000
,
0100
0220
0330
1001
,
0000
1000
0001
1000
,
0001
0000
1000
0100
0001
0100
1000
0000
,
0001
0001
1000
0001
,
1000
0000
1002
1000
1000
0000
0100
0100
,
0103
1000
0001
1000
,
0001
0000
2001
0001
0001
0000
0100
0100
,
3100
0000
1000
0100
0001
0100
1000
0000
,
0010
1000
0001
1000
,
0001
0000
1000
0100
0001
0100
1000
0000
,
0001
0001
1000
0001
,
1000
0000
0102
0100
0100
0000
1000
1000
,
1003
1000
0001
1000
,
0001
0000
2100
0100
0100
0000
0001
0001
,
3001
0000
1000
0100
0001
0100
1000
0000
,
0010
0100
0000
0000
;
