#TITLE:Hellsing;
#SUBTITLE:- Vater Unser [AMV 2002];
#ARTIST:E Nomine;
#TITLETRANSLIT:;
#SUBTITLETRANSLIT:;
#ARTISTTRANSLIT:;
#CREDIT:Anime Toshokan;
#BANNER:Hellsing - Vater Unser [AMV 2002].png;
#BACKGROUND:Hellsing - Vater Unser [AMV 2002] bg.png;
#LYRICSPATH:;
#CDTITLE:dejiko.png;
#MUSIC:Hellsing - Vater Unser [AMV 2002].mp3;
#OFFSET:-1.338;
#SAMPLESTART:61.720;
#SAMPLELENGTH:14.800;
#SELECTABLE:YES;
#BPMS:0.000=129.990,27.000=148.630,35.000=129.990,226.000=65.000;
#STOPS:66.000=0.461
,96.000=0.462
;
#BGCHANGES:;
// cache tags:
#FIRSTBEAT:4.000;
#LASTBEAT:239.750;
#SONGFILENAME:Songs/DDR Anime 5th Mix/Hellsing - Vater Unser [AMV 2002]/Hellsing - Vater Unser [AMV 2002].sm;
#HASMUSIC:1;
#HASBANNER:1;
#MUSICLENGTH:122.357;
// end cache tags

//---------------dance-single - BASIC----------------
#NOTES:
     dance-single:
     BASIC:
     Easy:
     4:
     0.253,0.269,0.057,0.049,0.008,204.000,7.000,6.000,0.000,0.000:
0000
0000
0000
0000
,
1000
0000
1000
0000
0000
0100
0000
0100
,
0000
0010
0010
0000
,
0001
0000
0001
0000
0000
1000
0000
1000
,
0000
0100
0100
0000
,
0001
0000
1000
0000
0000
0001
0000
1000
,
0000
1000
0001
2002
,
0000
0000
0000
0000
,
0000
0000
0000
3003
,
0000
0100
0100
1000
,
1000
0000
0001
0010
,
0010
0001
0001
1000
,
1000
0000
0100
0010
,
0010
1000
1000
0001
,
0100
0000
0100
1000
,
0010
0010
0010
1000
,
0010
0000
0000
0010
,
0000
1000
0000
0010
,
0000
0010
0001
0001
,
0000
1000
0000
1000
,
0000
0010
1000
0010
,
0000
0100
0000
1000
,
0000
0001
1000
0001
,
0000
0010
0000
0100
,
0010
1000
0100
1000
,
1000
0001
0010
0010
,
0001
0001
0000
0001
,
0001
1000
0100
0100
,
0010
0001
0000
0010
,
0010
1000
0100
0100
,
0010
1000
0000
1000
,
0010
0000
0000
0000
0100
0000
0000
0000
0001
0000
0000
0000
2000
0000
0000
0002
,
0000
3003
0000
0010
,
0010
1000
1000
0001
,
0001
0100
0100
1000
,
0001
1000
0001
0010
,
0100
0010
0100
1001
,
1001
1000
0010
0001
,
1000
0100
0010
0110
,
0110
1000
0001
0010
,
0100
0000
0000
1000
,
1000
0010
0001
0010
,
1000
0010
0001
0010
,
1000
0100
0010
0001
,
0010
0100
1000
1001
,
1000
0001
0100
0010
,
1000
0001
0100
0010
,
1000
0010
0001
1001
,
0000
0000
0000
0000
1000
0010
1000
0000
,
0001
0000
0001
0000
0010
0100
0010
0000
,
0100
0000
0100
0000
0001
0100
0001
0000
,
1000
0000
1000
0000
0001
0010
0001
0000
,
0100
0000
1000
0010
,
0100
0000
0010
1000
0001
0000
0010
0000
,
1000
0000
0010
1000
0100
0000
0001
0000
,
0100
0000
0100
0001
0010
0000
0100
0000
,
1000
0001
0100
0000
0010
0000
0001
0000
,
1000
0100
0010
0100
,
0010
0001
1000
0010
,
0100
0000
0000
0000
0010
0000
0000
0000
0020
0200
0000
0000
0000
0000
0330
0000
;

//---------------dance-single - ANOTHER----------------
#NOTES:
     dance-single:
     ANOTHER:
     Medium:
     7:
     0.350,0.391,0.131,0.033,0.004,280.000,16.000,4.000,0.000,0.000:
0000
0000
0000
0000
,
1000
0000
1000
0000
0000
0100
0000
0100
,
0000
0010
0010
0000
,
0001
0000
0001
0000
0001
1000
0000
1000
,
0000
1000
0100
0000
0010
0000
0000
0000
,
0001
0000
1000
0000
1000
0001
0000
1000
,
0000
0001
1000
0000
0001
0000
2002
0000
,
0000
0000
0000
0000
,
0000
0000
0000
3003
,
1001
0000
0100
0000
0100
0000
1000
0001
,
1000
0000
0001
0000
0001
0000
0010
0100
,
0010
0000
0001
0000
0001
0000
1000
0001
,
1000
0000
0100
0000
0100
0000
0010
0100
,
0010
0000
1000
0000
1000
0000
0001
0010
,
0100
0000
0100
0000
0100
0000
1000
0001
,
0010
0000
0010
0000
0010
0000
1000
0100
,
0010
0000
1000
0000
0000
0100
0010
0000
,
0000
0100
0010
0000
0000
0100
0010
0000
,
0010
0000
0100
0000
0001
1000
0001
0000
,
1000
0001
1000
0000
1000
0001
1000
0000
,
1000
0000
0010
0000
1000
0100
0010
0000
,
0010
0100
0001
0000
1000
0100
0010
0000
,
1000
0000
0001
0000
0000
0100
0001
0000
,
0000
0100
0001
0000
0000
0100
1000
0000
,
0100
0000
0000
0001
0100
0000
1000
0000
,
1000
0000
0000
0010
0000
0010
0000
0000
,
0001
0000
0001
0100
1000
0000
0001
0000
,
0001
0000
0000
0010
0000
0010
0000
0000
,
1000
0000
0001
0100
1000
0000
0010
0000
,
0010
0000
1000
0001
0000
0100
0000
0100
,
0010
0000
1000
0001
0100
0000
1000
0000
,
0010
0000
0100
0001
0000
0000
0001
0010
,
0100
0000
0100
0010
0001
0000
0010
0000
,
0010
0000
1000
0001
1000
0000
0001
0000
,
0001
0000
0100
0010
0100
0000
1000
0000
,
0001
0000
1000
0010
0100
0000
1000
0000
,
1000
0000
0100
0001
0010
0000
1010
0000
,
1001
0000
1000
0100
0001
0000
0011
0000
,
1001
0000
0001
0100
1000
0000
1100
0000
,
0011
0000
0100
0010
0100
0000
0101
0000
,
1010
0000
0010
0100
0010
0000
1000
0000
,
0001
0000
1000
0001
1001
0000
0100
0000
,
0001
0000
0100
1000
1010
0000
0100
0000
,
0100
0000
0010
0001
0110
0000
0001
0000
,
1000
0000
0001
0100
0110
0000
0010
0000
,
0001
0000
1000
0010
0101
0000
0100
0000
,
1000
0000
0100
0001
0011
0000
0001
0000
,
1000
0000
0001
1000
0000
0000
0100
0000
,
1000
0000
0010
1000
0001
0000
0100
1000
,
0001
0000
0001
0100
0010
0000
1000
0100
,
0010
0000
1000
0001
0100
0000
0001
0010
,
0100
0000
1000
0001
0010
0000
0001
1000
,
0010
0000
0010
0000
1000
0001
0010
0000
,
1000
0001
0010
0000
1000
0001
0010
0000
,
1000
0001
0010
0000
1000
0001
0100
0000
,
1000
0001
0100
0000
1000
0001
0100
0000
,
1000
0001
0100
0000
0010
1000
0001
0000
,
1000
0001
0100
0000
0010
1000
0100
0000
,
0010
0001
0100
0000
0100
1000
0010
0000
,
0100
0000
0001
0000
0010
0000
0000
0000
0020
0200
0000
0000
0000
0000
0330
0000
;

//---------------dance-single - MANIAC----------------
#NOTES:
     dance-single:
     MANIAC:
     Hard:
     8:
     0.495,0.539,0.327,0.425,0.106,332.000,40.000,52.000,0.000,0.000:
0000
0000
0000
0000
,
1000
0000
1000
0000
1000
0100
0000
0100
,
0000
0100
0010
0000
0010
0001
0110
0000
,
0001
0000
0001
0000
0001
1000
0000
1000
,
0000
1000
0100
0000
0010
0100
1010
0000
,
0001
0000
1000
0000
1000
0001
0000
1000
,
0000
0001
1000
0000
0001
0010
0001
0100
,
0001
0000
0000
0100
0000
0000
0000
0000
0000
0001
0000
0000
0000
0000
0000
0000
0000
0000
1000
0000
0000
0000
0000
0000
0000
0000
0000
0001
0000
0000
0000
0000
0000
0000
0000
0100
0000
0000
0000
0000
0000
0000
0010
0000
0000
0000
0000
0000
,
0000
0000
1000
0000
0000
0000
0000
0000
0000
0000
0000
0001
0000
0000
0100
0000
0000
0000
0000
0000
0000
0010
0000
0000
0000
0000
0000
0000
0000
0000
1000
0000
0000
0000
0000
0000
0000
0000
0000
0000
0000
0000
0001
0000
0000
0000
0000
1000
,
0000
0001
0100
0000
0100
0000
1000
0001
,
1000
0100
0000
0100
0001
0000
0010
0100
,
0110
0000
0001
0000
0002
0000
1003
0100
,
0000
0100
0000
0001
0100
0000
0010
0100
,
0010
0000
1000
0000
1000
0000
0001
0010
,
0100
0100
0000
0010
0100
0000
1000
0001
,
0010
0000
0010
0000
0020
0000
1030
0100
,
0000
0000
0001
0000
0000
0100
0010
0000
,
0010
0100
0010
0000
0010
0100
0010
0000
,
0010
1000
0001
1000
0001
1000
0001
0000
,
1000
0001
1000
0000
1000
0001
1000
0000
,
1000
0100
0010
0001
1000
0100
0010
0000
,
0010
0100
0001
0000
1000
0100
0010
0000
,
1000
0100
0001
0010
1000
0100
0001
0000
,
1000
0100
0001
0000
0001
0100
1000
0000
,
0100
0010
1000
0001
0100
0000
1000
0000
,
1000
0000
0001
0010
0000
0010
0000
0010
,
0001
0000
0001
0100
1000
0000
0001
0000
,
0001
0000
1000
0010
0000
0010
0000
0010
,
1000
0000
0001
0100
1000
0000
0010
0000
,
0010
0000
1000
0001
0000
0100
0000
0100
,
0010
0000
1000
0001
0100
0000
1000
0000
,
0010
0000
0000
0000
0100
0000
0001
0000
0000
0000
0000
0000
0002
0003
0020
0030
,
0200
0300
2000
3000
0200
0300
0020
0030
0002
0003
0000
0000
0010
0000
0000
0000
,
0020
0000
1030
0001
1000
0010
0000
0010
,
0001
0000
0100
0010
0100
0000
2000
0000
,
3002
0003
1000
0010
0000
0010
0000
0001
,
1000
0000
0100
0001
0010
0000
2020
3030
,
2002
3003
1000
0100
0001
0001
0000
0010
,
1001
0000
0001
0100
1000
0000
2200
3300
,
0022
0033
0100
0010
0000
0010
0000
0100
,
0010
1000
0001
0100
0010
0000
2200
3300
,
0022
0033
1010
0001
1001
0100
0000
0100
,
0001
0000
0101
1000
1001
0000
0220
0330
,
0202
0303
0110
0001
0000
0001
0000
0010
,
1100
0000
1000
0100
0110
0000
2020
3030
,
2002
3003
1010
0100
0101
0010
0000
0010
,
1000
0000
1100
0001
0011
0000
0002
0000
,
2003
3000
0001
2000
3000
0000
0100
0001
,
0000
0010
1000
0100
0101
0000
0220
0330
,
0220
0330
1001
0100
0010
0010
0000
0100
,
0010
0000
0110
0001
1000
0000
0220
0330
,
2200
3300
1000
0101
0000
0100
0000
0010
,
0100
0000
0010
1000
1001
0000
2020
3030
,
2020
3030
0001
0100
1000
0001
0000
0001
,
0100
0000
0010
0100
0010
0000
0202
0303
,
2002
3003
0100
0010
0000
0001
0000
0010
,
1000
0000
0000
0000
0000
0000
0001
0000
0000
0000
0000
0000
0100
0000
0000
0000
0000
0000
0010
0000
0000
0000
0000
0000
1001
0000
0000
0000
0000
0000
1001
0000
0000
0000
0000
0000
1000
0000
0000
0000
0000
0001
0000
0000
0100
0000
0000
0000
,
0010
0000
0000
0000
0000
0000
0000
0000
0000
0000
0000
0000
1000
0000
0001
0000
0000
1000
0000
0000
0000
0010
0000
0000
1000
0000
0000
0000
0000
0000
0000
0000
0000
0000
0000
0000
0000
0000
0000
0000
0000
0000
1000
0000
0001
0000
0000
1000
,
0000
0000
0000
0000
0000
0000
0000
0000
0000
0000
0000
0000
0000
0000
0000
0000
0000
1000
0000
0000
0001
0000
0000
1000
0000
0000
0001
0000
0000
1000
0000
0000
0000
0000
0000
0000
0000
0000
0000
0000
0000
0000
0000
0000
0000
1000
0000
0000
,
0001
0000
0000
0000
0000
1000
0000
0000
0000
0001
0000
0000
0000
0000
0000
0000
0000
0000
0000
0000
0000
0000
0000
0000
0010
0000
0000
0200
0000
0000
0001
0000
0000
0000
0000
0000
1000
0000
0000
0000
0000
0000
0301
0000
0000
1000
0000
0000
;

//---------------dance-single - BEGINNER----------------
#NOTES:
     dance-single:
     BEGINNER:
     Beginner:
     2:
     0.134,0.147,0.016,0.008,0.000,112.000,2.000,1.000,0.000,0.000:
0000
0000
0000
0000
,
1000
0000
0000
0000
,
0000
0010
0010
0000
,
0001
0000
0000
0000
,
0000
0100
0100
0000
,
0001
0000
0000
0000
,
0000
1000
0001
0000
,
0000
0000
0000
0000
,
0000
0000
0000
0000
,
0000
0100
0100
0000
,
1000
0000
0001
0000
,
0010
0000
0001
0000
,
1000
0000
0100
0000
,
0010
0000
1000
0000
,
0100
0000
0100
0000
,
0010
0000
0010
0000
,
0010
0000
0000
0010
,
0000
1000
0000
0010
,
0000
0010
0001
0001
,
0000
1000
0000
1000
,
0000
0010
1000
1000
,
0000
0100
0000
1000
,
0000
0001
1000
1000
,
0000
0010
0000
0100
,
0010
0000
0100
0000
,
1000
0000
0010
0000
,
0001
0000
0000
0001
,
0001
0000
0100
0000
,
0010
0000
0000
0010
,
0010
0000
0100
0000
,
0010
0000
0000
1000
,
0010
0000
0001
0000
,
0000
0000
0000
0010
,
0010
0000
1000
0000
,
0001
0000
0100
0000
,
0001
0000
0001
0000
,
0100
0000
0100
0000
,
1001
0000
0010
0000
,
1000
0000
0010
0000
,
0110
0000
0001
0000
,
0100
0000
0000
1000
,
1000
0000
0001
0000
,
1000
0000
0001
0000
,
1000
0000
0010
0000
,
0010
0000
1000
0000
,
1000
0000
0100
0000
,
1000
0000
0100
0000
,
1000
0000
0001
0000
,
0000
0000
1000
0000
,
0001
0000
0010
0000
,
0100
0000
0001
0000
,
1000
0000
0001
0000
,
0100
0000
1000
0000
,
0100
0000
0001
0000
,
1000
0000
0100
0000
,
0100
0000
0010
0000
,
1000
0000
0010
0000
,
1000
0000
0010
0000
,
0010
0000
1000
0000
,
0100
0000
0000
0000
0020
0000
0000
0030
;
