#TITLE:Pretear;
#SUBTITLE:- White Destiny [Para Para Mix];
#ARTIST:石田燿子;
#TITLETRANSLIT:;
#SUBTITLETRANSLIT:;
#ARTISTTRANSLIT:Yoko Ishida;
#CREDIT:Anime Toshokan;
#BANNER:Pretear - White Destiny [Para Para Mix].png;
#BACKGROUND:Pretear - White Destiny [Para Para Mix] bg.png;
#LYRICSPATH:;
#CDTITLE:dejiko.png;
#MUSIC:Pretear - White Destiny [Para Para Mix].mp3;
#OFFSET:-0.435;
#SAMPLESTART:64.630;
#SAMPLELENGTH:12.500;
#SELECTABLE:YES;
#BPMS:0.000=154.010;
#STOPS:35.000=0.390
;
#BGCHANGES:;
// cache tags:
#FIRSTBEAT:17.000;
#LASTBEAT:267.000;
#SONGFILENAME:Songs/DDR Anime 4th Mix/Pretear - White Destiny [Para Para Mix]/Pretear - White Destiny [Para Para Mix].sm;
#HASMUSIC:1;
#HASBANNER:1;
#MUSICLENGTH:106.427;
// end cache tags

//---------------dance-single - BASIC----------------
#NOTES:
     dance-single:
     BASIC:
     Easy:
     3:
     0.293,0.314,0.047,0.000,0.000,213.000,5.000,0.000,0.000,0.000:
0000
0000
0000
0000
,
0000
0000
0000
0000
,
0000
0000
0000
0000
,
0000
0000
0000
0000
,
0000
1000
0010
1000
,
0001
1000
0010
1000
,
0001
0010
0001
0100
,
0001
0010
0001
0100
,
0001
1000
0001
0000
,
1000
0010
0100
0001
,
1000
0010
0100
0001
,
1000
0010
0100
0001
,
0010
0001
0100
1001
,
0010
0100
0010
1000
,
0001
0100
0010
0100
,
0001
0010
0001
0010
,
0001
1000
0010
0100
,
0001
1000
0010
0100
,
0001
1000
0010
0100
,
0001
0000
1000
0001
,
0100
0010
1000
1001
,
0000
0010
0100
0010
,
1000
0100
0010
0001
,
0011
0000
0000
0000
,
0010
1000
0001
0000
,
0010
0100
0010
1000
,
0001
0100
0010
0000
,
0010
1000
0001
0100
,
0010
1000
0100
1000
,
0000
0001
0100
0010
,
1000
0001
0010
0001
,
0010
0000
0000
0000
,
0100
0001
1000
0000
,
1000
0001
0100
0010
,
1000
0001
0010
0100
,
0010
0000
0010
0100
,
0001
1000
0010
0100
,
0001
0000
0010
0010
,
0000
0010
1000
0001
,
0101
0000
0000
0000
,
0010
1000
0001
0000
,
0100
0010
1000
0100
,
1000
0001
0010
0100
,
0010
0000
0001
0100
,
0010
1000
0001
0000
,
0001
0010
0001
1000
,
0010
1000
0001
0100
,
0001
0000
0010
0100
,
0010
0000
0000
0000
,
1000
0001
0100
0010
,
1000
0100
0001
0100
,
0010
0000
0010
0100
,
0010
1000
0001
0000
,
0100
0010
0100
0001
,
0010
0001
1000
0010
,
1000
0001
0000
0000
,
0000
0000
0001
0001
,
1000
1000
0000
0000
,
0000
0000
0000
0000
,
0010
0010
0100
0100
,
0001
0001
1000
1000
,
0010
0100
0001
0010
,
0100
0010
0001
1000
,
0010
0100
0001
1000
,
0001
0100
0010
1000
,
0001
0100
0010
1000
,
0001
0100
0010
1001
;

//---------------dance-single - ANOTHER----------------
#NOTES:
     dance-single:
     ANOTHER:
     Medium:
     5:
     0.388,0.408,0.019,0.019,0.000,285.000,2.000,2.000,0.000,0.000:
0000
0000
0000
0000
,
0000
0000
0000
0000
,
0000
0000
0000
0000
,
0000
0000
0000
0000
,
0000
1000
0001
0100
,
0010
1000
0001
0100
,
0010
0100
0010
0100
,
0001
0100
0001
1000
,
0010
1000
0010
0000
,
1000
0010
1000
0000
0001
0000
0100
0000
,
0100
0010
0100
0000
0100
0000
0010
0000
,
0100
0010
0100
0000
0001
0000
1000
0000
,
0010
0000
1000
0000
0100
1000
0010
0000
,
0001
0100
0010
1000
,
0001
0100
0001
0000
1000
0000
0010
0000
,
0010
0100
0010
0000
1000
0000
0001
0000
,
1000
0010
0100
0001
1000
0010
1000
0000
,
0010
0100
0010
0000
1000
0000
0001
0000
,
0100
0010
0100
0000
0001
0000
1000
0000
,
0010
1000
0001
0000
1000
0000
0010
0000
,
0100
0010
1000
0001
0100
0010
1000
0000
,
0000
0001
0010
0001
0010
0000
0001
0000
,
1000
0000
0010
0000
0100
0010
1000
0001
,
0100
0000
0000
0000
,
0010
1000
0001
0000
,
0010
0100
0010
0000
1000
0000
0001
0000
,
0100
0001
0100
0000
0001
0000
1000
0000
,
0001
1000
0010
0000
0100
0000
0001
0000
,
0100
0010
1000
0001
0100
0010
1000
0000
,
0001
1000
0001
0000
0100
0000
0010
0000
,
1000
0010
1000
0000
0001
0000
0100
0000
,
0010
0100
0001
0000
1000
0000
0010
0000
,
1000
0000
0001
0100
0000
0010
0000
0000
,
1000
0001
0100
0010
,
1000
0000
0001
0000
0100
0010
1000
0001
,
0100
0000
0000
0000
1000
0001
0100
0000
,
1000
0000
0100
0010
1000
0001
0100
0010
,
0000
0010
0100
0001
,
1000
0001
0100
0010
,
1001
0000
0000
0000
,
0000
0010
0100
0000
0000
0001
1000
0000
,
0010
0000
0100
0000
0010
1000
0001
0100
,
0010
1000
0001
0000
0100
0000
0010
0000
,
1000
0000
0000
0000
0001
0100
0010
0000
,
1000
0001
0100
0010
,
1000
0010
1000
0000
0001
0000
0100
0000
,
0100
0010
0100
0000
0001
0000
1000
0000
,
0010
0000
0010
1000
,
0001
0000
0000
0000
,
0010
1000
0001
0000
0010
0000
0100
0000
,
0100
0001
0010
0000
0001
0000
1000
0000
,
0010
0000
0100
0000
0001
1000
0010
0100
,
0001
0010
1000
0001
,
0100
0010
0100
0000
0001
0000
1000
0000
,
0010
1000
0001
0000
0010
0001
0100
0010
,
1000
0001
0200
0000
0000
0000
0000
0000
,
0000
0000
0300
0000
0010
1000
0100
0010
,
0001
0100
0020
0000
0000
0000
0000
0000
,
0000
0000
0030
0000
,
0010
1000
0001
0000
0100
0000
0010
0000
,
0100
0001
1000
0000
0010
0000
0100
0000
,
0010
1000
0100
0000
0010
0000
0001
0000
,
0100
0000
0010
0000
0100
0010
0001
0000
,
0010
1000
0001
0000
0100
0000
0010
0000
,
0100
0010
1000
0000
0001
0000
0100
0000
,
0100
0010
0001
0000
1000
0000
0010
0000
,
0100
0000
0001
0000
1000
0010
1010
0000
;

//---------------dance-single - MANIAC----------------
#NOTES:
     dance-single:
     MANIAC:
     Hard:
     9:
     0.513,0.596,0.000,0.056,0.164,376.000,0.000,6.000,0.000,0.000:
0000
0000
0000
0000
,
0000
0000
0000
0000
,
0000
0000
0000
0000
,
0000
0000
0000
0000
,
0000
0010
1000
0001
,
1000
0010
1000
0010
,
1000
0001
0100
0010
,
1000
0001
0100
0010
,
1000
0001
0100
0000
,
1000
0100
1000
0100
1000
0000
0000
0000
0001
0000
0000
0000
0100
0000
0000
0000
,
0100
0010
0100
0010
0100
0000
0000
0000
0001
0000
0000
0000
0100
0000
0000
0000
,
0010
1000
0010
1000
0010
0000
0000
0000
1000
0000
0000
0000
0001
0000
0000
0000
,
0100
0000
0010
0000
1000
0010
1000
0000
,
0001
0010
0001
0010
0001
0000
0000
0000
1000
0000
0000
0000
0100
0000
0000
0000
,
0010
0001
0010
0001
0010
0000
0000
0000
0001
0000
0000
0000
1000
0000
0000
0000
,
0100
0001
1000
0001
0100
0000
0000
0000
1000
0000
0000
0000
0001
0000
0000
0000
,
0100
0000
0000
0000
0010
0000
0000
0000
0100
1000
0001
1000
0100
0000
0000
0000
,
1000
0010
1000
0100
0010
0001
0100
0010
,
1000
0000
0001
0100
0000
0010
0000
1000
,
0010
0000
0000
0001
0100
0010
0000
1000
,
0010
0000
1000
0001
0000
0100
0010
0000
,
0000
0010
1000
0100
0010
0001
0100
0010
,
1000
0001
1000
0010
0100
0001
1000
0010
,
0200
0000
0000
0000
,
0301
0000
1000
0010
0000
0100
0000
0000
,
0001
1000
0010
1000
0100
0010
0001
0100
,
0010
0000
1000
0001
0000
0100
0000
0010
,
1000
0000
0000
0001
0100
0010
0000
1000
,
0001
0000
0100
0001
0000
0100
0010
0000
,
0000
0010
1000
0100
0001
0100
1000
0010
,
0100
0001
1000
0010
0100
1000
0010
0100
,
0020
0000
0000
0000
,
1030
0000
0010
0100
0000
0010
0000
0000
,
0010
1000
0100
0010
0001
0100
0010
0100
,
0001
0010
0001
1000
0010
0100
0010
1000
,
0001
0000
0000
0010
0100
0010
0100
0001
,
1000
0010
0100
0010
0001
0010
0100
0001
,
0000
1000
0010
1000
0001
0100
0000
0000
,
0000
0010
1000
0001
0010
0001
0100
0010
,
2000
0000
0000
0000
,
3001
0000
0010
1000
0000
0010
0100
0010
,
1000
0000
0001
0100
0000
0000
0010
0000
1000
0000
0001
0000
1000
0000
0100
0000
,
1000
0000
0010
1000
0000
0000
0000
0000
0001
0000
1000
0000
0001
0000
1000
0000
,
0010
0000
0000
0010
0100
0001
0100
0010
,
1000
0001
0000
1000
0010
0000
0000
0000
,
0010
1000
0100
0010
0001
0100
0010
1000
,
0100
0000
0010
1000
0000
0000
0000
0000
0010
0000
1000
0000
0001
0000
0100
0000
,
0010
0000
0000
0000
0000
0000
1000
0010
0000
0000
0100
0000
0000
0000
0010
0000
,
2000
0000
0000
3000
,
0100
0010
0100
1000
0010
0100
0010
1000
,
0001
0000
0100
0010
0000
0000
0000
0000
0010
0000
1000
0000
0100
0000
0010
0000
,
0100
0000
0010
0001
1000
0010
0100
0001
,
1000
0010
0000
0100
0001
0000
0000
0000
,
0010
1000
0100
0010
0001
0100
0010
1000
,
0001
0010
0100
0000
0001
1000
0010
0100
,
0001
0100
0020
0000
0000
0000
0000
0000
,
0000
0000
0030
0000
0010
1000
0100
0010
,
0001
0100
0020
0000
0000
0000
0000
0000
,
0000
0000
0000
0030
,
1000
0100
1000
0100
1000
0000
0000
0000
0001
0000
1000
0000
0100
0000
0001
0000
,
0100
0010
0100
0010
0100
0000
0000
0000
0001
0000
0100
0000
1000
0000
0100
0000
,
0001
0010
0001
0010
0001
0000
0000
0000
0100
0000
0001
0000
0010
0000
0001
0000
,
0100
0000
1000
0000
0100
0000
0010
0000
1000
0100
1000
0100
1000
0000
0000
0000
,
0001
0010
0001
0010
0001
0000
0000
0000
0010
0000
1000
0000
0100
0000
1000
0000
,
0100
0001
0100
0001
0100
0000
0000
0000
0010
0000
0001
0000
0100
0000
0010
0000
,
1000
0100
1000
0100
1000
0000
0000
0000
0100
0000
1000
0000
0100
0000
0010
0000
,
0001
0000
0010
0000
0001
0000
0100
0000
0010
0100
0010
0100
0010
0000
0000
0000
;

//---------------dance-single - BEGINNER----------------
#NOTES:
     dance-single:
     BEGINNER:
     Beginner:
     2:
     0.160,0.156,0.019,0.000,0.000,117.000,2.000,0.000,0.000,0.000:
0000
0000
0000
0000
,
0000
0000
0000
0000
,
0000
0000
0000
0000
,
0000
0000
0000
0000
,
0000
1000
0000
0010
,
0000
0001
0000
0010
,
0000
0001
0000
0001
,
0000
0001
0000
0001
,
0000
0001
0000
0001
,
1000
0000
0100
0000
,
1000
0000
0100
0000
,
1000
0000
0100
0000
,
0010
0000
0100
0000
,
0010
0000
0010
0000
,
0001
0000
0010
0000
,
0001
0000
0001
0000
,
0001
0000
0010
0000
,
0001
0000
0010
0000
,
0001
0000
0010
0000
,
0001
0000
1000
0000
,
0100
0000
1000
0000
,
0000
0010
0100
0000
,
1000
0000
0010
0000
,
0011
0000
0000
0000
,
0010
0000
0001
0000
,
0010
0000
0010
0000
,
0001
0000
0010
0000
,
0010
0000
0001
0000
,
0010
0000
0100
0000
,
0000
0001
0100
0000
,
1000
0000
0010
0000
,
0010
0000
0000
0000
,
0100
0000
1000
0000
,
1000
0000
0100
0000
,
1000
0000
0010
0000
,
0010
0000
0010
0000
,
0001
0000
0010
0000
,
0001
0000
0010
0000
,
0000
0010
1000
0000
,
0101
0000
0000
0000
,
0010
0000
0001
0000
,
0100
0000
1000
0000
,
1000
0000
0010
0000
,
0010
0000
0001
0000
,
0010
0000
0001
0000
,
0001
0000
0001
0000
,
0010
0000
0001
0000
,
0001
0000
0010
0000
,
0010
0000
0000
0000
,
1000
0000
0100
0000
,
1000
0000
0001
0000
,
0010
0000
0010
0000
,
0010
0000
0001
0000
,
0100
0000
0100
0000
,
0010
0000
1000
0000
,
1000
0000
0000
0000
,
0000
0000
0001
0000
,
1000
0000
0000
0000
,
0000
0000
0000
0000
,
0010
0000
0100
0000
,
0001
0000
1000
0000
,
0010
0000
0001
0000
,
0100
0000
0001
0000
,
0010
0000
0001
0000
,
0001
0000
0010
0000
,
0001
0000
0010
0000
,
0001
0000
0010
0000
;
