#TITLE:Ragnarok Online;
#SUBTITLE:- Dont Cry,Baby;
#ARTIST:Gravity Corporation;
#TITLETRANSLIT:;
#SUBTITLETRANSLIT:;
#ARTISTTRANSLIT:;
#CREDIT:;
#BANNER:DontcryLogo.png;
#BACKGROUND:DontcryBG.png;
#LYRICSPATH:;
#CDTITLE:;
#MUSIC:Dont cry.mp3;
#OFFSET:-0.094;
#SAMPLESTART:69.151;
#SAMPLELENGTH:12.000;
#SELECTABLE:YES;
#BPMS:0.000=54.000,24.498=108.000;
#STOPS:;
#BGCHANGES:;
// cache tags:
#FIRSTBEAT:7.500;
#LASTBEAT:190.500;
#SONGFILENAME:Songs/Games/Ragnarok/Dont cry.sm;
#HASMUSIC:1;
#HASBANNER:1;
#MUSICLENGTH:124.271;
// end cache tags

//---------------dance-single - BASIC----------------
#NOTES:
     dance-single:
     BASIC:
     Easy:
     3:
     0.201,0.172,0.121,0.153,0.004,141.000,15.000,19.000,0.000,0.000:

0000
0000
0000
0000
,
0000
0000
0000
0000
0000
0000
0000
0100
,
0000
0100
0000
0100
0000
0100
0000
0100
,
0000
0000
0000
0000
0000
1001
0000
0010
,
0020
0000
0000
0000
0030
0000
0000
0100
,
0200
0000
0300
0000
,
0000
0100
0000
1000
0000
0100
0000
0001
,
0000
0100
0000
0001
0000
0010
0000
0100
,
0000
1000
0000
1000
0000
0010
0000
0001
,
0000
1000
0000
0100
0000
0010
0000
0100
,
0000
1000
0000
0010
0000
0100
0000
0100
,
0000
0010
0000
1000
0000
0001
0000
0100
,
0000
0010
0000
1000
0000
0010
0000
0001
,
0000
1000
0000
0100
0000
0010
0000
0001
,
0000
0100
0000
1000
0000
0010
0000
0100
,
0000
0001
0000
0100
0000
1000
0000
0100
,
0000
0001
0000
0010
0000
0100
0000
0001
,
0000
1000
0000
0010
0000
0001
0000
0010
,
0000
1000
0000
1000
0000
0001
0000
0001
,
0000
1000
0000
0100
0000
0001
0000
0010
,
0000
0100
0000
1000
0000
0010
0000
1000
,
0000
0001
0000
1000
0000
0100
0000
0010
,
0000
0001
0000
1000
0000
0001
0000
1001
,
0000
0000
0000
0000
0000
1000
0000
0100
,
0000
0001
0000
0100
0000
0010
0000
0110
,
0000
0000
0000
0000
0000
0010
0000
1000
,
0000
0010
0000
0100
0000
0001
0000
0100
,
0000
1000
0000
0001
0000
0000
0000
1001
,
0000
0000
0000
1001
0000
0000
0000
1001
,
0000
0000
0000
1001
0000
0000
0000
1000
,
0000
1000
0000
0001
0000
0001
0000
0000
,
0000
0000
0000
2200
0000
0000
3300
0000
,
0000
0000
0000
0202
0000
0000
0303
1000
,
0000
1000
0000
1000
0000
1000
0000
0001
,
0000
0001
0000
0001
0000
0001
0000
0000
,
0000
0000
0000
2200
0000
0000
3300
0000
,
0000
0000
0000
0202
0000
0000
0303
0001
,
0000
0001
0000
1000
0000
1000
0000
0001
,
0000
1000
0000
0001
0000
1000
0000
0000
,
0000
0000
0000
2020
0000
0000
3030
0000
,
0000
0000
0000
0022
0000
0000
0033
1000
,
0000
0001
0000
1000
0000
0001
0000
0010
,
0000
0100
0000
0010
0000
0100
0000
0000
,
0000
0000
0000
2200
0000
0000
3300
0000
,
0000
0000
0000
0202
0000
0000
0303
1000
,
0000
0001
0000
1000
0000
0001
0000
1000
,
0000
0000
0001
0000
0000
0000
1000
0000
0000
0000
0000
0000
0000
0010
0020
0000
,
0000
0000
0000
0000
0000
0000
0000
0000
0000
0030
0000
0000
0000
0000
0000
0000;

//---------------dance-single - ANOTHER----------------
#NOTES:
     dance-single:
     ANOTHER:
     Medium:
     6:
     0.316,0.326,0.523,0.209,0.032,184.000,65.000,26.000,0.000,0.000:

0000
0000
0000
0000
,
0000
0000
0000
0000
,
0000
1001
0000
0110
0000
1001
0000
0100
,
0101
0000
0000
0010
0001
1000
0100
1001
,
2002
0000
0000
0000
3003
0010
0110
0100
,
2002
0000
0000
0000
0000
0000
0000
3003
,
0000
1001
0000
0000
1000
0100
0000
0000
,
0001
0100
0000
0000
0100
0001
0000
0000
,
1000
0100
0000
0000
0100
1000
0000
0000
,
0010
0001
0000
0000
0100
0001
0000
0000
,
0010
1000
0000
0000
0100
0010
0000
0000
,
0010
0100
0000
0000
0100
0010
0000
0000
,
0010
1000
0000
0000
1000
0010
0000
0000
,
0001
0100
0000
0000
1000
0100
0000
0000
,
0010
0110
0000
0000
0100
0110
0000
0000
,
0001
0110
0000
0000
0010
0110
0000
0000
,
0100
1001
0000
0000
0001
1001
0000
0000
,
1000
0110
0000
0000
0100
0110
0000
0000
,
0001
1001
0000
0000
1000
1001
0000
0000
,
0100
0110
0000
0000
0010
0110
0000
0000
,
1000
0110
0000
0000
0001
0110
0000
0000
,
0100
0101
0000
0000
0100
1100
0000
0010
,
0100
1000
0000
1000
0100
0010
0000
0100
,
0010
0001
0000
0001
0010
0100
0000
1000
,
0100
1000
0000
0100
0001
0100
0000
1000
,
0100
0001
0000
0001
0100
1000
0000
0010
,
0100
0010
0000
0100
0100
0001
0000
0100
,
0100
1000
0000
0010
0010
0100
0000
0020
,
0000
0000
0000
0230
0000
0000
0000
0320
,
0000
0000
0000
0230
0000
0300
0000
1010
,
0000
0011
0000
1100
0000
0101
0000
0000
,
0000
0100
0100
0000
0000
0000
0220
0000
0000
0000
0000
0000
0330
0000
0000
0000
,
0000
0010
0010
0000
0000
0000
0220
0000
0000
0000
0000
0000
0330
0000
0000
0000
,
0000
1001
0000
0110
0000
0110
0000
1100
,
0000
0110
0000
0101
0000
0110
0000
1001
,
0000
1000
1000
0000
0000
0000
0220
0000
0000
0000
0000
0000
0330
0000
0000
0000
,
0000
0001
0001
0000
0000
0000
0220
0000
0000
0000
0000
0000
0330
0000
0000
0000
,
0000
1001
0000
1001
0000
0110
0000
0110
,
0000
0011
0000
1010
0000
1100
0000
0101
,
0000
0001
1000
0000
0000
0000
2002
0000
0000
0000
0000
0000
3003
0000
0000
0000
,
0000
1000
0001
0000
0000
0000
2002
0000
0000
0000
0000
0000
3003
0000
0000
0000
,
0000
0110
0000
0110
0000
1001
0000
1001
,
0000
0101
0000
1100
0000
1001
0000
1001
,
0000
1000
0100
0000
0000
0000
2200
0000
0000
0000
0000
0000
3300
0000
0000
0000
,
0000
0001
0100
0000
0000
0000
0202
0000
0000
0000
0000
0000
0303
0000
0010
0000
,
0010
0101
0000
0010
0010
1100
0000
0100
,
0100
0110
0000
0001
0100
1000
0100
2002
,
0000
0000
0000
0000
0000
3003
0000
0000;

//---------------dance-single - MANIAC----------------
#NOTES:
     dance-single:
     MANIAC:
     Hard:
     7:
     0.439,0.383,0.595,0.209,0.032,282.000,74.000,26.000,0.000,0.000:

0000
0000
0000
0000
,
0000
0000
0000
0000
0000
0000
0000
0100
,
0000
1001
0000
0010
0000
1001
0000
0100
,
1001
0000
0000
0010
0001
1001
0110
0110
,
2002
0000
0000
0000
3003
1010
0110
0101
,
2002
0000
0000
0000
0000
0000
0000
3003
,
0000
1001
0000
1000
1000
0100
0000
0001
,
0001
0100
0000
0001
0100
0001
1000
0100
,
1000
2002
3003
1000
0100
0011
0000
0001
,
0100
1010
0000
1000
0100
0010
0001
0100
,
0010
2020
3030
0010
0100
0110
0000
0100
,
0010
0110
0010
1000
0100
0010
0001
0100
,
0010
1000
0000
1000
1000
0011
0000
0001
,
0001
1100
0000
1000
0100
0010
1001
0100
,
0010
1001
0010
1000
0100
1001
0010
0100
,
0001
0110
0000
1000
0010
1001
0000
0001
,
0010
1001
0000
1000
0001
0110
0010
0001
,
1000
0110
0000
0010
1000
0101
0000
0010
,
0001
1100
0000
1000
0100
0110
0100
0010
,
0001
0110
0000
0100
0010
1001
0000
1000
,
0100
0011
0000
0001
0100
1010
0000
1000
,
0100
0001
0100
1000
0010
0100
0001
0010
,
0100
1000
0100
1000
0010
0100
0001
0010
,
0100
1000
0010
0100
0010
0110
0000
1001
,
0100
1000
0010
0100
0001
0010
0100
1000
,
0100
0001
0100
1000
0010
0110
0000
1001
,
0100
0010
0001
0100
0100
0001
0010
0100
,
1000
0010
0100
0001
0010
0110
1001
0110
,
1000
0100
0001
0100
1000
0001
0100
1000
,
0100
0001
0010
1000
0010
0001
0010
0110
,
0000
1010
0000
0011
0000
0110
0000
1001
,
0000
0001
0100
0000
0000
0000
2200
0000
0000
0000
0000
0000
3300
0000
0110
0000
,
0000
1000
0100
0000
0000
0000
0022
0000
0000
0000
0000
0000
0033
0000
1000
0000
,
0100
1000
0001
0100
0001
0010
0100
1000
,
0010
0100
0001
0010
0100
1000
1000
0110
,
0000
1000
0001
0000
0000
0000
0220
0000
0000
0000
0000
0000
0330
0000
1001
0000
,
0000
0100
0010
0000
0000
0000
2002
0000
0000
0000
0000
0000
3003
0000
0001
0000
,
0100
0001
1000
0100
1000
0010
1000
0001
,
0010
0001
1000
0001
1000
0100
0100
0011
,
0000
0001
1000
0000
0000
0000
2020
0000
0000
0000
0000
0000
3030
0000
0101
0000
,
0000
0010
0100
0000
0000
0000
2200
0000
0000
0000
0000
0000
3300
0000
1000
0000
,
0100
0110
0001
0100
0010
1001
0100
0010
,
0001
0101
0010
1000
0100
0101
0100
0110
,
0000
0001
0100
0000
0000
0000
2200
0000
0000
0000
0000
0000
3300
0000
0110
0000
,
0000
1000
0100
0000
0000
0000
0022
0000
0000
0000
0000
0000
0033
0000
0110
0000
,
1100
0101
0000
0110
1010
1001
0000
0010
,
1000
0100
0110
0001
0100
1000
0010
2002
,
0000
0000
0000
0000
0000
3003
0000
0000;
