#TITLE:Castles in the Sky;
#SUBTITLE:;
#ARTIST:Kree Tsukiisa;
#TITLETRANSLIT:;
#SUBTITLETRANSLIT:;
#ARTISTTRANSLIT:;
#CREDIT:;
#BANNER:Castles in the Sky_banner.png;
#BACKGROUND:Castles in the Sky.png;
#LYRICSPATH:;
#CDTITLE:;
#MUSIC:Castles in the Sky.mp3;
#OFFSET:-1.100;
#SAMPLESTART:36.569;
#SAMPLELENGTH:12.000;
#SELECTABLE:YES;
#BPMS:0.000=170.000,45.000=169.240;
#STOPS:45.000=0.120
;
#BGCHANGES:;
// cache tags:
#FIRSTBEAT:16.000;
#LASTBEAT:280.000;
#SONGFILENAME:Songs/StepMix 1/Castles in the Sky/Castles in the Sky.sm;
#HASMUSIC:1;
#HASBANNER:1;
#MUSICLENGTH:101.120;
// end cache tags

//---------------dance-single - ----------------
#NOTES:
     dance-single:
     :
     Easy:
     4:
     0.390,0.538,0.267,0.257,0.000,223.000,27.000,26.000,0.000,0.000:



0000
0000
0000
0000
,
0000
0000
0000
0000
,
0000
0000
0000
0000
,
0000
0000
0000
0000
,
1000
0001
0010
0100
,
1000
0001
1001
0110
,
1000
0001
0100
0010
,
1000
0010
0001
0100
,
1000
0100
0010
0001
,
0100
0010
1000
0010
,
0010
1000
1000
0100
,
0100
0001
0001
1100
,
0101
1000
0100
0001
,
0100
1000
0100
0001
,
0100
1000
0100
0001
,
0100
1000
0100
0000
,
0010
0100
1000
0001
,
0100
0010
1000
1001
,
0110
0001
0010
1000
,
0100
0010
0001
0000
,
0100
0100
0010
0001
,
1000
0001
1000
0100
,
0010
1000
1001
0110
,
1000
0010
0100
0001
,
0100
1000
0010
0100
,
0001
1000
0100
0010
,
0001
1000
0100
0010
,
0001
1001
0110
1001
,
2000
0000
0000
3000
,
0002
0000
0000
0003
,
0200
0300
0020
0030
,
2002
3003
0220
0330
,
0200
0000
0000
0300
,
0020
0000
0000
0030
,
2000
3200
0302
0023
,
2030
3200
0320
0032
,
0003
0000
1000
0100
,
0001
0100
1000
0100
,
0001
0100
1000
0000
,
0001
0010
1000
0010
,
0001
0010
1000
0010
,
0001
0010
1000
0000
,
1001
0100
0010
0001
,
0100
1000
1000
0000
,
1001
0110
1001
0100
,
0001
0010
1000
0100
,
0100
0010
0001
1000
,
0100
0001
0010
0001
,
1000
0010
0001
0100
,
0010
1001
0110
1001
,
0100
0010
1000
0100
,
1000
0010
0001
0100
,
1000
0100
0001
0100
,
1000
0100
0001
0010
,
0100
1000
0010
0010
,
0001
0100
1001
0000
,
0110
1001
1000
0100
,
0010
0100
1000
0001
,
0001
0010
0100
0001
,
1000
0001
1000
0000
,
0020
0000
0000
0030
,
0200
0000
0000
0300
,
0002
0003
2000
3000
,
0200
0302
0023
2030
,
3000
1000
0001
0100
,
0010
1001
0110
1001
,
0100
0010
1000
0001
,
0100
0100
1000
0010
,
1001
0000
0000
0000
;

//---------------dance-single - Copied from----------------
#NOTES:
     dance-single:
     Copied from:
     Medium:
     7:
     0.520,0.621,0.405,0.119,0.000,315.000,41.000,12.000,0.000,1.000:



0000
0000
0000
0000
,
0000
0000
0000
0000
,
0000
0000
0000
0000
,
0000
0000
0000
0000
,
0010
0000
0001
0000
1000
0000
1000
0100
,
0001
0000
0001
0000
0010
0000
1000
0100
,
0010
0000
1001
0000
0110
0000
1001
0110
,
1001
0000
0101
0000
2000
0000
0001
3001
,
0010
0000
0001
0000
1000
0000
1000
0100
,
0001
0000
0001
0000
0010
0000
1000
0100
,
0010
0000
1001
0000
0110
0000
1001
0110
,
1001
0000
0101
0000
0010
0000
0100
0100
,
0001
0000
1000
0000
0010
0000
0100
0001
,
1000
0000
0010
0100
0001
0000
1000
0100
,
0001
0100
1000
0100
0001
0000
1100
0000
,
0011
1010
0101
0100
,
0001
1000
0010
1001
,
0110
0110
0010
1000
,
0100
0001
1000
0100
,
0001
0010
1000
0000
0000
0001
0001
0001
,
0010
0000
0100
0000
1000
0000
0001
0100
,
0010
0000
1000
1000
0110
0000
0100
0000
,
0010
0000
1000
0000
0001
0000
0100
0010
,
0001
0000
1001
1001
1001
0000
1000
0000
,
0100
0001
0010
1000
,
0011
0000
0100
0100
0001
0000
1000
0000
,
0010
0000
1000
0100
0100
0000
0001
0010
,
1000
0010
0001
0010
1000
0000
0000
0000
,
2001
0001
0001
3210
,
0010
0010
0320
0000
,
0100
0000
1030
0000
0001
1000
0001
1000
,
0002
0000
2000
0003
,
3010
0000
0000
0100
0010
0000
1000
0000
,
0000
0001
0000
0000
1000
0100
0001
0000
,
1001
0000
1000
0001
1000
0001
1000
0001
,
1000
0001
1000
0001
1000
0001
1000
0000
,
0110
0001
0010
1000
,
0100
0100
0010
0001
,
1000
0100
0010
0000
0001
0010
0100
1000
,
0100
0010
0001
0001
1001
0000
0100
0000
,
0010
0001
1000
0100
,
0010
0000
0001
0000
1000
1000
0010
0000
,
0001
1000
0100
0000
0010
0100
0010
0000
,
1000
0001
1000
0000
0001
1000
0001
0000
,
1100
0010
0100
1000
,
0100
0001
1000
0010
,
0100
0000
1000
0100
0001
0000
0010
0000
,
0100
0000
1000
0100
0010
0000
0001
1000
,
0001
0000
0100
0000
0010
0000
0100
0010
,
0100
0000
1000
0001
1000
0000
0001
0000
,
0100
1000
0100
0001
,
1000
0100
0001
0000
0110
0000
2002
0000
,
3003
0000
0010
0100
0010
0100
0010
0000
,
0100
0010
1000
0100
,
0001
0000
0010
0000
0100
0000
0001
1000
,
0001
0000
0100
0000
0010
0000
0001
0100
,
0010
0000
1000
0000
1001
0110
1001
0000
,
1000
0010
0001
0010
,
1000
0010
0001
1100
,
0011
0000
1010
0000
0101
0000
1000
0100
,
0001
0000
0010
0000
0010
0000
0100
0100
,
1000
0000
0001
0000
0100
0000
0010
1000
,
0001
0100
0001
0100
,
1000
0010
0001
0000
1000
0000
0000
0000
,
2000
0000
0001
0001
0001
0000
3010
0000
,
0002
0000
1000
1000
1000
0000
0103
0000
,
0110
0000
0010
0100
0010
0000
1000
0001
,
1000
0001
1000
0001
1000
0000
1000
0001
,
2002
0000
0000
0000
,
0000
0000
0000
3003
;

//---------------dance-single - Copied from----------------
#NOTES:
     dance-single:
     Copied from:
     Hard:
     8:
     0.664,0.692,0.257,0.218,0.005,422.000,26.000,22.000,0.000,0.000:

0000
0000
0000
0000
,
0000
0000
0000
0000
,
0000
0000
0000
0000
,
0000
0000
0000
0000
,
1000
0000
0100
0010
0001
1000
0000
0000
,
0001
0000
0100
1000
0010
0000
0000
0000
,
0010
0000
1000
0100
0001
0010
0000
0000
,
1000
0000
1001
0110
2002
0000
3003
0000
,
1000
0000
0010
0100
0001
1000
0001
0010
,
1000
0000
0001
0010
0100
1000
0100
0100
,
0001
0000
1000
0010
1000
0100
0001
0010
,
1000
0100
0010
0000
0000
0010
0001
0001
,
1000
0100
0001
0010
0001
0100
0000
1000
,
0100
0010
1000
0010
0100
0000
1000
0010
,
0001
0000
0100
1000
1001
0000
1000
0100
,
0010
0100
0001
1000
0010
0000
0100
0001
,
0001
0000
1000
0100
0010
0000
0001
0010
,
0100
0000
0010
0010
0001
0000
1000
0100
,
0011
0000
1000
1000
0001
0000
0010
0100
,
0001
0010
1000
0100
1000
0000
0001
0001
,
0100
0010
1000
0100
0100
0001
0010
1000
,
0100
0010
0001
0100
0010
1000
0100
0001
,
0010
0100
1000
0100
0010
0001
0100
0001
,
0010
1000
0100
1000
0100
1000
0010
0001
,
0100
0010
0010
1000
0100
0010
0001
0100
,
0100
1000
0001
0100
0001
0001
0001
0100
,
1000
1000
1000
0100
0010
0100
1000
0010
,
0001
0100
0010
1000
0001
0000
1001
0000
,
2000
0000
0001
0000
0001
0001
3001
0001
,
0002
0000
0100
0000
0100
0103
0100
0100
,
0200
0000
0010
0000
0010
0010
0310
0010
,
0020
0032
0203
2300
,
3200
0000
0320
0000
0032
0000
1003
0100
,
0010
0001
0100
1000
1000
0010
0100
0001
,
1100
0011
0101
1010
,
1000
0000
0000
0000
0000
0000
0010
0000
0000
0000
0000
0000
1000
0000
0001
1000
0000
0000
0001
0000
0000
0000
0000
0000
,
1001
0000
1000
0100
0010
0100
0001
1000
,
0010
0001
0001
1000
0100
0010
1000
0001
,
0100
0010
1000
0100
0001
0010
1000
1000
,
0100
0010
0001
0100
1000
0010
0001
0100
,
1001
0000
0000
1000
0100
0010
0100
0001
,
1000
0100
0010
0001
0000
1000
0100
0100
,
0010
0000
0000
0001
1000
1000
0010
0100
,
0010
0000
1001
2002
0000
0000
3003
0000
,
0110
0000
1000
0100
1000
0010
0000
0000
,
0001
0000
0100
0010
1002
0000
0003
0000
,
1000
0000
0100
0010
0100
0001
0000
1000
,
1000
0000
0010
0100
0002
0000
0003
0000
,
1000
0100
0010
1000
0001
0100
0010
1000
,
0010
0001
0100
1000
0010
0100
1000
0010
,
0001
1000
0100
0010
0100
0001
1000
0100
,
0010
1000
0001
0110
0220
0000
0330
0000
,
1000
0100
1000
0001
0010
0100
0001
1000
,
0100
0010
1000
0100
0001
0100
0010
1000
,
0100
0001
0010
0100
0100
0010
1000
0100
,
0001
0010
0010
1000
0001
0100
0010
1000
,
0001
0100
0010
1000
0001
0100
0010
0001
,
0100
0001
0010
1000
0100
0001
0100
0010
,
1000
0100
0001
1000
0010
0100
0001
1000
,
0010
0100
0001
1000
0100
0010
0010
0001
,
1000
0100
0010
1000
0010
0001
0001
0100
,
0010
1000
0100
0001
0010
1000
0100
0010
,
1000
0001
0010
0100
1000
0100
0001
0010
,
0100
0010
1000
0100
0001
0010
0110
0110
,
1001
0000
0100
0010
0001
1000
0000
0000
,
0001
0000
0100
1000
0010
0001
0000
0000
,
0010
0000
1000
0100
0001
0010
0000
0000
,
1000
0000
1001
0110
2002
0000
3003
1001
,
0220
0000
0000
0000
,
0000
0000
0000
0000
,
0330
0000
0000
0000
;
