#TITLE:Take me Back;
#SUBTITLE:;
#ARTIST:KaW;
#TITLETRANSLIT:;
#SUBTITLETRANSLIT:;
#ARTISTTRANSLIT:;
#CREDIT:;
#BANNER:Take Me Back.png;
#BACKGROUND:Take Me Back-BG.png;
#LYRICSPATH:;
#CDTITLE:;
#MUSIC:TakeMeBack.mp3;
#OFFSET:-0.031;
#SAMPLESTART:32.900;
#SAMPLELENGTH:12.000;
#SELECTABLE:YES;
#BPMS:0.000=175.000;
#STOPS:;
#BGCHANGES:;
// cache tags:
#FIRSTBEAT:8.000;
#LASTBEAT:352.000;
#SONGFILENAME:Songs/StepMix 1/Take me Back/Take me Back.sm;
#HASMUSIC:1;
#HASBANNER:1;
#MUSICLENGTH:123.486;
// end cache tags

//---------------dance-single - E. Holniker----------------
#NOTES:
     dance-single:
     E. Holniker:
     Challenge:
     10:
     0.696,0.957,0.170,1.000,0.207,442.000,21.000,138.000,71.000,37.000:

0000
0000
0000
0000
,
0000
0000
0000
0000
,
0000
0000
0000
0000
,
0000
0000
0000
0000
,
1000
0010
0100
0001
000M
0001
0010
0100
,
0010
0001
0010
0200
0000
0000
0011
0300
,
1000
0010
0100
0001
0000
0001
0200
0020
,
0000
0000
1000
0000
1000
0000
0000
0330
,
2000
0200
0300
0020
0030
0002
0003
3100
,
0020
0002
0003
0200
0300
2000
3000
0031
,
0200
2000
3000
0020
0030
0002
0003
1300
,
0002
0200
0300
0020
0030
0200
0300
1003
,
0100
0000
0010
0000
0100
0000
0010
0001
0010
0100
0010
0000
0001
0000
0010
0000
,
0100
0000
0001
0000
0010
0000
0010
0100
0010
1000
0010
0000
0001
0000
0010
0000
,
0100
0000
0001
0000
1000
0000
0100
0010
0001
0010
0100
0000
0010
0000
0001
0000
,
0100
0000
0001
0000
0100
0000
0010
0000
1000
0000
0100
0000
1000
0100
1000
0100
,
1000
0100
0010
1000
0010
0001
0010
0100
,
1000
0010
0100
0022
0000
0000
1000
0033
,
1000
0100
0010
0001
0000
0001
2000
0002
,
0000
0000
0010
0000
0010
0000
0000
3003
,
0100
0010
1000
0100
0000
0100
1000
0010
,
0001
0100
0010
0202
0000
0000
0010
0303
,
1000
0001
0100
0010
0000
0010
2000
0020
,
0000
0001
0001
3030
,
1000
0000
1000
0001
0000
0002
0000
0200
,
0000
1000
1000
0303
,
0010
0000
0010
1000
0000
2000
0000
0200
,
0000
0010
0010
3300
,
0001
0000
0001
0100
0000
2000
0000
0002
,
0000
0010
0010
3003
,
0100
0000
0100
0010
0000
0002
0000
0020
,
0000
0000
1000
0000
1000
0000
1033
MMMM
,
1000
0100
0010
0001
0010
0100
1000
0020
,
0000
0230
0000
0302
2000
0003
3200
0000
,
0320
0032
1003
0010
0100
0100
1000
0200
,
0000
0320
0000
0032
0020
0003
0230
0000
,
1300
0010
0100
0001
1000
0100
0010
0200
,
0000
2300
0000
3000
0001
0100
0010
0000
,
1000
0100
0010
0001
0010
0100
1000
0020
,
0000
0000
0030
0100
0002
0000
1003
0000
,
2000
0000
3200
M000
2300
0000
3000
0000
0002
0000
0023
000M
0032
0000
0003
0000
,
0020
0230
23M0
0M20
323M
M302
2003
3000
,
0020
0000
0230
000M
0302
0000
0003
0000
2000
0000
320M
0000
0320
0000
0030
0000
,
0002
00M0
0023
0M00
0230
000M
2000
00M0
3320
0M00
0032
M000
0203
00M0
0300
0000
,
2000
0000
3200
M000
0320
0000
0030
0000
0200
0000
2300
00M0
3002
0000
0003
0000
,
0200
0000
0320
000M
2030
00M0
3200
000M
0320
M000
0032
0M00
0023
0000
0030
0000
,
0200
0000
2300
000M
3020
0000
0030
0000
0002
0000
M023
0000
0230
0000
0300
0000
,
0020
0M00
2030
000M
3200
000M
0320
0M00
0032
M000
0023
0M00
0230
M000
0300
0000
,
2000
0000
0020
3000
0230
0000
0020
1000
,
0000
0000
0000
0000
0001
0000
0000
0330
,
2000
0000
3020
0000
0230
0000
2000
0001
,
0000
0000
0000
0000
0010
0000
0000
3300
,
0002
0000
0023
0000
0230
0000
0002
1000
,
0000
0000
0000
0000
0010
0000
0000
0303
,
2000
0000
3020
0000
0230
0000
2000
0010
,
0000
0000
0000
0000
0001
0000
0000
3300
,
0010
0010
0000
0000
0100
0000
0200
0002
,
0000
0010
0000
0303
0000
0000
0000
0000
,
1000
0000
1000
0000
0100
0000
0002
0020
,
0000
1000
0033
0000
0000
0000
0000
0000
,
0100
0010
0000
0000
0010
0000
0020
2000
,
0000
0100
3030
0000
0000
0000
0000
0000
,
1000
0000
0100
0000
0010
0000
0001
0000
0010
0000
0100
0000
1000
0000
0100
0010
,
0100
0010
0100
0010
1000
0010
1000
0010
4000
0040
0000
0000
0000
3030
0000
0000
,
1000
0100
0010
0001
0010
0100
1000
0010
,
0000
0220
0000
0000
1001
0330
0000
0000
,
1000
0100
0010
0001
0010
0100
0000
1010
,
0000
2020
0000
0000
0101
3030
0000
0000
,
0100
0010
1000
0100
0010
0001
0000
0220
,
0000
0000
0000
0000
1001
0330
0000
0000
,
1000
0100
0010
0001
0000
0001
0000
0010
,
0000
0202
0000
0000
1010
0000
0303
0000
,
1000
0000
0010
0000
0100
0000
0001
0000
1000
0000
0100
0000
0010
0000
0001
010M
,
0001
0000
0010
0000
0100
0000
1000
0000
0010
0000
0100
0000
0010
0000
0100
1M00
,
0100
0010
1000
0100
0010
0001
0000
1001
,
0000
2002
0000
0000
3013
0000
0000
0000
,
0100
0000
0010
0000
1000
0000
0100
0000
0010
0000
0100
0000
0010
0000
0100
0M01
,
0100
0000
1000
0000
0001
0000
0100
0000
0010
0000
0100
0000
0010
0000
1000
M001
,
1000
0001
0100
0010
1000
0100
0000
1100
,
0000
2200
0000
0000
0011
3300
0000
0000
,
0100
0010
1000
0001
0000
0001
0100
0010
,
1000
0100
0010
0100
0000
0000
1001
0000
,
0010
1000
1000
0100
0000
0100
0010
0001
,
0000
0000
0000
0000
1M1M
M010
M11M
0000
,
0001
1000
0100
0010
00M0
0010
0001
1000
,
0010
0100
0001
1000
0000
0000
0000
0000
,
1000
0000
0000
0000
0000
0000
0010
0000
0000
00M0
0000
0000
0010
0000
0000
0000
0000
0000
0100
0000
0000
0000
0000
0000
0000
0000
0000
0000
0000
0000
0100
0000
0000
0000
0000
0000
0010
0000
0000
0000
0000
0000
M0M2
0000
MM00
0000
MM00
0000
,
M0M0
0M00
M0M0
MMM0
M0M0
0000
1000
M0M0
MMM0
MMM0
0000
0000
1003
0000
0000
0000
0000
0000
0000
0000
0000
0000
0000
0000
;

//---------------dance-single - E. Holniker----------------
#NOTES:
     dance-single:
     E. Holniker:
     Hard:
     8:
     0.553,0.604,0.194,0.551,0.000,386.000,24.000,68.000,0.000,0.000:



0000
0000
0000
0000
,
0000
0000
0000
0000
,
0010
0001
0010
1000
0000
0100
0000
0011
,
0000
0000
0000
0000
,
0010
0000
0000
0020
0000
0000
1000
0100
,
0000
0030
0000
0000
,
1000
0100
0010
0001
0000
0001
0000
1000
,
0000
0000
0000
0000
,
1000
0000
1000
0010
0000
0020
0000
0200
,
0000
0330
0000
0000
,
1000
0000
1000
0001
0000
0002
0000
0200
,
0000
0303
0000
0000
,
0100
0000
0100
0010
0000
0020
0000
2000
,
0000
3030
0000
0000
,
1000
0000
1000
0100
0000
0200
0000
0020
,
0000
0000
0330
0000
1000
0001
1000
0010
,
0100
0001
1000
0100
0000
0100
1000
0100
,
1000
0200
2000
0000
0000
3300
0000
0000
,
0100
0010
0100
0010
0000
0010
1000
0002
,
0000
0000
0000
0000
0100
0003
0000
0000
,
0100
0010
1000
0100
0000
0100
0010
0001
,
0010
0200
2000
0000
0000
3300
0000
0000
,
0100
0010
0100
0001
0000
0001
1000
0200
,
0000
0000
1000
0000
1000
0300
0000
0000
,
1000
0000
1000
0001
0000
0002
0000
0200
,
0000
0000
0303
0000
,
0010
0000
0020
1000
0000
2030
0000
0200
,
0000
0000
3300
0000
,
0001
0000
0001
0010
0000
0010
0000
0200
,
0000
1000
1000
0300
,
0010
0000
0010
0001
0000
0001
0000
2000
,
0000
0000
0000
3000
1000
0100
0010
0001
,
0010
0100
1000
0010
0100
0010
0001
0002
,
0000
2003
0000
3100
0010
0000
0001
0000
,
0100
0010
1000
0100
0010
0001
0010
0200
,
0000
2300
0000
3010
0100
0000
0001
0000
,
1000
0100
0010
0001
0001
0010
0100
0020
,
0000
0000
0030
0000
1000
0100
0010
0000
,
0001
1000
0100
0010
0001
0010
0020
2000
,
0030
0000
3000
0100
0010
0000
0001
0000
,
1000
0100
1000
0000
0001
0010
0001
0000
,
0010
0100
1000
0010
0100
0010
0001
0000
,
0100
1000
0100
0000
0001
0010
0001
0000
,
0010
0100
1000
0010
0100
0010
0001
0000
,
0100
0010
0100
0000
0100
1000
0100
0000
,
0010
0001
0010
0100
1000
0010
0100
0000
,
0010
0001
0010
0000
0100
0010
0100
0000
,
0100
1000
0100
0010
0001
0010
0100
0000
,
2000
0000
3020
0000
0230
0000
0302
2000
,
0000
0000
0000
3003
2020
0000
0000
3030
,
0002
0000
0203
0000
0320
0000
2030
0200
,
0000
0000
0000
3300
2020
0000
0000
3030
,
0002
0000
0023
0000
0230
0000
0320
0200
,
0000
0000
0000
0330
2020
0000
0000
3030
,
0002
0000
0203
0000
0320
0000
2030
0200
,
0000
0000
0000
3300
2200
0000
0000
3300
,
0001
1000
0000
0000
1000
0000
1000
0010
,
0000
0220
0000
0030
0001
0000
0001
0300
,
0010
0000
1000
0000
0100
0000
0010
0001
,
0000
0220
0000
0030
1000
0000
1000
0300
,
0010
1000
0000
0000
1000
0000
1000
0001
,
0000
0202
0000
0003
0010
0000
0010
0300
,
1000
0000
0001
0000
0010
0000
0100
1000
,
0000
0010
0000
0000
0101
0110
1100
0000
,
0010
0001
0010
0100
1000
0010
0100
0010
,
0000
0110
0000
0000
0110
0000
0000
0000
,
1000
0100
0010
0001
0000
0010
0000
1010
,
0000
0101
0000
0000
1001
0000
0000
0000
,
0100
0010
1000
0001
0010
0001
0100
0010
,
0000
1000
0000
0000
1010
0000
0000
0000
,
0100
0001
1000
0100
0000
0010
0000
0110
,
0000
1001
0000
0000
1010
0000
0000
0000
,
0100
0100
1000
0001
0010
0100
0010
0100
,
0100
1000
0010
0100
0001
0001
0010
0010
,
1000
0100
0010
0001
0010
0100
0000
1000
,
0000
1100
0000
0000
0011
0000
0000
0000
,
0100
0010
1000
0001
0010
0001
0100
0100
,
0010
1000
0100
0010
0001
0100
0001
0010
,
1000
0100
0010
0001
0010
0100
0000
0101
,
0000
0110
0000
0000
0010
0000
0000
0000
,
0100
0001
1000
0100
0000
0100
0010
0001
,
0010
0100
1000
0010
0000
0100
0010
0000
,
0001
1000
0100
0010
0000
0010
0002
1000
,
0000
1000
1003
0000
,
1000
0010
0010
0001
0000
0001
0100
0010
,
1000
0100
2000
0200
0000
0000
0000
3300
,
0010
0001
0010
0001
0000
0001
0200
0020
,
0000
0030
0001
0000
0001
0000
0300
0000
;

//---------------dance-single - E. Holniker----------------
#NOTES:
     dance-single:
     E. Holniker:
     Medium:
     6:
     0.433,0.499,0.202,0.057,0.000,342.000,25.000,7.000,0.000,0.000:



0000
0000
0000
0000
,
0000
0000
0000
0000
,
0000
0000
0000
0000
,
0000
0000
0000
0000
,
2000
0000
0010
0000
0010
3000
0000
0000
,
0002
0000
0100
0000
0100
0003
0000
0000
,
0200
0000
0010
0000
0010
0300
1000
0000
,
0001
0000
1000
0000
0001
1000
0001
0000
,
0100
0010
1000
0100
,
0010
0001
1000
0000
,
0001
0010
0100
1000
,
0010
0000
0100
0000
0010
0100
0010
0000
,
1000
0100
0010
0001
,
1000
0000
0010
0000
0010
1000
0010
0000
,
0100
0001
0100
0010
,
0100
0010
1010
0000
,
0001
0100
0010
1000
,
0100
1000
0100
0000
0011
0000
0011
0000
,
0010
0100
0000
1000
0000
0010
0000
0100
,
0000
0001
1000
0000
,
0010
0100
0010
1000
,
0100
1000
0100
0000
1100
0000
0001
0000
,
0000
0010
0000
1000
0000
0010
0000
0100
,
0000
0001
1001
0000
,
0010
0000
0010
0100
0000
0100
0000
2000
,
0000
0000
0000
3000
,
0001
0000
0001
0100
0000
0100
0000
0020
,
0000
0000
0000
0030
,
1000
0000
1000
0100
0000
0100
0000
0020
,
0000
0000
0000
0030
,
0001
0000
0001
0100
0000
0100
0000
0020
,
0000
0000
0000
0030
,
1000
0000
0010
0000
0000
0100
0001
0000
,
1000
0100
0010
0000
0000
0001
0010
0000
,
0100
0000
1000
0000
0000
0010
0100
0000
,
0001
1000
0100
0000
0000
0010
0001
0000
,
0010
0000
0100
0000
0000
1000
0010
0000
,
0100
0001
1000
0000
0000
0100
0010
0000
,
0001
0000
0010
0000
0000
0100
1000
0000
,
0010
0100
0001
0000
0100
0000
0001
0000
,
0100
0000
0010
0000
0000
1000
0100
0000
,
0010
0001
0010
0000
0000
0100
1000
0000
,
0010
0000
0100
0000
0000
0001
1000
0000
,
0100
1000
0001
0000
0000
0010
0100
0000
,
1000
0000
0010
0000
0000
0100
0001
0000
,
1000
0100
0010
0000
0000
0001
0010
0000
,
0100
0000
1000
0000
0000
0010
0001
0000
,
0010
0100
0010
0000
0000
1000
0100
0000
,
0010
0000
0001
0000
1000
0000
0010
0100
,
0000
0000
1100
1100
,
0001
0010
0100
0100
,
0010
0000
0110
0110
,
1000
0100
0010
0001
,
0010
0000
0000
0011
0000
0000
0011
0000
,
0010
0100
1000
0010
,
0100
0000
0000
1010
0000
0000
1010
0000
,
0000
0100
0001
0000
0100
0000
0100
0010
,
0000
1000
0000
0000
0100
1000
0100
0000
,
0010
0000
0001
0000
0010
0000
0100
0010
,
0000
0100
0000
0000
0100
0010
0100
0000
,
0010
0000
1000
0000
1000
0000
1000
0100
,
0000
0010
0000
0000
0001
0010
0001
0000
,
0010
0000
0100
0000
1000
0000
0010
1000
,
0000
1000
0000
0000
0010
1000
0010
0000
,
0100
0001
1000
0000
0100
0000
0010
0000
,
0001
0010
0100
1000
,
0010
0100
0001
0000
1000
0000
0100
0000
,
1100
1100
0011
0000
,
0100
1010
0001
0010
,
0110
0010
1010
0000
,
0100
0010
1000
0000
0100
0000
0010
0000
,
0011
1100
0110
0000
,
1000
0010
1000
0000
0001
0000
0100
0000
,
0010
0100
0010
0000
1000
0000
0100
0000
,
0001
0010
0001
0000
0010
0000
0100
0000
,
0100
0100
1000
0000
,
1000
0010
1000
0000
0001
0000
0100
0000
,
0010
0100
0010
0000
0100
0000
0001
0000
,
1000
0001
1000
0000
0001
1000
0001
0000
,
1000
0010
0110
0000
,
1000
0100
0010
0001
,
0010
0001
0010
0000
0100
0000
1000
0000
,
0010
0000
0100
0000
0010
0100
0010
0000
,
1000
0100
1100
0000
,
0001
0010
0100
0010
,
0001
0010
0001
0000
1000
0000
0100
0000
,
0100
0010
0100
0000
0010
1000
0100
0000
,
0010
0001
0010
0100
1000
0000
0010
0000
,
0110
0000
0000
0000
;

//---------------dance-single - E. Holniker----------------
#NOTES:
     dance-single:
     E. Holniker:
     Easy:
     2:
     0.216,0.282,0.113,0.065,0.000,165.000,14.000,8.000,0.000,0.000:



0000
0000
0000
0000
,
0000
0000
0000
0000
,
0000
0000
0000
0000
,
0000
0000
0000
0000
,
1000
0000
1000
0000
,
0001
0000
0000
0000
,
0100
0000
0100
0000
,
0010
0000
0000
0000
,
1000
0000
0100
0000
,
0010
0000
0001
0000
,
0010
0000
0100
0000
,
1000
0000
0010
0000
,
0100
0000
0001
0000
,
1000
0000
0100
0000
,
1000
0100
1000
0100
,
0010
0000
0000
0000
,
0001
0000
0100
0000
,
0010
0000
1000
0000
,
0100
0000
0010
0000
,
0001
0010
0001
0000
,
1000
0000
0010
0000
,
0100
0000
0001
0000
,
1000
0000
0010
0000
,
1000
0000
0100
1000
,
0100
0000
0010
0000
,
0001
0000
0010
0100
,
0010
0000
0100
0000
,
1000
0000
0010
1000
,
0010
0000
0100
0000
,
0001
0000
1000
0100
,
1000
0000
0001
0000
,
0010
0000
0000
0000
,
0100
0000
0010
0000
,
1000
0000
0001
0000
,
0100
0000
0010
0000
,
1000
0000
0100
0000
,
1100
0000
0001
0000
,
0100
0000
0010
0000
,
0011
0000
0010
0000
,
0100
0000
1000
0000
,
1001
0000
0010
0000
,
0100
0000
1000
0000
,
0110
0000
0001
0000
,
1000
0000
0100
0000
,
1010
0000
0001
0000
,
0100
0000
0010
0000
,
0101
0000
0010
0000
,
1000
0000
0100
0000
,
0020
0000
0000
0000
,
0002
0000
0000
0033
,
2000
0000
0000
0000
,
0020
0000
0000
3030
,
0200
0000
0000
0000
,
2000
0000
0000
3300
,
0002
0000
0000
0000
,
0020
0000
0000
0033
,
0100
0000
0010
0000
,
1000
0000
0000
0000
,
0001
0000
0100
0000
,
0010
0000
1000
0000
,
1000
0000
0100
0000
,
0010
0000
0001
0000
,
1000
0010
1000
0010
,
1000
0010
1000
0000
,
0001
0000
0100
0000
,
0010
0000
0100
0000
,
1000
0000
0100
0000
,
0010
0000
0001
0000
,
1001
0000
0010
0000
,
0100
0000
0010
0000
,
1100
0000
0001
0000
,
0010
0000
0100
0000
,
0110
0000
0010
0000
,
1000
0000
0100
0000
,
1100
0000
0001
0000
,
0010
0000
0100
0000
,
1010
0000
0010
0000
,
0100
0000
0001
0000
,
0110
0000
0100
0000
,
1000
0000
1001
0000
,
0010
0000
1000
0000
,
0100
0000
0010
0000
,
0001
1000
0001
0000
,
0100
0000
0000
0000
,
0010
0000
1000
0000
,
0100
0000
0010
0000
,
0010
1000
0010
0000
,
0101
0000
0000
0000
;

//---------------dance-single - E. Holniker----------------
#NOTES:
     dance-single:
     E. Holniker:
     Beginner:
     1:
     0.101,0.141,0.000,0.000,0.000,87.000,0.000,0.000,0.000,0.000:



0000
0000
0000
0000
,
0000
0000
0000
0000
,
0000
0000
0000
0000
,
0000
0000
0000
0000
,
0010
0000
0000
0000
,
0010
0000
0000
0000
,
1000
0000
0000
0000
,
1000
0000
0000
0000
,
1000
0000
0000
0000
,
0001
0000
0000
0000
,
0100
0000
0000
0000
,
0010
0000
0000
0000
,
1000
0000
0000
0000
,
0100
0000
0000
0000
,
0010
0000
0000
0000
,
0001
0000
0000
0000
,
0100
0000
0000
0000
,
0010
0000
0000
0000
,
1000
0000
0000
0000
,
0100
0000
0100
0000
,
1000
0000
0000
0000
,
0010
0000
0000
0000
,
0100
0000
0000
0000
,
0001
0000
1000
0000
,
0010
0000
0000
0000
,
0100
0000
0000
0000
,
0001
0000
0000
0000
,
1000
0000
0000
0000
,
0010
0000
0000
0000
,
1000
0000
0000
0000
,
0100
0000
0000
0000
,
0010
0000
0000
0000
,
0001
0000
0000
0000
,
1000
0000
0000
0000
,
0010
0000
0000
0000
,
0100
0000
0000
0000
,
0010
0000
0000
0000
,
1000
0000
0000
0000
,
0010
0000
0000
0000
,
0100
0000
0000
0000
,
0001
0000
0000
0000
,
1000
0000
0000
0000
,
0010
0000
0000
0000
,
0100
0000
0000
0000
,
1000
0000
0000
0000
,
0001
0000
0000
0000
,
0010
0000
0000
0000
,
0100
0000
0000
0000
,
1000
0000
0000
0000
,
0010
0000
0000
0000
,
0100
0000
0000
0000
,
0001
0000
0000
0000
,
1000
0000
0000
0000
,
0010
0000
0000
0000
,
0100
0000
0000
0000
,
1000
0000
0000
0000
,
0010
0000
0100
0000
,
0010
0000
0000
0000
,
1000
0000
0100
0000
,
1000
0000
0000
0000
,
0001
0000
0010
0000
,
0001
0000
0000
0000
,
0100
0000
0010
0000
,
0100
0000
0000
0000
,
1000
0000
0000
0000
,
0010
0000
0000
0000
,
0100
0000
0000
0000
,
0001
0000
0000
0000
,
1000
0000
0000
0000
,
0100
0000
0000
0000
,
0010
0000
0000
0000
,
1000
0000
0000
0000
,
0001
0000
0000
0000
,
0100
0000
0000
0000
,
0010
0000
0000
0000
,
1000
0000
0000
0000
,
0100
0000
0000
0000
,
0010
0000
0000
0000
,
0001
0000
0000
0000
,
1000
0000
0000
0000
,
0010
0000
0000
0000
,
0000
0000
0000
0000
,
0100
0000
0000
0000
,
0000
0000
0000
0000
,
0001
0000
0000
0000
,
0000
0000
0000
0000
,
1000
0000
0000
0000
,
0100
0000
0000
0000
;
