#TITLE:Slayers;
#SUBTITLE:- Midnight Blue;
#ARTIST:林原めぐみ;
#TITLETRANSLIT:;
#SUBTITLETRANSLIT:;
#ARTISTTRANSLIT:Megumi Hayashibara;
#CREDIT:Anime Toshokan;
#BANNER:Slayers - Midnight Blue.png;
#BACKGROUND:Slayers - Midnight Blue bg.png;
#LYRICSPATH:;
#CDTITLE:dejiko.png;
#MUSIC:Slayers - Midnight Blue.mp3;
#OFFSET:1.683;
#SAMPLESTART:77.060;
#SAMPLELENGTH:15.040;
#SELECTABLE:YES;
#BPMS:0.000=129.860;
#STOPS:;
#BGCHANGES:;
// cache tags:
#FIRSTBEAT:19.000;
#LASTBEAT:235.750;
#SONGFILENAME:Songs/DDR Anime 1st Mix/Slayers - Midnight Blue/Slayers - Midnight Blue.sm;
#HASMUSIC:1;
#HASBANNER:1;
#MUSICLENGTH:112.564;
// end cache tags

//---------------dance-single - BASIC----------------
#NOTES:
     dance-single:
     BASIC:
     Easy:
     1:
     0.108,0.104,0.027,0.000,0.000,82.000,3.000,0.000,0.000,0.000:
0000
0000
0000
0000
,
0000
0000
0000
0000
,
0000
0000
0000
0000
,
0000
0000
0000
0000
,
0000
0000
0000
1001
,
0000
0000
0000
0001
,
0000
0001
0000
0001
,
0000
0000
0000
1000
,
0000
1000
0000
1000
,
0000
0000
0000
0010
,
0000
0010
0000
0010
,
0000
0000
0000
1001
,
0000
0000
0000
0100
,
0000
0100
0000
0100
,
0000
0000
0000
1000
,
0000
0001
0000
1000
,
0000
0000
0000
0001
,
0000
1000
0000
0001
,
0000
0000
0000
0010
,
0000
0100
0000
0010
,
0000
0000
0000
0100
,
0000
0010
0000
0100
,
0000
0000
0000
0010
,
0000
1000
0000
0010
,
0000
0000
0000
1000
,
0000
0100
0000
1000
,
0000
0000
0000
1000
,
0000
0010
0000
1000
,
0000
0000
0000
0100
,
0000
0001
0000
0100
,
0000
0000
0000
1000
,
0000
0010
0000
0100
,
0000
0000
0000
0001
,
0000
0010
0000
0100
,
0000
0000
0000
0100
,
0000
0001
0000
0010
,
0000
0000
0000
0100
,
0000
1000
0000
0010
,
0000
0000
0000
0010
,
0000
1000
0000
0100
,
0000
0000
0000
0010
,
0000
0001
0000
0100
,
0000
0000
0000
0010
,
0000
0100
0000
1000
,
0000
0000
0000
1000
,
0000
0100
0000
0010
,
0000
0000
0000
0100
,
0000
0010
0000
0001
,
0000
0000
0000
0001
,
0000
0010
0000
0100
,
0000
0000
0000
1000
,
0000
0010
0000
0100
,
0000
0000
0000
0100
,
0000
0010
0000
1000
,
0000
0000
0000
0001
,
0000
0100
0000
1000
,
0000
0000
0000
1000
,
0000
1000
0000
0001
,
0000
0001
0000
0110
;

//---------------dance-single - ANOTHER----------------
#NOTES:
     dance-single:
     ANOTHER:
     Medium:
     5:
     0.320,0.340,0.346,0.000,0.013,213.000,39.000,0.000,0.000,0.000:
0000
0000
0000
0000
,
0000
0000
0000
0000
,
0000
0000
0000
0000
,
0000
0000
0000
0000
,
0000
0000
0000
1010
,
1000
1000
1000
0011
,
0001
0001
0001
1100
,
0010
0010
0010
0101
,
0100
0100
0100
1001
,
0100
1001
0100
0110
,
0100
1001
1000
0001
,
1001
0110
0001
0100
,
1000
1000
0010
0100
,
0001
0001
0100
0010
,
0100
1001
1000
1000
,
0001
0001
0100
1000
,
1000
0001
0001
0110
,
1000
0010
0001
1000
,
0100
0000
0000
0000
0001
0000
0000
0000
0001
0000
0000
0000
0100
0100
0000
0000
,
1010
0011
1000
0001
,
0001
1000
0100
0100
,
1000
0010
0001
1100
,
0000
1000
0001
1000
,
0001
1000
0000
0101
,
0100
0100
0100
0001
,
0010
1000
0001
0000
,
0010
0100
0010
0110
,
0000
0001
0010
0001
,
0100
0100
0001
0100
,
1000
1100
0100
0010
,
0000
0010
0100
0010
,
0100
0010
0000
1010
,
0001
1000
1000
1000
,
0100
0001
1000
0001
,
0010
0010
0000
1010
,
0011
0001
1000
1001
,
1001
1000
0001
1100
,
0101
0000
0100
0100
,
0100
0000
0100
0000
0010
0000
0000
1000
,
1000
0000
0000
0001
0001
0000
0000
1000
,
1000
1000
0001
1001
,
0010
0100
0110
0100
,
0110
0110
0110
0001
,
0010
0110
0010
1000
,
1000
0001
0010
1001
,
0001
0100
1000
1000
,
0100
1100
0010
0001
,
0001
0010
0100
0011
,
0010
1000
1000
0010
,
0001
1010
1000
0100
,
0010
0001
0100
0101
,
1000
1000
0001
0001
,
1000
1001
0010
0010
,
0001
1000
1000
0001
,
0100
0100
0010
0010
,
1000
1000
0001
0001
,
0100
0100
0001
1000
,
1000
0010
0001
0110
,
0010
0000
0000
0000
0100
0000
0000
0000
1001
0000
0000
0000
1000
0001
1000
0001
;

//---------------dance-single - MANIAC----------------
#NOTES:
     dance-single:
     MANIAC:
     Hard:
     6:
     0.330,0.367,0.275,0.115,0.013,216.000,31.000,13.000,0.000,0.000:
0000
0000
0000
0000
,
0000
0000
0000
0000
,
0000
0000
0000
0000
,
0000
0000
0000
0000
,
0000
0000
0000
2020
,
0000
3030
1010
0022
,
0000
0033
0011
0000
,
0020
1000
1000
0001
,
0001
0030
0100
0200
,
1000
1000
0001
0001
,
0300
1001
1001
1001
,
0110
1001
1000
1000
,
0001
0000
0001
0000
1000
0001
1000
0000
,
0001
0001
1000
1000
,
1000
0001
1000
0000
0010
0000
0100
0000
,
0010
0100
0010
0010
,
0100
0100
1000
0001
,
1000
0000
0001
0000
0001
0000
1000
0100
,
1000
0000
0001
0000
0010
0000
0100
0000
0001
0000
0000
0000
1000
0001
0000
0000
,
1000
0000
1000
0100
1000
0000
0001
0000
,
0001
0100
0001
0000
0100
0000
0010
0100
,
0010
1000
0001
1001
,
0000
1010
0011
1100
,
0101
1000
0001
1000
,
0001
0010
0100
0010
,
0100
1000
0001
1000
,
0000
0100
1000
0001
1001
0000
0000
0000
,
0000
0000
0001
0000
0001
0100
0001
0000
,
1000
0000
1000
0100
1000
0000
0010
0000
,
0100
0000
0010
0000
0100
0010
0100
0000
,
0000
1001
0110
0110
,
1001
0000
0000
0000
0010
0000
0010
1000
,
0100
0000
0010
0000
0010
0001
0100
0000
,
0010
0100
1000
0001
,
1000
0001
1000
0000
0000
0000
1010
0000
,
2020
0000
0000
0000
,
0000
3030
0000
0101
,
0202
0000
0000
0303
,
0000
0000
0100
0000
0010
0000
0000
1000
,
1100
0000
0000
0001
0101
0000
0000
1001
,
1001
0000
0000
1000
0100
0001
0010
0100
,
0020
0000
0000
0030
,
1001
0000
1001
0000
1001
0000
1000
0100
,
1000
0000
1000
0000
0001
0000
0001
0100
,
0001
1000
0001
1000
,
1000
0001
0001
1000
,
0001
0000
1000
0000
0001
0000
1000
0100
,
0001
0000
0001
0000
1000
0000
1000
0100
,
0001
0010
1000
0001
,
0100
1000
0001
0010
,
0100
0000
1000
0000
0001
0000
0010
0100
,
0010
0000
1000
0000
0001
0000
0100
0010
,
0100
1000
0001
0010
,
0100
1000
0001
0100
,
0010
0000
1000
0000
0001
0000
0010
1000
,
0010
0000
1000
0000
0001
0000
0010
0001
,
0010
1000
0001
1000
,
0001
0100
0220
0000
,
0000
0000
0000
0000
0000
0000
0000
0000
0330
0000
0000
0000
1000
0001
1000
0001
;

//---------------dance-single - BEGINNER----------------
#NOTES:
     dance-single:
     BEGINNER:
     Beginner:
     1:
     0.105,0.130,0.018,0.000,0.000,81.000,2.000,0.000,0.000,0.000:
0000
0000
0000
0000
,
0000
0000
0000
0000
,
0000
0000
0000
0000
,
0000
0000
0000
0000
,
0000
0000
0000
0000
,
1001
0000
0000
0000
,
0001
0000
0001
0000
,
0001
0000
0000
0000
,
1000
0000
1000
0000
,
1000
0000
0000
0000
,
0010
0000
0010
0000
,
0010
0000
0000
0000
,
1001
0000
0000
0000
,
0100
0000
0100
0000
,
0100
0000
0000
0000
,
1000
0000
0001
0000
,
1000
0000
0000
0000
,
0001
0000
1000
0000
,
0001
0000
0000
0000
,
0010
0000
0100
0000
,
0010
0000
0000
0000
,
0100
0000
0010
0000
,
0100
0000
0000
0000
,
0010
0000
1000
0000
,
0010
0000
0000
0000
,
1000
0000
0100
0000
,
1000
0000
0000
0000
,
1000
0000
0010
0000
,
1000
0000
0000
0000
,
0100
0000
0001
0000
,
0100
0000
0000
0000
,
1000
0000
0010
0000
,
0100
0000
0000
0000
,
0001
0000
0010
0000
,
0100
0000
0000
0000
,
0100
0000
0001
0000
,
0010
0000
0000
0000
,
0100
0000
1000
0000
,
0010
0000
0000
0000
,
0010
0000
1000
0000
,
0100
0000
0000
0000
,
0010
0000
0001
0000
,
0100
0000
0000
0000
,
0010
0000
0100
0000
,
1000
0000
0000
0000
,
1000
0000
0100
0000
,
0010
0000
0000
0000
,
0100
0000
0010
0000
,
0001
0000
0000
0000
,
0001
0000
0010
0000
,
0100
0000
0000
0000
,
1000
0000
0010
0000
,
0100
0000
0000
0000
,
0100
0000
0010
0000
,
1000
0000
0000
0000
,
0001
0000
0100
0000
,
1000
0000
0000
0000
,
1000
0000
1000
0000
,
0001
0000
0001
0000
;
