#TITLE:It's Like That;
#SUBTITLE:;
#ARTIST:RUN DMC vs. JASON NEVINS;
#TITLETRANSLIT:;
#SUBTITLETRANSLIT:;
#ARTISTTRANSLIT:;
#CREDIT:;
#BANNER:It's Like That.png;
#BACKGROUND:It's Like That-bg.png;
#LYRICSPATH:It's Like That.lrc;
#CDTITLE:./CDTITLES/DANCING STAGE.PNG;
#MUSIC:It's Like That.mp3;
#OFFSET:-3.758;
#SAMPLESTART:7.460;
#SAMPLELENGTH:12.000;
#SELECTABLE:YES;
#DISPLAYBPM:129.000;
#BPMS:0.000=129.030;
#STOPS:;
#BGCHANGES:;
// cache tags:
#FIRSTBEAT:4.000;
#LASTBEAT:184.000;
#SONGFILENAME:Songs/Dancing Stage/It's Like That/It's Like That.sm;
#HASMUSIC:1;
#HASBANNER:1;
#MUSICLENGTH:90.226;
// end cache tags

//---------------dance-single - ----------------
#NOTES:
     dance-single:
     :
     Easy:
     2:
     0.233,0.304,0.188,0.000,0.000,130.000,17.000,0.000,0.000,0.000:  // measure 1
0000
0000
0000
0000
,  // measure 2
0010
0010
0010
0010
,  // measure 3
0100
1000
0000
1000
,  // measure 4
0000
0001
0000
0001
,  // measure 5
0100
0001
0000
0001
,  // measure 6
0000
1000
0000
1000
,  // measure 7
0100
1000
0000
0001
,  // measure 8
0000
0100
0000
1000
,  // measure 9
0100
1001
0000
0001
,  // measure 10
0000
0001
0000
0010
,  // measure 11
0100
0100
0000
1000
,  // measure 12
0000
0001
0000
0001
,  // measure 13
0010
0100
0000
0100
,  // measure 14
0000
0100
0000
1000
,  // measure 15
0100
0001
0000
0100
,  // measure 16
0000
1000
0000
0110
,  // measure 17
1000
1001
0000
0010
,  // measure 18
0000
1000
0000
0001
,  // measure 19
0110
1000
0000
1000
,  // measure 20
0000
1000
0000
1000
,  // measure 21
0000
1000
0000
1000
,  // measure 22
0000
0000
0000
0000
,  // measure 23
1001
0100
0100
0100
,  // measure 24
0001
0100
0100
0100
,  // measure 25
1001
0010
0010
0010
,  // measure 26
1000
0100
0100
0100
,  // measure 27
0110
0001
0001
0001
,  // measure 28
1000
0100
0100
0100
,  // measure 29
0010
1001
0000
0001
,  // measure 30
0000
0001
0000
0001
,  // measure 31
1001
1000
1000
0000
,  // measure 32
1001
0001
0001
0000
,  // measure 33
1001
1000
0001
1000
,  // measure 34
0110
0001
1001
0100
,  // measure 35
1000
1000
1000
0001
,  // measure 36
0010
0010
0100
0100
,  // measure 37
0010
1001
0000
0100
,  // measure 38
0000
0100
0000
0100
,  // measure 39
1001
0010
0000
0010
,  // measure 40
0000
0100
0000
0100
,  // measure 41
1000
1000
0001
0001
,  // measure 42
0010
0010
0100
0100
,  // measure 43
0000
1000
0000
1000
,  // measure 44
0000
0001
0000
0001
,  // measure 45
1001
0000
1001
0000
,  // measure 46
0100
0100
0100
0100
;

//---------------dance-single - ----------------
#NOTES:
     dance-single:
     :
     Medium:
     4:
     0.301,0.327,0.222,0.000,0.000,170.000,20.000,0.000,0.000,0.000:  // measure 1
0000
0000
0000
0000
,  // measure 2
0010
1000
0100
0001
,  // measure 3
0110
1000
0100
1000
,  // measure 4
0001
0100
0001
0100
,  // measure 5
0110
0001
1000
0001
,  // measure 6
1000
0100
1000
0100
,  // measure 7
0110
1000
0001
0100
,  // measure 8
0001
0100
0001
0100
,  // measure 9
1001
0110
1000
0100
,  // measure 10
1000
0100
0001
0100
,  // measure 11
0110
0001
0100
0001
,  // measure 12
0100
0001
0100
0100
,  // measure 13
0010
0100
0010
0100
,  // measure 14
0001
1000
0100
0100
,  // measure 15
1001
0001
0100
0100
,  // measure 16
0001
1000
0100
0100
,  // measure 17
0110
1001
0000
0100
,  // measure 18
0000
0100
0000
0100
,  // measure 19
1001
1000
1000
1000
,  // measure 20
0001
0001
0001
0001
,  // measure 21
1000
1000
1000
1000
,  // measure 22
0000
0000
0000
0000
,  // measure 23
1001
0100
1000
0100
,  // measure 24
0001
0000
0100
0000
0001
0001
0001
0000
,  // measure 25
1001
0010
0100
0100
,  // measure 26
1000
0000
0100
0000
1000
1000
1000
0000
,  // measure 27
0110
0001
1000
0100
,  // measure 28
0001
0000
0100
0000
0001
0001
0001
0000
,  // measure 29
0110
1001
0000
0100
,  // measure 30
0000
0100
0000
0100
,  // measure 31
1001
0000
1000
0000
0001
0001
0000
0000
,  // measure 32
0010
1000
0001
0100
0000
0000
0000
0000
,  // measure 33
1001
1000
0000
1000
,  // measure 34
0010
1000
0001
0100
0000
0000
0000
0000
,  // measure 35
1000
1000
1000
0000
,  // measure 36
0001
0001
0001
0010
,  // measure 37
1001
0110
0000
0100
,  // measure 38
0000
0100
0000
0100
,  // measure 39
0110
0010
0100
0010
,  // measure 40
1000
0001
1000
0001
,  // measure 41
1000
1000
1000
0000
0001
0001
0001
0000
,  // measure 42
0100
0100
0100
0000
0010
0010
0010
0000
,  // measure 43
0001
1000
0001
1000
,  // measure 44
0100
1000
0100
1000
,  // measure 45
0000
0001
0000
0001
,  // measure 46
0100
0100
0010
0010
0000
0000
0000
0000
;

//---------------dance-single - ----------------
#NOTES:
     dance-single:
     :
     Hard:
     5:
     0.348,0.382,0.222,0.000,0.000,200.000,20.000,0.000,0.000,0.000:  // measure 1
0000
0000
0000
0000
,  // measure 2
0010
1000
0010
1000
,  // measure 3
0101
0000
1000
0000
0100
1000
0100
0000
,  // measure 4
0001
0000
0100
0000
0001
0100
0001
0000
,  // measure 5
1001
0001
1000
0001
,  // measure 6
1000
0000
0100
0000
1000
0100
1000
0000
,  // measure 7
0110
1000
0001
0100
,  // measure 8
0001
0000
0100
0000
0001
0100
1000
0000
,  // measure 9
0101
1010
1000
0100
,  // measure 10
0000
0000
0100
0100
0000
0000
0100
0000
,  // measure 11
0110
0001
0100
0001
,  // measure 12
0100
0000
0001
0000
0100
0001
0100
0000
,  // measure 13
0010
0100
0010
0100
,  // measure 14
0001
0000
1000
0000
0100
1000
0100
0000
,  // measure 15
0001
1000
0001
0000
0100
0000
0100
0000
,  // measure 16
0001
1000
0100
0100
,  // measure 17
1100
0011
0000
0100
,  // measure 18
0000
0100
0000
0100
,  // measure 19
1001
0000
1000
0000
1000
1000
1000
0000
,  // measure 20
0001
0000
0001
0000
0001
0001
0001
0000
,  // measure 21
1000
0000
1000
0000
1000
1000
1000
0000
,  // measure 22
0000
0000
0000
0000
,  // measure 23
1001
0100
1000
0001
0100
0000
0100
0000
,  // measure 24
0001
0000
1000
0000
0100
0100
0100
0000
,  // measure 25
1000
0001
0100
0000
0010
0000
0010
0000
,  // measure 26
1000
0100
1000
0001
,  // measure 27
0110
0001
1000
0100
,  // measure 28
0001
0000
0100
0000
0010
0010
0010
0000
,  // measure 29
0101
1010
0001
0100
,  // measure 30
0000
0000
0100
0100
0000
0000
0100
0000
,  // measure 31
1001
0100
1000
0000
0001
0001
1000
0000
,  // measure 32
0001
0001
1000
0100
0000
0100
0100
0010
,  // measure 33
0010
1000
1000
0001
0001
0100
0000
0010
,  // measure 34
0010
1000
0001
0100
0100
0000
0000
0000
,  // measure 35
1000
0000
0000
0000
1001
0000
0010
1000
,  // measure 36
0100
0100
0000
0000
0000
0000
0010
0000
,  // measure 37
0101
1010
0000
0100
,  // measure 38
0000
0000
0100
0100
0000
0000
0000
0000
,  // measure 39
0100
0000
1001
0000
0010
0000
0100
0100
,  // measure 40
0010
0000
1000
0000
0001
0000
1000
1000
,  // measure 41
0001
0000
1000
0001
1000
0000
0001
0010
,  // measure 42
0001
0000
0100
0010
0100
0000
0010
1000
,  // measure 43
0100
0000
0001
1000
1000
0001
0100
0000
,  // measure 44
0000
0000
0100
0001
0001
1000
0100
0000
,  // measure 45
0000
0010
1001
1000
,  // measure 46
0100
0001
0100
0010
,  // measure 47
1001
0000
0000
0000
;
