#TITLE:To Heart;
#SUBTITLE:- Feeling Heart [Remix];
#ARTIST:Nakatsukasa Masami;
#TITLETRANSLIT:;
#SUBTITLETRANSLIT:;
#ARTISTTRANSLIT:;
#CREDIT:Anime Toshokan;
#BANNER:To Heart - Feeling Heart [Remix].png;
#BACKGROUND:To Heart - Feeling Heart [Remix] bg.png;
#LYRICSPATH:;
#CDTITLE:dejiko.png;
#MUSIC:To Heart - Feeling Heart [Remix].mp3;
#OFFSET:-0.620;
#SAMPLESTART:75.460;
#SAMPLELENGTH:16.200;
#SELECTABLE:YES;
#DISPLAYBPM:119.000;
#BPMS:0.000=118.500,208.000=111.000,209.000=118.500;
#STOPS:;
#BGCHANGES:19.000=To Heart - Feeling Heart [Remix].avi=1.000=0=0=1,
214.000=To Heart - Feeling Heart [Remix] bg.png=1.000=0=0=1,
99999=-nosongbg-=1.000=0=0=0 // don't automatically add -songbackground-
;
// cache tags:
#FIRSTBEAT:7.500;
#LASTBEAT:219.000;
#SONGFILENAME:Songs/DDR Anime 4th Mix/To Heart - Feeling Heart [Remix]/To Heart - Feeling Heart [Remix].sm;
#HASMUSIC:1;
#HASBANNER:1;
#MUSICLENGTH:115.150;
// end cache tags

//---------------dance-single - BASIC----------------
#NOTES:
     dance-single:
     BASIC:
     Easy:
     3:
     0.244,0.262,0.243,0.096,0.000,158.000,28.000,11.000,0.000,0.000:
0000
0000
0000
0000
,
0000
0000
0000
0000
,
0100
0100
0010
0010
,
1000
1000
0001
0001
,
0010
0010
0100
0100
,
0110
0000
0000
1001
,
0000
0001
0001
1000
,
1000
0001
0001
1000
,
1000
0001
1000
0101
,
0000
0000
0010
0000
0000
1100
0000
0000
,
0010
1000
0010
0000
,
0010
1000
0010
0000
,
0010
0001
1100
1001
,
0101
0000
0000
0000
,
0100
0001
0100
0000
,
0100
1000
1100
0000
,
0000
0020
0030
0100
,
0100
0010
0010
1001
,
0001
0010
1000
0000
,
0010
0001
0100
0000
,
0010
0100
0010
0020
,
0200
0330
0000
1001
,
0001
0010
1100
0000
,
0001
0100
0010
1000
,
0200
0000
0302
0000
,
2003
0000
0000
3000
0010
0000
0010
0000
,
0010
0000
0001
0100
,
1000
1100
0000
0001
,
1000
0001
0001
1000
,
0110
0000
0000
1000
,
0001
0010
0100
1000
,
0110
0100
0100
0100
,
0010
0010
0010
0001
,
0001
0001
1000
1000
,
1001
0000
0000
0000
,
0110
0000
0000
0000
0000
0000
0000
2002
,
0000
0000
0000
3003
,
0100
0100
0010
0010
,
1000
0001
1000
0100
,
0001
0000
0000
0000
,
1000
0001
0010
0110
,
0110
0000
0010
0010
,
0100
0100
0010
1000
,
0001
0010
0100
1000
,
0020
0000
0030
0000
,
0010
0001
0100
0001
,
0010
0000
1000
0001
,
0010
1001
1001
1001
,
0100
1000
0100
0100
,
0101
0000
0100
0010
,
0001
1000
0001
0000
,
0010
0000
0110
0000
,
1001
0000
0010
0000
,
0110
0000
0110
0000
,
2002
0000
0000
3003
;

//---------------dance-single - ANOTHER----------------
#NOTES:
     dance-single:
     ANOTHER:
     Medium:
     6:
     0.347,0.380,0.243,0.148,0.000,235.000,28.000,17.000,0.000,0.000:
0000
0000
0000
0000
,
0000
0000
0000
0000
0000
0000
0000
0100
,
1000
0000
0100
0001
0000
0000
0100
1000
,
0000
0000
0100
0001
0000
0000
0100
1000
,
0000
0000
0100
0001
0000
1000
0000
0100
,
0000
0000
0010
0100
0000
0000
1001
0000
,
0000
0000
0001
0100
0000
0000
1000
0100
,
0000
0000
0001
0100
0000
0000
1000
0001
,
1000
0000
0001
1000
0000
1000
0001
1000
,
0000
0010
0010
0000
0100
0110
0000
0000
,
0010
0000
0000
0000
1000
0000
0200
0300
0000
0000
0000
0000
0100
0000
0000
0000
,
0010
0000
0000
0000
0001
0000
0020
0030
0000
0000
0000
0000
0000
0000
0010
0000
,
0100
0010
1000
0001
0010
0000
1010
0000
,
1010
0000
0101
0000
0001
1000
0001
0000
,
0200
0000
0000
0300
0000
0000
0001
0000
0100
0000
0000
0000
0100
0000
0000
0000
,
0200
0000
0000
0300
0000
0000
1000
0000
0100
0000
0000
0000
0001
0000
0000
0000
,
1000
0000
0020
0000
0030
0001
0100
1000
,
0100
0000
0000
1000
1010
0000
0000
0001
,
0010
0100
1000
0100
0010
0000
0000
0000
,
0010
0001
0010
0001
0100
1000
0001
0000
,
0020
0000
0000
0030
0000
0000
0100
0000
0100
0000
0000
0000
0020
0000
0030
0000
,
0020
0000
0000
0000
0000
0030
0000
0000
0000
0000
0000
0000
1001
0000
0000
0000
,
0110
0000
0010
1000
1000
0000
0010
0000
,
0001
1000
0100
0001
0100
1000
0100
0010
,
0200
0000
0320
0000
,
0230
0000
0000
0300
0100
0000
0110
0000
,
0100
0000
0000
0001
0001
1000
1000
0100
,
0100
0000
0000
0000
1000
0000
0001
0010
,
1000
0000
0000
0010
0001
1000
0010
0100
,
0100
0000
0000
0000
1001
0000
0001
0100
,
0001
0000
0000
0010
0100
0010
1000
0001
,
0010
0000
0110
0000
0010
0000
0000
0100
,
0001
0000
0000
0100
1000
0000
0000
0100
,
0001
0000
0000
0100
1000
0000
0000
0010
,
1001
0000
0000
0000
0000
0000
0010
1000
,
0001
0000
0000
0001
1000
0001
1000
0002
,
0000
0000
0000
0003
,
0100
1000
0010
0100
0001
0100
0001
0000
,
1000
0010
0100
0010
1000
0001
0100
0000
,
1001
0100
0100
0100
,
1000
0100
0001
0100
1000
0000
0110
0000
,
0110
0000
0010
1100
,
0101
0100
0100
0100
,
0001
0001
1000
1000
,
0020
0030
0000
0200
0300
0000
0000
0000
,
0010
0001
0100
1000
0100
0010
0001
0000
,
0001
1000
0100
0010
1000
0001
1000
0000
,
0110
0110
0110
0110
,
0100
0000
1000
0001
1000
0000
0100
0000
,
0010
0000
1000
0001
1000
0000
0100
0000
,
0100
0000
0100
0010
0100
0000
0000
0100
,
0020
0000
0000
0000
0000
0030
0000
0000
0110
0000
0000
0000
0000
0000
0000
0000
,
1001
0000
0110
0000
0001
0000
0000
0100
,
0100
1001
0110
1001
,
0220
0000
0000
0330
;

//---------------dance-single - MANIAC----------------
#NOTES:
     dance-single:
     MANIAC:
     Hard:
     7:
     0.411,0.428,0.373,0.139,0.104,272.000,43.000,16.000,0.000,0.000:
0000
0000
0000
0000
,
0000
0000
0000
0000
0000
0000
0000
0000
0000
0000
0000
0000
0000
0000
0100
0010
,
1000
0000
0010
0001
0000
0000
0100
1000
,
0000
0000
0010
0001
0000
0010
0100
1000
,
0100
0000
0001
0001
0000
1000
0000
0100
,
0000
0000
0110
0110
0000
0000
1001
0000
,
0110
0000
0001
0100
0000
0000
1000
0100
,
0000
0000
0001
0100
0000
0000
0001
0010
,
1000
0000
0001
1000
0000
0001
0010
1000
,
0000
0010
0010
0000
1001
1001
0000
0000
,
0010
0000
0000
0000
1000
0000
0100
0010
0000
0000
0000
0000
0001
0000
0000
0000
,
0010
0000
0000
0000
1000
0000
0100
0010
0000
0000
0000
0000
0000
0000
0010
0000
,
0010
0000
0000
1000
0000
0000
0001
0000
0110
0000
0000
0000
1100
0000
0000
0000
,
0101
0000
1000
0000
0001
1000
0001
0000
,
0100
0000
0000
0010
0000
0000
0001
0000
0100
0000
0000
0000
0001
0000
0000
0000
,
0010
0000
0000
0100
0000
0000
1000
0000
0110
0000
0000
0000
0001
0000
0000
0000
,
1000
0000
0002
0000
0003
1000
0100
1000
,
0100
0000
0000
0010
0110
0000
1001
0001
,
0001
0000
0100
0000
0010
0000
0100
0001
0000
0000
0000
0000
1100
0000
0000
0000
,
0010
0000
0010
1000
0100
0000
0001
0000
,
0010
0000
0000
1000
0000
0000
0100
0000
0010
0000
0000
0000
0002
0000
0000
0000
,
2000
3003
0000
1001
,
0001
0000
0000
0010
0000
0000
1000
0000
1100
0000
0000
0000
0010
0000
0000
0000
,
0001
0000
0000
0010
0000
0000
0001
0000
0100
0000
1000
0000
0100
0000
0010
0000
,
0200
0000
0302
0000
,
2003
0000
0000
3000
1100
0000
0110
0000
,
0011
0000
0000
0000
0000
0000
0001
0000
0001
0000
0000
0010
0000
0000
0100
0010
,
0100
0000
1100
0000
0010
0000
0001
0100
,
1000
0000
0000
0000
0000
0000
0010
0000
0001
0000
0000
0100
0000
0000
0100
0010
,
0100
0000
0001
0000
1000
0000
0001
1000
,
0001
0000
0000
0000
0000
0000
0010
0000
0100
0000
0000
0000
1000
0000
0100
0010
,
0100
0000
1001
0000
1001
0000
1001
0001
,
0001
0000
0000
0000
0000
0000
0100
0000
0100
0000
0000
1000
0000
0000
0100
0000
,
0001
0000
0000
0010
0000
0000
0100
0000
1000
0000
0000
0010
0000
0000
1001
0000
,
1001
0000
0000
0000
0000
0000
0010
0100
,
0110
0000
0000
0001
1000
0001
1001
2002
,
0000
0000
0000
3003
,
0100
1000
0100
0010
0001
1000
0100
0010
,
1000
0000
0001
0000
0100
0000
0010
0000
1000
0000
0100
0000
0010
0000
0001
1000
,
0001
0000
0000
0000
2000
0000
3000
0000
0002
0000
0003
0200
0300
0000
0100
0000
,
1000
0010
0001
1000
0100
0010
1100
0000
,
0101
0000
0000
0000
0010
0010
0010
0100
,
0100
0000
0100
0000
0010
1000
0100
0010
,
0001
0010
0100
1000
0100
0010
0001
1000
,
0200
0300
0000
0200
0300
0000
1001
0000
,
0010
0100
0001
1000
0100
0010
0001
0100
,
0020
0000
0000
0000
0030
0000
0001
0000
1000
0000
0010
0000
0001
0000
1000
0100
,
0010
0000
0000
0000
0110
0000
0000
0000
0110
0000
0000
1001
0000
0000
0010
0000
,
0100
0010
1000
0001
1000
0010
0100
0010
,
1001
0000
0000
0000
0100
0001
0100
1000
,
0001
0000
0100
0000
0100
0000
0100
0000
0001
0000
0000
1000
0000
0000
0100
0000
,
0010
0000
1001
0000
0110
0000
0000
1001
,
1001
0000
0000
0000
0110
0000
0000
0000
0001
0000
0000
1000
0000
0000
0010
0000
,
0100
0000
1001
0000
0110
0000
0000
1001
,
2002
0000
0000
3003
;

//---------------dance-single - BEGINNER----------------
#NOTES:
     dance-single:
     BEGINNER:
     Beginner:
     2:
     0.153,0.214,0.174,0.052,0.000,97.000,20.000,6.000,0.000,0.000:
0000
0000
0000
0000
,
0000
0000
0000
0000
,
0100
0000
0010
0000
,
1000
0000
0001
0000
,
0010
0000
0100
0000
,
0110
0000
0000
1001
,
0000
0001
0001
0000
,
1000
0000
0001
0000
,
1000
0000
1000
0000
,
0000
0010
0000
0000
,
0010
0000
0010
0000
,
0010
0000
0010
0000
,
0010
0000
1100
0000
,
0101
0000
0000
0000
,
0100
0000
0100
0000
,
0100
0000
1100
0000
,
0000
0000
0000
0100
,
0100
0000
0010
0000
,
0001
0000
1000
0000
,
0010
0000
0100
0000
,
0010
0000
0010
0000
,
0200
0300
0000
1001
,
0001
0000
1100
0000
,
0001
0000
0010
0000
,
0100
0000
0001
0000
,
1000
0000
0010
0000
,
0010
0000
0001
0000
,
1000
0000
0000
0001
,
1000
0000
0001
0000
,
0110
0000
0000
1000
,
0001
0000
0100
0000
,
0110
0000
0100
0000
,
0010
0000
0010
0000
,
0001
0000
1000
0000
,
1001
0000
0000
0000
,
0110
0000
0000
0000
,
2002
0000
3003
0000
,
0100
0000
0010
0000
,
1000
0000
1000
0000
,
0001
0000
0000
0000
,
1000
0000
0010
0000
,
0110
0000
0010
0000
,
0100
0000
0010
0000
,
0001
0000
0100
0000
,
0020
0000
0030
0000
,
0010
0000
0100
0000
,
0010
0000
1000
0000
,
0010
0000
1001
0000
,
0100
0000
0100
0000
,
0101
0000
0100
0000
,
0001
0000
0001
0000
,
0010
0000
0110
0000
,
1001
0000
0010
0000
,
0110
0000
0110
0000
,
2002
0000
0000
3003
;
