#TITLE:Erm;
#SUBTITLE:;
#ARTIST:DJ Lucien;
#TITLETRANSLIT:;
#SUBTITLETRANSLIT:;
#ARTISTTRANSLIT:;
#CREDIT:Kalazor;
#BANNER:Erm banner.png;
#BACKGROUND:Erm background.png;
#LYRICSPATH:;
#CDTITLE:;
#MUSIC:Erm.mp3;
#OFFSET:-0.020;
#SAMPLESTART:99.960;
#SAMPLELENGTH:12.000;
#SELECTABLE:YES;
#BPMS:0.000=120.000;
#STOPS:;
#BGCHANGES:;
// cache tags:
#FIRSTBEAT:0.000;
#LASTBEAT:305.500;
#SONGFILENAME:Songs/StepMix 1/Erm/Erm.sm;
#HASMUSIC:1;
#HASBANNER:1;
#MUSICLENGTH:153.059;
// end cache tags

//---------------dance-single - ----------------
#NOTES:
     dance-single:
     :
     Hard:
     9:
     0.619,0.674,0.653,0.412,0.225,500.000,100.000,63.000,0.000,19.000:
0110
0000
0000
0000
0110
0000
0000
1000
0100
0000
0000
0000
0011
0000
1001
0000
,
0001
0100
0001
0000
1000
0000
0001
0000
0100
0000
0001
0000
0010
0000
0001
0000
,
0001
0100
0001
0000
1000
0000
0001
0000
1000
0000
0010
0000
0001
0000
1000
0000
,
0001
0100
0001
0000
0010
0000
0100
0000
1000
0000
0100
0000
1000
0000
0010
0000
,
1000
0100
1000
0000
0010
0000
1000
0000
0001
0000
1000
0000
0010
0000
1000
0000
,
1001
0100
0010
1001
0100
1001
0001
0010
,
1100
0010
0001
2020
0000
3030
0100
0100
,
1010
0100
0001
1010
0100
1010
0100
1000
,
0220
0000
0000
0000
0000
0000
0000
0000
0000
0000
0000
0000
0000
0000
0000
0030
0300
0000
0110
0000
0000
0110
0000
0000
,
0110
1000
0001
0110
1000
0110
0001
0010
,
0101
0010
0100
2002
0000
0000
3103
0100
,
0011
0100
0100
1010
0100
0110
0100
0100
,
2002
0000
0000
0000
0000
3003
1001
0100
,
2002
0000
0010
3003
,
0202
0000
1000
0303
,
0220
0000
0001
0330
,
2020
0000
0001
3030
,
2002
0000
0000
0000
,
0020
0000
0000
0033
,
3000
0000
0100
0010
0000
0010
0100
0000
1000
0100
0000
0010
0100
0000
0010
1000
,
0000
0000
0001
0100
0000
1000
0100
0000
0010
0100
0000
1000
0100
0000
0001
0010
,
1000
0010
0100
1000
,
2000
0000
0000
0000
0200
0000
0000
0000
3020
0000
0330
0000
0000
0000
0000
0100
0000
0000
1000
0000
0000
0100
0000
0000
,
0020
0000
0000
0000
0002
0000
0000
0000
0230
0000
0000
0000
0303
0000
0000
0010
0000
0000
1000
0000
0000
0100
0000
0000
,
0020
0000
0000
0000
2000
0000
0000
0000
0230
0000
0000
0000
3300
0000
0000
0001
0000
0000
0010
0000
0000
0100
0000
0000
,
2002
0000
0000
0000
0000
0000
0000
3003
,
0010
0100
0010
0100
0010
0000
1000
0000
1000
0000
0001
0000
0001
0000
0100
0000
,
0100
0000
0001
0000
0001
0000
0100
0000
0100
0000
0100
0000
0010
1000
0010
1000
,
0001
1000
0001
1000
0001
0010
0001
0010
0001
0000
0100
0000
0100
0000
1000
0000
,
1000
0000
0100
0000
0100
0000
1000
0100
1000
0100
1000
0000
0001
0010
0001
0010
,
0100
0100
0100
0001
0001
0001
0010
0010
,
0010
0000
0100
0000
0100
0000
0100
0000
0001
0000
0001
0000
0010
1000
0010
1000
,
0010
0100
0100
1000
1000
0001
0001
0010
,
0010
0000
0010
0000
0010
0000
0100
0001
0100
0001
0100
0001
0010
1000
0010
1000
,
0200
0001
0001
0001
,
0002
0000
0000
0010
0000
0000
0010
0000
0000
0010
0000
0303
,
0002
0000
1000
1000
,
2000
0000
0010
3000
,
1003
1000
1000
1000
1000
1000
1000
1000
,
2200
0000
0000
3000
2000
0000
0000
3300
1000
0000
0000
0000
0011
0000
0000
0000
1000
0000
0000
0000
0011
0000
0000
0000
1000
0000
0000
0000
1000
0000
0000
0000
,
2200
0000
0000
3000
2000
0000
0000
3300
1000
0000
0000
0000
0011
0000
0000
0000
1000
0000
0000
0000
0011
0000
0000
0000
1000
0000
0000
0000
1000
0000
0000
0000
,
1100
1000
1100
1000
1100
1000
1100
1000
,
1000
1000
0010
0010
0100
0100
0010
0010
,
1000
0000
1000
0000
1000
0000
0010
0001
0010
0001
0010
0001
0100
1000
0100
1000
,
0200
0000
0000
2000
0000
0000
0302
0000
,
0000
3200
0000
0000
2303
0000
3200
0320
,
0031
1010
0101
0110
,
1001
0110
1010
0101
,
0110
0000
0100
0100
0001
0010
0001
1000
,
0101
0000
1000
1000
0100
0010
0100
0001
,
0110
0000
1000
1000
0010
0100
1000
0001
,
0110
0000
1000
0100
1000
0100
0010
0001
,
0002
0000
0000
0000
0000
0000
0000
0000
0010
0100
0000
0000
0003
0000
0000
0000
0000
0000
0010
0000
0000
0000
0000
0000
0000
0000
0000
0000
0000
0000
1100
0000
0000
0000
0000
0000
0001
0000
0000
0000
0000
0000
1100
0000
0000
0000
0000
0000
,
0020
0000
0000
0000
0000
0000
0000
0000
0100
0001
0000
0000
0030
0000
0000
0000
0000
0000
1000
0000
0000
0000
0000
0000
0000
0000
0000
0000
0000
0000
0110
0000
0000
0000
0000
0000
1000
0000
0000
0000
0000
0000
0101
0000
0000
0000
0000
0000
,
0002
0000
0000
0000
0000
0000
0000
0000
0010
0100
0000
0000
0003
0000
0000
0000
0000
0000
1000
0000
0000
0000
0000
0000
0000
0000
0000
0000
0000
0000
1100
0000
0000
0000
0000
0000
0001
0000
0000
0000
0000
0000
0110
0000
0000
0000
0000
0000
,
2000
0000
0000
0000
0000
0000
0000
0000
0010
0100
0000
0000
3000
0000
0000
0000
0000
0000
0010
0000
0000
0000
0000
0000
0000
0000
0000
0000
0000
0000
1001
0000
0000
0000
0000
0000
0010
0000
0000
0000
0000
0000
1001
0000
0000
0000
0000
0000
,
1100
0000
0000
0000
0110
0000
0000
0000
0000
0011
0000
0000
0000
0000
0000
1100
0000
0000
0000
0000
0000
0011
0000
0000
,
0011
0000
0000
0000
0110
0000
0000
0000
0000
1100
0000
0000
0000
0000
0000
0011
0000
0000
0000
0000
0000
0011
0000
0000
,
2000
3000
0001
0100
0010
0000
0001
0100
0010
0000
1000
0100
0010
0000
1000
0100
,
0010
0000
0001
0010
0100
0000
1000
0100
0010
0000
0001
0010
0100
0000
1000
0100
,
0010
0000
0000
0100
1000
0000
0000
0100
1000
0000
0000
0000
0010
0000
0000
0100
0000
0000
0001
0000
0000
1000
0000
0000
,
1010
0100
0110
0001
,
1010
0000
0010
0000
0010
0001
1000
0100
,
1000
0001
0010
0100
0011
1000
0100
0011
,
1000
0001
0010
0001
0110
1000
0010
1001
,
0100
0001
1100
0010
0011
0010
1000
1100
,
0010
0100
0001
0010
1100
0100
1000
0110
,
0010
1000
0101
1000
2020
0000
0000
0000
,
0000
0000
0000
0000
0000
0000
0000
0200
0002
0000
0000
0000
0000
0000
0000
0000
,
0000
0000
0000
0000
0000
0300
0003
0030
0020
0000
0000
0000
0000
0030
0020
0000
,
0000
0030
0020
0000
0000
0030
0020
0030
0020
0000
0000
0000
0000
0000
0000
0000
,
0000
0000
0000
0000
0000
0000
0000
3030
0100
0000
0100
0000
1010
0000
0000
1010
,
0000
0000
0100
0000
0010
0000
0001
0000
0100
0000
0100
0000
1010
0000
0000
0110
,
0000
0100
1000
0100
0010
0101
0010
1010
,
0100
0110
0001
1001
0100
1010
0100
0101
,
0010
1010
0100
0101
1100
0010
1010
0100
,
0101
0010
2002
3103
0000
0000
0000
0000
;

//---------------dance-single - Copied from----------------
#NOTES:
     dance-single:
     Copied from:
     Beginner:
     1:
     0.074,0.100,0.000,0.013,0.000,77.000,0.000,2.000,0.000,0.000:
1000
0000
0000
0000
,
0001
0000
0000
0000
,
0001
0000
0000
0000
,
0100
0000
0000
0000
,
0010
0000
0000
0000
,
1000
0000
0000
0000
,
0100
0000
0000
0000
,
0010
0000
0000
0000
,
0001
0000
0000
0000
,
0100
0000
0000
0000
,
1000
0000
0000
0000
,
0010
0000
0000
0000
,
1000
0000
0000
0000
,
0001
0000
0000
0000
,
0100
0000
0000
0000
,
0010
0000
0000
0000
,
1000
0000
0000
0000
,
0020
0000
0000
0030
,
2000
0000
0000
3000
,
0010
0000
0000
0000
,
0001
0000
0000
0000
,
0100
0000
0000
0000
,
0010
0000
0000
0000
,
1000
0000
0000
0000
,
0001
0000
0000
0000
,
0100
0000
0000
0000
,
0010
0000
0000
0000
,
0001
0000
0000
0000
,
1000
0000
0000
0000
,
0010
0000
0000
0000
,
1000
0000
0000
0000
,
0010
0000
0000
0000
,
0001
0000
0000
0000
,
0100
0000
0000
0000
,
0010
0000
0000
0000
,
1000
0000
0000
0000
,
0001
0000
0000
0000
,
0100
0000
0000
0000
,
0010
0000
0000
0000
,
1000
0000
0000
0000
,
0001
0000
0000
0000
,
0100
0000
0000
0000
,
0010
0000
0000
0000
,
1000
0000
0000
0000
,
0001
0000
0000
0000
,
1000
0000
0000
0000
,
0100
0000
0000
0000
,
0010
0000
0000
0000
,
0001
0000
0000
0000
,
0100
0000
0000
0000
,
0010
0000
0000
0000
,
1000
0000
0000
0000
,
0010
0000
0000
0000
,
0100
0000
0000
0000
,
0001
0000
0000
0000
,
0100
0000
0000
0000
,
1000
0000
0000
0000
,
0010
0000
0000
0000
,
0100
0000
0000
0000
,
0100
0000
0000
0000
,
0010
0000
0000
0000
,
1000
0000
0000
0000
,
0001
0000
0000
0000
,
0100
0000
0000
0000
,
0010
0000
0000
0000
,
1000
0000
0000
0000
,
0001
0000
0000
0000
,
0010
0000
0000
0000
,
0100
0000
0000
0000
,
0000
0000
0000
0000
,
1000
0000
0000
0000
,
0001
0000
0000
0000
,
0100
0000
0000
0000
,
0010
0000
0000
0000
,
1000
0000
0000
0000
,
0001
0000
0000
0000
,
0100
0100
0000
0000
;

//---------------dance-single - ----------------
#NOTES:
     dance-single:
     :
     Easy:
     4:
     0.341,0.424,0.124,0.144,0.046,324.000,19.000,22.000,0.000,0.000:
1001
0000
0000
0000
,
1000
0000
0010
0000
,
1000
0000
0100
0000
,
0001
0000
1000
0000
,
0100
0000
0001
0000
,
0010
0100
0100
0100
,
0001
0010
0010
0010
,
0100
0001
0001
0001
,
1000
0100
0100
0100
,
0001
0010
0010
0010
,
0100
0001
0001
0001
,
0100
0010
0010
0010
,
1000
0100
0100
0100
,
2001
0001
0010
3001
,
1002
1000
0100
1003
,
0210
0010
0001
0310
,
1020
1000
0100
1030
,
0200
0000
0000
0300
,
0020
0000
0000
0030
,
0100
0001
0100
0010
,
1000
0100
1000
0010
,
0001
0000
0001
0000
,
0100
0000
0000
0000
0100
0000
0000
0000
0100
0000
0000
0000
0000
0000
0000
0010
0000
0000
0010
0000
0000
0001
0000
0000
,
1000
0000
0000
0000
1000
0000
0000
0000
1000
0000
0000
0000
0000
0000
0000
1000
0000
0000
0100
0000
0000
1000
0000
0000
,
0010
0000
0000
0000
0010
0000
0000
0000
0010
0000
0000
0000
0000
0000
0000
1000
0000
0000
0100
0000
0000
1000
0000
0000
,
0020
0000
0000
0000
,
1030
1000
1000
1000
0001
0001
0010
0000
,
0010
0010
0010
0010
0001
0001
0100
0000
,
0001
0001
0001
0001
0010
0010
0100
0000
,
0100
0100
0100
0100
1000
1000
0001
0000
,
0100
0000
0000
0100
0000
0000
1000
0000
,
0000
0010
0000
0000
0100
0000
0001
0000
,
1100
0100
0110
0001
,
1010
1000
0101
0010
,
0210
0010
0010
0310
,
2001
0001
0001
3001
,
1020
1000
1000
1030
,
0201
0001
0001
0301
,
0001
0001
0001
0010
,
0200
0300
0000
0010
0000
0010
0000
0000
,
0200
0300
0000
1000
0000
1000
0000
0000
,
0100
1000
0001
0100
,
0001
0001
0001
1000
0100
1000
0100
0000
,
0100
0100
0100
0010
1000
0010
1000
0000
,
0020
0030
0000
2000
3000
0000
0020
0030
,
0000
0200
0300
0000
0002
0003
0100
0010
,
0001
1000
0100
1000
,
0001
0000
0000
1000
0000
0000
0100
0000
,
0100
0000
0001
0000
1000
0000
0100
0001
,
0100
1000
0010
0100
,
0001
0000
0010
0000
1000
0000
0100
0100
,
0010
0000
0100
0000
1000
0000
0100
0001
,
0010
0000
0000
0000
0100
0000
0000
0000
0000
0100
0000
0000
0000
0000
0000
0010
0000
0000
0001
0000
0000
0010
0000
0000
,
0100
0000
0000
0000
1000
0000
0000
0000
0000
1000
0000
0000
0000
0000
0000
0100
0000
0000
0010
0000
0000
0100
0000
0000
,
0010
0000
0000
0000
0001
0000
0000
0000
0000
0010
0000
0000
0000
0000
0000
1000
0000
0000
0100
0000
0000
1000
0000
0000
,
0010
0000
0000
0000
0001
0000
0000
0000
0000
0010
0000
0000
0000
0000
0000
0001
0000
0000
0100
0000
0000
0001
0000
0000
,
0010
0000
0000
0000
1000
0000
0000
0000
0000
0100
0000
0000
0000
0000
0000
0100
0000
0000
0000
0000
0000
0100
0000
0000
,
1000
0010
0000
0010
0000
0010
0000
0100
,
0010
0000
0100
0000
0001
0100
0001
0100
,
0010
0000
1000
0000
0100
0010
0100
0010
,
0100
0001
1000
0100
,
0001
0010
0100
0010
,
0001
0100
0001
1000
,
0100
1010
0100
0010
,
0010
0101
0010
0100
,
1000
1010
0100
1000
,
0001
0101
0010
1000
,
0100
0110
2020
0000
,
0000
0000
0000
0000
3030
0000
0000
2000
0200
0000
0000
0000
0000
0000
0000
0000
,
0000
0000
3300
0000
0100
0000
0000
0010
,
0000
0010
0000
0000
0100
0000
0000
0001
,
0000
0000
0000
0001
0000
0000
0000
0000
0000
0000
0000
0000
1000
0000
0000
1000
0000
0000
0100
0000
0000
0000
0100
0000
,
0000
0000
0000
0000
0000
0000
0000
0000
0000
0000
0000
0000
1000
0000
0000
1000
0000
0000
0010
0000
0000
0000
0010
0000
,
0000
0000
0000
0000
1000
0100
1000
0010
,
1000
0100
1000
0010
1000
0100
1000
0010
,
1000
0100
1000
0010
1000
0100
0010
0001
,
1000
0100
0001
0010
0000
0000
0000
0000
;

//---------------dance-single - ----------------
#NOTES:
     dance-single:
     :
     Challenge:
     11:
     0.706,0.823,0.745,0.418,0.428,578.000,114.000,64.000,0.000,38.000:
0110
0000
0000
0000
0110
0000
0000
1000
0100
0000
0000
0000
0011
0000
1001
0000
,
0001
0100
0001
0000
1000
0000
0001
0000
0100
0000
0001
0000
0010
0000
0001
0000
,
0001
0100
0001
0000
1000
0000
0001
0000
1000
0000
0010
0000
0001
0000
1000
0000
,
0001
0100
0001
0000
0010
0000
0100
0000
1000
0000
0100
0000
1000
0000
0010
0000
,
1000
0100
1000
0000
0010
0000
1000
0000
0001
0000
1000
0000
0010
0000
1000
0000
,
1001
0100
0010
1001
0100
1001
0001
0010
,
1100
0010
0001
2020
0000
0000
0100
3130
,
1010
0100
0001
1010
0100
1010
0100
1000
,
0220
0000
0000
0000
0000
0000
0000
0000
0000
0000
0000
0000
0001
0000
0000
0000
0000
0000
0000
0000
0000
0001
0000
0000
1000
0000
0000
0000
0000
0000
0000
0000
0330
0000
0000
0000
0110
0000
0000
0000
0000
0000
0110
0000
0000
0000
0000
0000
,
0110
1000
0001
0110
1000
0110
0001
0010
,
0101
0010
0100
2002
0000
0000
3103
0100
,
1001
0100
0100
1010
0100
0110
0100
0100
,
2002
0000
0000
0000
0100
0000
0000
0010
0100
0000
3003
0000
1001
0000
0100
0000
,
2002
0100
0010
3103
,
0202
0010
1000
0313
,
0220
1000
0001
1330
,
2020
0100
0001
3031
,
2002
0000
0000
0000
,
0020
0000
0000
0033
,
3000
0000
0100
0010
0000
0010
0100
0000
1000
0100
0000
0010
0100
0000
0010
1000
,
0000
0000
0001
0100
0000
1000
0100
0000
0010
0100
0000
1000
0100
0000
0001
0010
,
1000
0100
1000
0100
0000
0010
0001
0010
0100
1000
0100
1000
0000
0000
0000
0000
,
2000
0000
0000
0000
0200
0000
0000
0000
3020
0000
0330
0000
0000
0000
0000
0100
0000
0000
1000
0000
0000
0100
0000
0000
,
0020
0000
0000
0000
0002
0000
0000
0000
0230
0000
0000
0000
0303
0000
0000
0010
0000
0000
1000
0000
0000
0100
0000
0000
,
0020
0000
0000
0000
2000
0000
0000
0000
0230
0000
0000
0000
3300
0000
0000
0001
0000
0000
0010
0000
0000
0100
0000
0000
,
2002
0000
0000
0000
0000
0000
0000
3003
,
0010
0100
0010
0100
0010
1000
0010
1000
0010
0001
0010
0001
0010
0100
0010
0100
,
0010
0001
0010
0001
0010
0000
0100
0000
0100
0000
0100
0000
0010
1000
0010
1000
,
0001
1000
0001
1000
0001
0010
0001
0010
0001
0100
0001
0100
0001
1000
0001
1000
,
0001
0100
0001
0100
0001
0000
1000
0000
1000
0000
1000
0000
0001
0010
0001
0010
,
0100
1000
0100
1000
0100
1000
0001
0100
0001
0100
0001
0100
0010
1000
0010
1000
,
0010
1000
0100
0010
0100
0010
0100
0010
0001
0100
0001
0100
0010
1000
0010
1000
,
0010
0100
0010
0100
0010
1000
0010
1000
0010
0001
0010
0001
0010
0100
0010
0100
,
0010
0001
0010
0001
0010
0000
0100
0000
0100
0000
0100
0000
0010
1000
0010
1000
,
0201
0001
0001
0001
,
0002
0000
0000
0010
0000
0000
0010
0000
0000
0010
0000
0303
,
0002
0010
0010
0010
,
0020
1000
1000
1000
,
0133
1000
0010
1000
0001
1000
0100
1000
,
2200
0000
0000
3000
2000
0000
0000
3300
1000
0000
0000
0000
0011
0000
0000
0000
0100
0000
0000
0000
0011
0000
0000
0000
1000
0000
0000
0000
1000
0000
0000
0000
,
2200
0000
0000
3000
2000
0000
0000
3300
1000
0000
0000
0000
0011
0000
0000
0000
0100
0000
0000
0000
0011
0000
0000
0000
1000
0000
0000
0000
0010
0000
0000
0000
,
1100
1000
1100
0100
1100
0001
1100
0010
,
1000
0100
1000
0100
0010
0001
0010
0001
0100
1000
0100
1000
0010
0100
0010
0100
,
0010
1000
0010
1000
0010
1000
0010
0001
0010
0001
0010
0001
0100
1000
0100
1000
,
0200
0000
0000
2000
0000
0000
0302
0000
,
0000
3200
0000
0000
2303
0000
3200
0320
,
0031
1010
0101
0110
,
1001
0110
1010
0101
,
0110
0000
0000
0000
1000
0000
0100
0010
0100
0000
1001
0000
1001
0000
0110
0000
,
1001
0000
0000
0000
0001
0000
0010
1000
0100
0000
0011
0000
0011
0000
1100
0000
,
0011
0000
0000
0000
0001
0000
1000
0100
1000
0000
1100
0000
1100
0000
0011
0000
,
1100
0000
0000
0000
1000
0000
0010
0001
0010
0000
0011
0000
0011
0000
1100
0000
,
0012
0000
0000
0000
0000
0000
0000
0000
0010
0100
0000
0000
0003
0000
0000
0000
0000
0000
0010
0000
0000
0000
0000
0000
0000
0000
0000
0000
0000
0000
1100
0000
0000
0000
0000
0000
0001
0000
0000
0000
0000
0000
1100
0000
0000
0000
0000
0000
,
0020
0000
0000
0000
0000
0000
0000
0000
0100
0001
0000
0000
0030
0000
0000
0000
0000
0000
1000
0000
0000
0000
0000
0000
0000
0000
0000
0000
0000
0000
0110
0000
0000
0000
0000
0000
1000
0000
0000
0000
0000
0000
0101
0000
0000
0000
0000
0000
,
0002
0000
0000
0000
0000
0000
0000
0000
0010
0100
0000
0000
0003
0000
0000
0000
0000
0000
1000
0000
0000
0000
0000
0000
0000
0000
0000
0000
0000
0000
1100
0000
0000
0000
0000
0000
0001
0000
0000
0000
0000
0000
0110
0000
0000
0000
0000
0000
,
2000
0000
0000
0000
0000
0000
0000
0000
0010
0100
0000
0000
3000
0000
0000
0000
0000
0000
0010
0000
0000
0000
0000
0000
0000
0000
0000
0000
0000
0000
1001
0000
0000
0000
0000
0000
0010
0000
0000
0000
0000
0000
1001
0000
0000
0000
0000
0000
,
1100
0000
0000
0000
0110
0000
0000
0000
0000
0011
0000
0000
0000
0000
0000
1100
0000
0000
0000
0000
0000
0011
0000
0000
,
0011
0000
0000
0000
0110
0000
0000
0000
0000
1100
0000
0000
0000
0000
0000
0011
0000
0000
0000
0000
0000
0011
0000
0000
,
2000
3000
0001
0100
0010
1000
0100
0010
0100
1000
0001
0010
1000
0100
0001
0100
,
2000
3000
0001
0010
0100
1000
0010
1000
0001
1000
0100
0010
0100
0001
0010
0100
,
1000
0000
0000
0100
1000
0000
0000
0100
1000
0000
0000
0000
0010
0000
0000
0100
0000
0000
0001
0000
0000
1000
0000
0000
,
1010
0100
0110
0001
,
1010
0000
0010
0000
0010
0001
1000
0100
,
1000
0001
0010
0100
0011
1000
0100
0011
,
1000
0001
0010
0001
0110
1000
0010
1001
,
0100
0001
1100
0010
0011
0010
1000
1100
,
0010
0100
0001
0010
1100
0100
1000
0110
,
0010
1000
0101
1000
2020
0000
0000
0000
,
0000
0000
0000
0000
0000
0000
0000
0200
0002
0000
0000
0000
0000
0000
0000
0000
,
0000
0000
0000
0000
0000
0300
0003
0030
0020
0000
0000
0000
0000
0030
0020
0000
,
0000
0030
0020
0000
0000
0030
0020
0030
0020
0000
0000
0000
0000
0000
0000
0000
,
0000
0000
0000
0000
0000
0000
0000
3030
0100
0000
0100
0000
1010
0000
0000
1010
,
0000
0000
0100
0000
0010
0000
0001
0000
0100
0000
0100
0000
1010
0000
0000
0110
,
0000
0100
1000
0100
0010
0101
0010
1010
,
0100
0110
0001
1001
0100
1010
0100
0101
,
0010
1010
0100
0101
1100
0010
1010
0100
,
0101
0010
2002
3103
0000
0000
0000
0000
;

//---------------dance-single - ----------------
#NOTES:
     dance-single:
     :
     Medium:
     7:
     0.497,0.823,0.660,0.163,0.176,404.000,101.000,25.000,0.000,6.000:
1001
0000
0100
0010
0100
0000
0110
0000
,
1000
0100
1000
0000
0010
0001
0010
0001
,
1000
0100
1000
0000
0100
0010
0100
0010
,
0100
1000
0100
0000
0001
0100
0001
0100
,
0010
0001
0010
0000
0100
1000
0100
1000
,
0011
0000
0000
0110
0000
0110
0000
0000
,
1010
0000
0000
0202
0000
0000
1303
1000
,
0110
0000
0000
0011
0000
1100
0000
0000
,
2000
0000
0000
0000
0001
0000
0000
0001
0001
0000
0000
0000
0001
0000
3001
0000
,
0110
0000
0000
1100
0000
0110
0000
0000
,
1001
0000
0000
0202
0000
0000
0303
0000
,
1010
0000
0000
0110
0000
0101
0000
0000
,
2000
0000
0000
0000
0001
0000
0000
0001
0001
0000
0000
0000
0001
0000
3001
0000
,
1100
0110
1001
0011
,
0110
1010
0110
1001
,
1010
0110
0101
1010
,
0110
0101
0110
1010
,
0102
0100
0100
0100
,
0200
0000
0000
0313
,
0101
0010
1010
0100
,
0101
0010
0110
0100
,
1000
0010
0100
0001
,
1000
0000
0000
0000
0100
0000
0000
0000
0000
0010
0000
0000
0000
0000
0000
1000
0000
0000
0100
0000
0000
1000
0000
0000
,
0011
0000
0000
0000
0100
0000
0000
0000
0000
0010
0000
0000
0000
0000
0000
0010
0000
0000
1000
0000
0000
0100
0000
0000
,
1010
0000
0000
0000
0001
0000
0000
0000
0000
0100
0000
0000
0000
0000
0000
1000
0000
0000
0100
0000
0000
0001
0000
0000
,
0020
0000
0000
0000
,
1030
0100
1000
0100
1000
0000
0000
0000
0010
0100
0010
0100
0010
0000
0000
0000
,
0001
0010
0001
0010
0001
0000
0000
0000
1000
0100
1000
0100
1000
0000
0000
0000
,
0001
0010
0001
0010
0000
0001
0010
0000
0100
0010
0100
0010
0000
0100
0010
0000
,
1000
0100
1000
0100
0000
1000
0100
0000
0001
0100
0001
0100
0000
0001
0100
0000
,
2000
0000
0000
3200
0000
0000
0302
0000
,
0000
0203
0000
0000
0320
0000
1030
0100
,
1000
0100
1000
0010
,
1000
0001
0010
0100
,
0012
0000
0000
0100
0000
0000
0010
0000
0000
0100
0000
0000
0010
0000
0100
0000
,
2103
0000
0000
0100
0000
0000
0010
0000
0000
0100
0000
0000
0010
0000
0100
0000
,
3012
0000
0000
0100
0000
0000
0010
0000
0000
0100
0000
0000
0010
0000
0100
0000
,
2003
0000
0000
0100
0000
0000
0010
0000
0000
0100
0000
0000
0010
0000
0100
0000
,
3010
0001
0010
0001
0010
0100
0010
0001
,
0101
0000
0000
1010
0000
1010
0000
0000
,
0101
0000
0000
1010
0000
1010
0000
0000
,
0001
0100
0001
0100
1000
0010
1000
0010
,
1000
0100
1000
0100
0000
1000
0100
0000
0010
0001
0010
0001
0000
0010
0001
0000
,
0010
0100
0010
0100
0000
0010
0100
0000
1000
0010
1000
0010
0000
1000
0010
0000
,
2000
0000
0000
3200
0000
0000
0320
0000
,
0000
0032
0000
0000
0203
0000
0310
0001
,
1000
0110
0100
1010
,
0100
0101
0010
1010
,
0100
0000
1000
0000
0100
0000
0011
0110
,
0011
0000
0100
0000
0010
0000
0110
0011
,
0110
0000
1000
0000
0010
0000
0011
1010
,
0011
0000
0100
0000
0010
0000
1001
0101
,
1001
0000
0000
1000
0100
0000
0110
0000
0000
0000
1000
0000
0100
0000
0010
0000
,
0011
0000
0000
0100
1000
0000
1100
0000
0000
0000
0010
0000
0010
0000
0001
0000
,
0110
0000
0000
0001
0100
0000
1010
0000
0000
0000
0100
0000
1000
0000
1000
0000
,
1010
0000
0000
0100
1000
0000
0011
0000
0000
0000
0100
0000
1000
0000
0100
0000
,
1000
0000
0000
0010
0000
0000
0100
0000
0000
0000
1000
0000
0000
0000
0100
0000
,
0010
0000
0000
0100
0000
0000
0010
0000
0000
0000
1000
0000
0000
0000
1000
0000
,
1000
0110
0110
0011
0011
0110
0110
1100
,
1100
0101
0101
1010
1010
0110
0101
0110
,
0101
0010
0100
1000
0100
0010
0100
1000
,
1000
0100
1000
0010
,
0100
0001
0010
0100
,
1000
0000
0000
0000
0011
0000
0000
0110
,
0000
0000
0000
0000
1100
0000
0000
0110
,
0000
0000
1011
0000
1001
0000
0000
0110
,
0000
0000
0000
0000
1100
0000
0000
0011
,
0000
1101
2000
0000
,
0000
0000
0000
0000
3000
0000
0000
0100
0002
0000
0000
0000
0000
0000
0000
0000
,
0000
0000
0103
0001
,
0010
1000
0010
0100
,
0001
0000
0000
0000
0010
0000
0000
0000
0001
0000
0001
0000
1000
0000
0000
1000
,
0000
0000
0000
0000
0000
0000
0000
0000
0001
0000
0001
0000
1000
0000
0000
1000
,
0000
0000
0000
0000
1000
0100
0010
1000
,
0100
0001
1000
0010
0100
0001
0100
0010
,
1000
0100
0010
0100
1000
1000
0001
0001
,
0100
0100
0011
0011
0000
0000
0000
0000
;
