#TITLE:Megascorcher;
#SUBTITLE:;
#ARTIST:Machinae Supremacy;
#TITLETRANSLIT:;
#SUBTITLETRANSLIT:;
#ARTISTTRANSLIT:;
#CREDIT:;
#BANNER:Megascorcher-BN.png;
#BACKGROUND:Megascorcher-BG.png;
#LYRICSPATH:;
#CDTITLE:;
#MUSIC:Machinae Supremacy - Megascorcher.mp3;
#OFFSET:-0.452;
#SAMPLESTART:12.720;
#SAMPLELENGTH:12.160;
#SELECTABLE:YES;
#BPMS:0.000=160.000,24.875=159.840,30.500=160.080,290.000=118.000,291.500=81.500,293.500=40.000,294.500=160.020;
#STOPS:;
#BGCHANGES:;
// cache tags:
#FIRSTBEAT:16.000;
#LASTBEAT:301.500;
#SONGFILENAME:Songs/StepMix 2/MegaScorcher/Machinae Supremacy - Megascorcher.sm;
#HASMUSIC:1;
#HASBANNER:1;
#MUSICLENGTH:119.280;
// end cache tags

//---------------dance-single - ----------------
#NOTES:
     dance-single:
     :
     Hard:
     8:
     0.543,0.537,0.444,0.453,0.034,346.000,53.000,54.000,36.000,0.000:



0000
0000
0000
0000
,
0000
0000
0000
0000
,
0000
0000
0000
0000
,
0000
0000
0000
0000
,
0001
1000
0000
0001
0100
0001
1000
0010
,
0000
0100
0000
0001
0010
0001
1000
0100
,
0000
0000
0000
0000
0000
0000
0000
1001
0MM0
0000
0000
0000
0000
0000
0000
0000
0101
M0M0
0000
0000
0000
0000
0000
0000
0000
0000
0000
0000
1100
00MM
0000
0000
,
0000
0000
0000
0000
1010
0M0M
0000
0000
0000
0000
0000
0000
0011
MM00
0000
0000
0000
0000
0000
0000
2002
0MM0
0000
0000
0000
0000
0000
0000
0000
0000
0000
0000
,
0000
0000
0000
3003
0001
0100
0010
1000
,
0100
0000
0000
0000
0010
0000
0000
0000
0001
0000
0000
0000
0200
0000
0000
0000
0000
0000
0000
0000
0010
0300
0000
0000
1000
0000
0000
0000
0020
0000
0000
0000
,
0000
0000
0000
0000
0100
0030
0000
0000
0001
0000
0000
0000
0020
0000
0000
0000
0000
0000
0000
0000
0001
0030
0000
0000
1000
0000
0000
0000
0100
0000
0000
0000
,
0001
0000
0000
0000
0100
0000
0000
0000
1000
0000
0000
0000
0020
0000
0000
0000
0000
0000
0000
0000
0100
0030
0000
0000
0001
0000
0000
0000
0200
0000
0000
0000
,
0000
0000
0000
0000
M0MM
0000
0000
0000
0000
0000
0000
0000
0000
0000
0000
0000
0001
0300
0000
0000
1000
0000
0000
0000
0100
0000
0000
0000
0010
0000
0000
0000
,
0001
0000
0000
0000
0100
0000
0000
0000
0010
0000
0000
0000
2000
0000
0000
0000
0000
0000
0000
0000
0001
3000
0000
0000
1000
0000
0000
0000
0200
0000
0000
0000
,
0000
0000
0000
0000
1000
0300
0000
0000
0010
0000
0000
0000
0200
0000
0000
0000
0000
0000
0000
0000
0001
0300
0000
0000
0010
0000
0000
0000
0001
0000
0000
0000
,
0100
0010
1000
0001
0000
1100
0000
2002
,
0000
0000
0000
3003
M001
M000
0001
200M
,
000M
0000
0000
0000
3000
1001
0000
0001
,
0100
0000
1000
0001
0010
0000
0000
1100
,
0000
0000
0000
0000
0000
0000
1020
0000
0000
M000
0000
0000
1000
0000
M000
0000
,
0100
0M00
0001
0030
1001
0000
1000
0100
,
0000
0000
0000
0000
0000
0010
0000
0001
,
0100
0000
0010
1000
0100
0001
0000
0100
,
1000
0000
0010
0100
0001
0000
1000
0100
,
0000
0001
0100
0000
1001
0000
0001
0010
,
0000
0000
0000
0000
0000
1100
0000
0000
,
0101
0000
0001
1000
0100
0000
0010
0001
,
0000
0000
0000
0000
0000
0000
0201
0000
0000
000M
0000
0000
0010
0000
00M0
0000
,
1000
M000
0001
0300
0110
0000
0000
0101
,
0000
0000
0000
0000
0000
0001
0000
1000
,
0010
0000
0100
0001
0010
0100
0000
1000
,
0010
0000
0100
0001
1000
0000
0010
1000
,
0000
1000
0100
0000
0010
0001
1000
0001
,
0100
0000
0000
0000
0001
0000
0000
0000
0010
0000
0000
0000
0002
0000
0000
0000
0000
0000
0000
0000
1000
0003
0000
0000
0010
0000
0000
0000
0200
0000
0000
0000
,
0000
0000
0000
0000
0010
0300
0000
0000
1000
0000
0000
0000
0200
0000
0000
0000
0000
0000
0000
0000
1000
0300
0000
0000
0100
0000
0000
0000
1000
0000
0000
0000
,
0001
0000
0000
0000
0100
0000
0000
0000
0001
0000
0000
0000
0020
0000
0000
0000
0000
0000
0000
0000
0100
0030
0000
0000
1000
0000
0000
0000
0020
0000
0000
0000
,
0000
0000
MM0M
0000
0000
0030
0000
0000
1000
0000
0001
0000
0100
0000
1000
0000
,
0100
0000
0000
0000
0001
0000
0000
0000
0010
0000
0000
0000
0200
0000
0000
0000
0000
0000
0000
0000
1000
0300
0000
0000
0010
0000
0000
0000
2000
0000
0000
0000
,
0000
0000
0000
0000
0010
3000
0000
0000
0100
0000
0000
0000
0002
0000
0000
0000
0000
0000
0000
0000
0100
0003
0000
0000
0010
0000
0000
0000
1000
0000
0000
0000
,
0010
0100
0001
1000
0000
0011
0000
2020
,
0000
0000
0000
3030
1001
0000
0001
0200
,
0000
0000
0000
0000
0000
0310
1000
0100
,
0010
0001
0100
0010
2000
0000
3000
0202
,
0000
0303
0000
1002
0000
M0M0
1000
MM00
,
0100
0MM0
0010
M0M3
1001
0000
0000
1010
,
0000
0000
0000
0000
0000
1000
0100
0001
,
0100
0010
0100
1000
0010
0000
0000
0101
,
0000
0000
0000
1000
0001
0000
1000
0010
,
0000
1000
0100
0000
1002
0000
0000
0200
,
0000
0003
0020
0000
0300
2000
0000
3000
,
1030
0001
2000
0000
0020
0000
3000
0200
,
0000
0330
0001
1000
0100
1000
0001
0100
,
0001
0000
1000
0000
0201
0000
0000
0020
,
0000
0300
2000
0000
0030
0200
0000
3300
,
0010
0100
0020
0000
0002
0000
0030
0200
,
0000
0000
0003
0300
0010
0000
1000
0000
0100
0000
0000
0000
1000
0000
0001
0000
,
0000
1000
0100
0010
0001
0000
1001
0000
,
0100
1100
0010
1001
,
0010
0101
1000
0110
,
0001
1100
1000
1001
,
0001
0101
0000
0000
1000
1001
0000
1000
,
0100
0000
0110
0000
1000
1010
0000
0001
,
0100
0010
1000
0000
0001
0101
0000
1000
,
1010
0000
1001
0000
0001
0011
0000
0010
,
0110
0000
1100
0000
1000
0100
0010
0001
,
0010
0100
1000
1000
0010
0100
0001
0010
,
0200
0300
1001
0000
0001
1000
0100
0001
,
0100
1000
0010
0010
0100
0001
0010
0001
,
2000
3000
0101
0000
1000
0010
1000
0100
,
0010
0001
0100
0100
0010
1000
0100
0010
,
0002
0003
1001
0000
1000
0001
1000
0010
,
0001
0010
1000
1000
0010
0100
0001
1000
,
0020
0000
0000
0000
0200
0000
0030
0002
,
0000
0000
0000
0000
0000
0000
0000
0000
0000
0000
0300
0000
2000
0000
0003
0000
0002
0000
3000
0003
0101
0000
0000
0000
0000
0000
0000
0000
1100
0000
0000
0000
,
0000
1010
0000
0011
0000
2002
0000
0000
,
0000
0000
0000
3003
0000
0000
0000
0000
;

//---------------dance-single - ----------------
#NOTES:
     dance-single:
     :
     Challenge:
     10:
     0.662,0.632,0.520,0.428,0.205,440.000,62.000,51.000,30.000,0.000:








0000
0000
0000
0000
,
0000
0000
0000
0000
,
0000
0000
0000
0000
,
0000
0000
0000
0000
,
1000
0000
0001
0000
0000
0000
0100
0001
1000
0000
0010
0000
0100
0000
0001
0000
,
0000
0000
1100
0000
0000
0000
0001
1000
0010
0000
0100
0000
0001
0000
0010
0000
,
0000
0000
0000
0000
0000
0000
0000
1100
00MM
0000
0000
0000
0000
0000
0000
0000
0011
MM00
0000
0000
0000
0000
0000
0000
0000
0000
0000
0000
0101
M0M0
0000
0000
,
0000
0000
0000
0000
1010
0M0M
0000
0000
0000
0000
0000
0000
0011
MM00
0000
0000
0000
0000
0000
0000
2002
0MM0
0000
0000
0000
0000
0000
0000
0000
0000
0000
0000
,
0000
0000
0000
0000
0000
0000
3003
0000
1000
0000
0100
0000
0010
0000
0001
0100
,
0010
0000
0000
0000
1000
0000
0000
0000
0100
0000
0000
0000
2000
0000
0000
0000
0000
0000
0000
0000
0010
3000
0000
0000
0100
0000
0000
0000
0002
0000
0000
0000
,
0000
0000
0003
0000
1000
0000
0001
0000
0010
0000
0000
0000
0200
0000
0000
0000
0000
0000
0000
0000
1000
0300
0000
0000
0010
0000
0000
0000
0100
0000
0001
0000
,
0010
0000
0000
0000
0100
0000
0000
0000
1000
0000
0000
0000
0020
0000
0000
0000
0000
0000
0000
0000
0100
0030
0000
0000
0001
0000
0000
0000
2000
0000
0000
0000
,
0000
0000
0000
0000
0000
0000
0000
0000
0000
0000
0000
0000
0000
0000
0000
0000
0010
3000
0000
0000
0100
0000
0000
0000
0001
0000
0000
0000
1000
0000
0010
0000
,
0100
0000
0000
0000
0001
0000
0000
0000
0010
0000
0000
0000
0200
0000
0000
0000
0000
0000
0000
0000
1000
0300
0000
0000
0010
0000
0000
0000
0200
0000
0000
0000
,
0000
0000
0300
0000
0001
0000
1000
0000
0100
0000
0000
0000
0020
0000
0000
0000
0000
0000
0000
0000
0001
0030
0000
0000
1000
0000
0000
0000
0100
0000
1000
0000
,
0010
0100
0001
0000
0100
0000
0010
0000
1000
0000
1001
0000
0001
0000
0202
0000
,
0000
0000
0000
0303
1000
0001
0100
2002
,
0000
0000
0000
0000
3003
0110
0000
0001
,
0010
0000
0001
0100
0010
1000
0100
1002
,
0000
0000
0000
0000
0100
0003
0000
0000
0001
0000
0000
0000
2010
0000
0000
0000
0000
0000
0000
0000
0000
0000
0000
0000
0100
0000
0000
0000
3000
0000
0000
0000
,
0001
0000
0010
0000
0100
1000
0001
0100
0010
0000
0100
0000
0001
0000
1001
0000
,
0000
0000
0000
0000
0000
0110
0001
1000
,
1100
0000
0010
0001
0100
1001
0001
0100
,
1100
0000
1000
0000
0010
0000
0100
0000
0101
0000
0000
0000
1000
0001
0100
0000
,
0000
0001
0101
0000
1000
0010
0100
1001
,
0000
0000
0000
0000
0000
0001
0010
0100
,
1100
0000
0000
0000
1000
0001
0100
0000
0010
0000
1000
0000
0001
0000
0010
0000
,
0000
0001
1000
1200
0000
0000
0010
0000
,
1300
0000
0100
0000
1000
0010
0100
0001
0010
0000
0001
0000
1000
0000
1001
0000
,
0000
0000
0000
0000
0000
0001
0010
0100
,
1001
0000
0001
0100
0010
1010
1000
0100
,
1001
0001
0010
0001
0101
0000
0001
1000
,
0000
0000
1000
0000
1010
0000
0000
0000
1000
0000
0001
0000
0100
0000
0010
1000
,
0100
0000
0000
0000
1000
0000
0000
0000
0010
0000
0000
0000
0200
0000
0000
0000
0000
0000
0000
0000
0001
0300
0000
0000
0010
0000
0000
0000
0200
0000
0000
0000
,
0000
0000
0300
0000
1000
0000
0001
0000
0100
0000
0000
0000
0002
0000
0000
0000
0000
0000
0000
0000
0100
0003
0000
0000
0010
0000
0000
0000
1000
0000
0010
0000
,
0100
0001
0010
0200
0000
1300
0010
0200
,
0000
0000
0000
0000
0000
0000
0000
0000
0000
0000
0000
0000
0000
0000
0000
0000
0001
0300
0000
0000
1000
0000
0000
0000
0001
0000
0000
0000
0100
0000
0010
0000
,
1000
0010
0100
0000
0001
0000
0010
0000
0000
0000
0001
0000
1000
0000
0100
0000
,
0000
0000
0010
0000
0001
0000
0101
0000
0000
0000
0001
0000
1000
0000
0001
0010
,
0100
1000
0010
1001
0001
0101
1000
2200
,
0000
0000
0000
3300
0001
0000
1000
0200
,
0000
0000
0000
0000
0000
0310
0001
0100
,
0010
1000
0100
1000
0010
0100
0001
1001
,
0000
1000
0001
0102
0000
0000
1000
0000
,
0013
0000
0001
0000
1000
0100
1000
0010
0100
0000
0001
0000
0010
0000
0110
0000
,
0000
0000
0000
0000
0000
0001
0100
0010
,
0100
0001
0010
0100
1000
0010
0100
0101
,
0000
0000
0000
0000
0000
0000
1000
0010
0100
0000
0001
0000
1000
0000
1100
0000
,
0100
0000
0000
0000
0010
0000
0000
0000
1001
0000
0000
0000
0000
0000
0000
0000
0102
0000
0000
0000
0000
0003
0000
0000
0002
0000
0000
0000
1000
0000
0000
0000
,
M000
0003
0000
0000
0002
0000
0000
0000
0100
0000
0000
0000
0M00
0003
0000
0000
0002
0000
0000
0000
0010
0000
0000
0000
00M3
0000
0000
0000
0001
0000
0000
0000
,
0100
0000
0000
0000
0010
0000
0000
0000
1000
0000
0000
0000
0200
0000
0000
0000
0010
0000
0000
0000
00M0
0300
0000
0000
0200
0000
0000
0000
1000
0000
0000
0000
,
M300
0100
0010
0001
1000
0100
1000
0010
,
0100
0000
0000
0000
0000
0000
0000
0000
0101
0000
0000
0000
0000
0000
0000
0000
2100
0000
0000
0000
0000
3000
0000
0000
2000
0000
0000
0000
0001
0000
0000
0000
,
000M
3000
0000
0000
2000
0000
0000
0000
0010
0000
0000
0000
00M0
3000
0000
0000
2000
0000
0000
0000
0100
0000
0000
0000
3M00
0000
0000
0000
1000
0000
0000
0000
,
0001
0010
0001
0200
0010
03M0
0200
0001
,
030M
0000
0100
0010
1000
0100
0010
0001
,
0100
0010
1000
0100
1001
0000
0102
0000
,
1000
0003
0210
0000
0001
0300
2100
0000
,
0010
3000
1002
0000
0100
0003
2010
0000
,
0100
3000
0120
0000
0001
0030
0101
0000
,
0001
1000
0100
0000
0000
0000
0000
0000
1000
0001
0100
0000
0000
0000
0001
0010
,
0100
0000
0000
0000
1100
0000
0000
0000
1000
0010
0100
0000
0000
0000
0001
1000
,
0100
0000
1000
0000
1001
0000
0000
0000
0001
0100
0010
0000
0000
0000
1000
0001
,
0010
0000
0000
0000
0101
0000
0000
0000
0001
1000
0010
0000
0000
0000
1000
0100
,
0010
0000
0011
0000
0001
0100
0010
1000
,
0100
0000
0010
0000
0001
0100
0001
0000
1000
0000
0001
0000
0010
0000
0100
0000
,
1000
0000
1001
0000
0001
0100
0001
0010
,
0100
0000
1000
0000
0010
0100
0010
0000
0100
0000
0001
0000
1000
0000
0010
0000
,
0100
0000
0101
0000
0010
1000
0100
0010
,
0100
0000
1000
0010
0100
0001
1000
0000
0010
0000
1000
0000
0100
0000
0010
0000
,
0001
0000
1001
0000
1000
0001
0010
0100
,
1000
0000
0010
0100
0001
1000
0010
0000
0100
0000
0001
0000
0010
0000
0100
0000
,
2000
0000
0000
0000
0200
0000
3000
0020
,
0000
0000
0000
0000
0000
0000
0000
0000
0000
0000
0300
0000
0002
0000
0030
0000
2000
0000
0000
3003
1001
0MM0
0000
0000
0000
0000
0000
0000
0101
M0M0
0000
0000
,
0000
0000
0000
0000
0011
MM00
0000
0000
0000
0000
0000
0000
1010
0M0M
0000
0000
0000
0000
0000
0000
2002
0000
0000
0000
0000
0000
0000
0000
0000
0000
0000
0000
,
0000
0000
0000
3003
0000
0000
0000
0000
;

//---------------dance-single - ----------------
#NOTES:
     dance-single:
     :
     Medium:
     6:
     0.410,0.474,0.235,0.143,0.004,297.000,28.000,17.000,8.000,0.000:








0000
0000
0000
0000
,
0000
0000
0000
0000
,
0000
0000
0000
0000
,
0000
0000
0000
0000
,
1000
0001
0000
1000
0100
1000
0000
0001
,
0000
1000
0000
0001
0010
0001
1000
0010
,
0000
0000
0000
0000
0000
0000
0000
MMMM
0000
0000
0000
0000
0000
0000
0000
0000
MMMM
0000
0000
0000
0000
0000
0000
0000
0000
0000
0000
0000
1001
0000
0000
0000
,
0000
1100
0000
0101
0000
2002
0000
0000
,
0000
0000
0000
3003
0001
0000
1000
0000
,
0010
0000
0100
0001
0000
0000
0001
1000
,
0000
0001
0100
0010
0000
0000
1000
0000
,
0100
0000
0010
0001
0000
0000
0001
0100
,
0000
0000
0001
0100
,
0010
0000
1000
0001
0000
0000
0001
0100
,
0000
0010
1000
0100
0000
0000
0010
0000
,
0001
0000
1000
0001
0000
0110
0000
2002
,
0000
0000
0000
3003
0001
0000
1000
0002
,
0000
0000
0000
0000
0000
1000
0000
0000
,
0100
0003
0000
0000
0001
0000
1000
0000
0010
0000
0000
0000
0000
0000
1001
0000
,
0000
0000
0000
1001
0000
0000
0001
0000
,
0100
0000
0010
0000
2000
0000
0000
0100
,
0000
0000
0000
0000
0000
0001
3000
0000
,
1000
0000
0010
1000
0001
0100
0000
0000
,
0010
0000
1000
0001
0100
0000
0001
1000
,
0000
1000
0010
0000
1002
0000
0000
0010
,
0000
0000
0000
0000
0000
0100
0003
0000
,
0101
0000
0001
1000
0100
0000
0000
0010
,
0000
0000
0000
0001
0000
0000
0100
0000
,
0010
0000
1000
0000
0100
0000
0000
1000
,
0000
0000
0000
0000
0000
0001
0000
0000
,
0010
0000
0100
1000
0001
0100
0000
0000
,
0010
0000
1000
0001
1000
0000
0010
1000
,
0000
1000
0100
0000
0010
0000
0001
0000
,
0100
0000
0010
1000
0000
0000
0010
0100
,
0000
0001
1000
0100
0000
0000
0010
0000
,
0001
0000
0100
0001
0000
0100
0010
1000
,
0000
0000
0001
1000
,
0100
0000
1000
0010
0000
0000
0100
0001
,
0000
0010
0100
1000
0000
0000
0001
1000
,
0010
0100
0001
1000
0000
0110
0000
2002
,
0000
0000
0000
3003
0001
0000
0000
1000
,
0000
0000
0000
0000
0000
0001
0000
1000
,
0100
0010
0001
1000
0100
0000
0000
1001
,
0000
0000
0000
0101
0000
0000
1000
0000
,
0001
0000
0100
0000
1001
0000
0000
1010
,
0000
0000
0000
0000
0000
0001
0000
1000
,
0010
0100
0010
1000
0100
0000
0000
1001
,
0000
0000
0000
0001
0100
0000
0010
0000
,
1000
0001
1100
1000
,
0001
0000
1000
0100
1000
0000
0001
0000
,
1000
0000
0010
0100
0010
0000
1000
0000
,
0100
0000
0010
0001
0100
0000
0010
1000
,
0100
1001
0110
0001
,
1000
0010
1000
0000
0100
0000
0010
0000
,
0001
0100
0001
0000
1000
0000
0010
0000
,
0100
0000
0001
1000
0100
0000
0010
0001
,
0000
1000
0001
0100
0010
0000
0010
0000
,
1000
1000
0100
0100
,
0010
0010
0001
0001
,
1000
1000
0110
1001
,
0001
1000
0000
0000
0001
1000
0000
1000
,
0001
0000
0101
0000
1000
0100
0000
1000
,
0100
0010
0001
0000
0001
0100
0000
0001
,
1000
0000
1001
0000
1000
0010
0000
1000
,
1001
1100
0001
0010
,
0001
1000
0100
0000
1000
0010
0100
0000
,
0002
2003
3001
0100
,
0010
1000
0001
0000
0010
0100
1000
0000
,
0002
0203
0310
1000
,
0100
0010
0001
0000
1000
0010
0100
0000
,
0002
0000
2003
0000
3010
0100
0001
0000
,
1000
0100
1000
0000
0001
0010
0001
1000
,
0010
0000
0000
0000
1000
0000
0000
0001
,
0000
0000
0000
0100
0001
1000
0000
0001
,
0000
1001
0000
1000
0000
2002
0000
0000
,
0000
0000
0000
3003
0000
0000
0000
0000
;

//---------------dance-single - ----------------
#NOTES:
     dance-single:
     :
     Easy:
     4:
     0.329,0.348,0.151,0.101,0.000,245.000,18.000,12.000,0.000,0.000:

0000
0000
0000
0000
,
0000
0000
0000
0000
,
0000
0000
0000
0000
,
0000
0000
0000
0000
,
1000
0000
0001
0000
,
0100
0000
0010
0000
,
1000
0000
0100
0000
0010
0000
0000
0001
,
0000
1000
0000
0001
0000
2002
0000
0000
,
0000
0000
0000
3003
1000
0000
0100
0000
,
0010
0001
0001
0100
,
0010
1000
1000
0100
,
1000
0010
0100
0001
,
1000
0000
0001
0100
,
0010
1000
1000
0100
,
0010
0001
0001
0010
,
0001
0000
1000
0001
0000
1001
0000
2002
,
0000
0000
0000
3003
1000
0000
0010
0000
,
0100
0010
0100
0001
,
1000
0100
1000
0001
,
0100
0010
1001
0000
,
0000
0000
1000
0010
,
1000
0100
0010
0001
,
1000
0010
0100
0010
,
1000
0000
0100
0000
1000
0000
0000
0001
,
0000
1000
1001
0001
,
0100
0001
0010
0100
,
1000
0001
0100
0010
,
0100
0010
1001
0000
,
0000
0000
0001
0100
,
0010
0100
0001
0010
,
0100
0010
0001
0100
,
0010
0000
1000
0000
0001
0000
0000
1000
,
0000
0001
1001
1000
,
0100
0010
0100
1000
,
0010
0100
0001
1000
,
0100
0010
0001
1000
,
0001
0000
1000
0001
,
0100
0010
1000
0100
,
1000
0001
0010
0100
,
1000
0000
0001
1000
0000
1001
0000
2002
,
0000
0000
0000
3003
0001
0000
1000
0000
,
0010
0000
0000
0100
,
0001
1000
0100
1000
,
0001
0100
1001
0000
,
0001
0100
0010
1000
,
0001
1000
0100
0010
,
0001
1000
0100
1000
,
0001
0000
0100
0000
,
0010
0000
1000
0001
,
0100
0100
0010
1000
,
0001
0001
1000
0100
,
0010
0010
0001
1000
,
1001
0000
0001
1000
,
0100
0100
0010
0001
,
1000
1000
0010
0100
,
0001
0000
1000
0000
0100
0000
0000
1000
,
0000
0001
1001
0000
,
1000
0000
0100
0000
,
0010
0000
0001
0000
,
0100
0000
0010
0000
,
1001
0100
0001
1000
,
0100
1001
0010
0100
,
1000
0001
0100
0001
,
0010
1001
0001
0100
,
0101
1100
1000
0001
,
0010
0010
0001
1000
,
0020
0030
0100
0001
,
1000
1000
0100
0010
,
0002
0003
1000
0100
,
0010
0010
0001
1000
,
0200
0300
1000
0010
,
0100
0100
0001
0010
,
0200
0000
0300
0000
1000
0000
0000
0001
,
0000
0000
0000
1000
0001
1000
0000
0001
,
0000
0100
0000
0010
0000
2002
0000
0000
,
0000
0000
0000
3003
0000
0000
0000
0000
;
