#TITLE:Burning Me Up;
#SUBTITLE:;
#ARTIST:Nu-Prophet;
#TITLETRANSLIT:;
#SUBTITLETRANSLIT:;
#ARTISTTRANSLIT:;
#CREDIT:jammitch!;
#BANNER:Burning Me Up.png;
#BACKGROUND:Burning Me Up-bg.png;
#LYRICSPATH:;
#CDTITLE:jammitch!.png;
#MUSIC:Burning Me Up.ogg;
#OFFSET:-0.028;
#SAMPLESTART:13.554;
#SAMPLELENGTH:13.500;
#SELECTABLE:YES;
#BPMS:0.000=142.000;
#STOPS:;
#BGCHANGES:;
// cache tags:
#FIRSTBEAT:15.500;
#LASTBEAT:224.000;
#SONGFILENAME:Songs/StepMix 1/Burning Me Up/Burning Me Up.sm;
#HASMUSIC:1;
#HASBANNER:1;
#MUSICLENGTH:97.462;
// end cache tags

//---------------dance-single - Beginner----------------
#NOTES:
     dance-single:
     Beginner:
     Beginner:
     1:
     0.117,0.172,0.021,0.000,0.000,78.000,2.000,0.000,0.000,0.000:
0000
0000
0000
0000
,
0000
0000
0000
0000
,
0000
0000
0000
0000
,
0000
0000
0000
0000
,
0000
0000
0000
0000
,
0000
0000
0000
0000
,
0000
0000
0000
0000
,
0000
0000
0000
0000
,
1000
0000
0000
0000
,
0010
0000
0000
0000
,
0100
0000
0000
0000
,
0001
0000
0000
0000
,
1000
1000
0000
0000
,
0001
0001
0000
0000
,
0100
0100
0000
0000
,
0010
0010
0000
0000
,
1000
0000
1000
0000
,
0001
0000
0001
0000
,
0100
0000
0000
0010
,
0000
0000
1000
0000
,
0001
0000
0001
0000
,
1000
0000
1000
0000
,
0010
0000
0010
0000
,
0110
0000
0000
0000
,
1000
0000
0000
0000
,
0001
0000
0000
0000
,
1000
0000
0000
0000
,
0100
0000
0000
0000
,
0010
0000
0000
0000
,
0001
0000
0000
0000
,
1000
0000
0000
0000
,
0001
0000
0000
0000
,
0100
0000
0000
0000
,
0010
0000
0000
0000
,
1000
0000
0000
0000
,
0001
0000
0000
0000
,
1000
1000
0000
0000
,
0010
0010
0000
0000
,
0100
0100
0000
0000
,
0001
0001
0000
0000
,
1000
0000
1000
0000
,
0001
0000
0001
0000
,
0100
0000
0000
0010
,
0000
0000
1000
0000
,
0001
0000
0001
0000
,
1000
0000
1000
0000
,
0010
0000
0010
0000
,
0110
0000
0000
0000
,
1000
0000
1000
0000
,
0010
0000
0010
0000
,
1000
0000
1000
0000
,
0001
0000
0001
0000
,
0100
0000
0100
0000
,
0010
0000
0010
0000
,
0100
0000
0100
0000
,
0001
0000
1000
1000
,
1000
0000
0000
0000
;

//---------------dance-single - Easy----------------
#NOTES:
     dance-single:
     Easy:
     Easy:
     2:
     0.169,0.230,0.082,0.041,0.000,103.000,8.000,4.000,0.000,0.000:
0000
0000
0000
0000
,
0000
0000
0000
0000
,
0000
0000
0000
0000
,
0000
0000
0000
0000
,
0000
0000
0000
0000
,
0000
0000
0000
0000
,
0000
0000
0000
0000
,
0000
0000
0000
0000
,
1001
0000
0000
0000
,
1100
0000
0000
0000
,
0101
0000
0000
0000
,
0110
0000
0000
0000
,
1000
0000
0001
0000
,
0100
0000
0010
0000
,
0100
0000
0001
0000
,
0010
0000
0100
0100
,
1000
0000
0010
0000
,
0100
0000
0001
0000
,
0010
0000
0000
1000
,
0000
0001
0100
0000
,
1000
0000
0010
0000
,
0100
0000
0001
0000
,
0010
0000
0100
0000
,
2002
0000
3000
0000
,
1003
0000
0010
0000
,
0100
0000
0010
0000
,
1000
0000
0001
0000
,
0100
0000
0010
0000
,
0100
0000
0001
0000
,
1000
0000
0100
0000
,
0010
0000
0100
0000
,
1000
0000
0010
0000
,
0100
0000
0100
0000
,
0010
0000
0010
0000
,
1000
0000
1000
0000
,
0001
0000
0001
0000
,
0100
0000
0010
0000
,
0100
0000
0001
0000
,
1000
0000
0100
0000
,
0010
0000
0001
0001
,
1000
1000
1000
0000
,
0001
0001
0001
0000
,
1001
0000
0000
0001
,
0000
1000
0100
0000
,
0010
0000
0001
0000
,
0100
0000
1000
0000
,
0010
0000
0001
0000
,
2002
0000
3000
0000
,
1003
0000
0010
0010
,
0100
0000
0100
0100
,
0001
0000
0001
0001
,
1000
0000
1000
1000
,
0100
0000
0100
0100
,
0010
0000
0010
0010
,
0001
0000
0001
0001
,
0100
0000
0001
1000
,
1001
0000
0000
0000
;

//---------------dance-single - Medium----------------
#NOTES:
     dance-single:
     Medium:
     Medium:
     5:
     0.343,0.373,0.041,0.041,0.000,226.000,4.000,4.000,0.000,0.000:
0000
0000
0000
0000
,
0000
0000
0000
0000
,
0000
0000
0000
0000
,
0000
0000
0000
0000
0000
0000
0000
0001
,
0000
0100
0000
0001
0000
1000
0000
0010
,
0000
0100
0000
0010
0000
1000
0000
0001
,
0000
0100
0000
1000
0000
0010
0000
0001
,
0000
1000
0000
0100
0000
0010
0000
0001
,
1000
1000
1000
1000
,
1000
1000
1000
1000
,
1000
1000
1000
1000
,
1000
1000
1000
1000
,
2000
0010
3001
0010
,
0200
1000
0310
0001
,
0200
0010
0301
1000
,
0002
0100
1003
0010
,
0100
0001
0100
0010
,
1000
0001
0010
0100
,
1001
0000
0000
1001
,
0010
1000
0100
1000
,
0001
0100
0010
0100
,
1000
0010
0100
0010
,
0001
0100
1000
0010
,
0001
0100
0001
1000
0010
0100
0010
1000
,
0001
0100
0000
0010
0000
1000
0000
0010
,
0000
0100
0000
0001
0000
0010
0000
0001
,
0000
1000
0000
0010
0000
0100
0000
0010
,
0000
1000
0000
0100
0000
0010
0000
0001
,
0000
0100
0000
0010
0000
0100
0000
0001
,
0000
1000
0000
0010
0000
0100
0000
0010
,
0000
1000
0000
0100
0000
1000
0000
0001
,
0000
0100
0000
0010
0000
0100
0000
0001
,
1000
0010
0100
0001
,
0010
0100
0010
0001
,
0100
0010
0100
1000
,
0010
0100
0010
0001
,
0100
0010
0100
0001
,
1000
0100
0010
0001
,
0100
0010
0100
0001
,
1000
0000
0010
0000
0100
0001
1000
0001
,
0100
0010
0100
0001
,
1000
0100
1000
0010
,
1001
0000
0000
1001
,
0010
1000
0100
0010
,
0001
1000
0100
0010
,
1000
0001
0010
0100
,
1000
0010
0001
0100
,
1000
0010
0100
0010
1000
0001
0100
0001
,
1000
0000
0010
0000
1000
0100
1000
0000
,
0010
0000
0100
0000
0001
0010
0001
0000
,
1000
0000
0010
0000
0100
0001
0100
0000
,
0010
0000
1000
0001
1000
0000
0010
0000
,
0100
0000
0001
0000
1000
0010
0100
0000
,
0001
0000
0010
0000
0100
1000
0001
0000
,
0010
0000
0100
0000
1000
0010
0100
0000
,
0001
0000
1000
0000
0010
0100
0010
0100
,
0001
0000
0000
0000
;

//---------------dance-single - Hard----------------
#NOTES:
     dance-single:
     Hard:
     Hard:
     7:
     0.429,0.431,0.000,0.041,0.236,289.000,0.000,4.000,0.000,0.000:
0000
0000
0000
0000
,
0000
0000
0000
0000
,
0000
0000
0000
0000
,
0000
0000
0000
0000
0000
0000
0000
0000
0000
0000
0000
0000
0000
0000
0000
0001
,
0000
0000
1000
0000
0000
0000
0000
0010
0000
0000
0100
0000
0000
0000
0000
0010
,
0000
0000
1000
0000
0000
0000
0000
0001
0000
0000
0100
0000
0000
0000
0000
0001
,
0000
0000
0010
0000
0000
0000
0000
0100
0000
0000
1000
0000
0000
0000
0000
0010
,
0000
0000
0100
0000
0000
0000
0000
0001
0000
0000
1000
0000
0000
0000
0000
0000
,
2000
0010
0001
0100
,
3020
1000
0100
0001
,
0230
0001
0010
1000
,
0302
0010
1000
0100
,
1003
0010
0100
0000
0010
1000
0100
0000
,
0010
0001
1000
0000
0001
0010
0100
0000
,
1000
0001
0100
0000
0001
1000
0100
0000
,
0010
0001
1000
0000
0010
0100
0001
0000
,
1000
0010
0100
0010
1000
0001
0010
0000
,
0100
1000
0010
0100
0010
1000
0001
0000
,
0010
0100
1000
0010
0100
0001
0010
0000
,
0001
0100
0010
0100
0001
1000
0100
0000
,
0001
0000
0100
0010
1000
0000
0100
0010
,
0001
0000
0100
0010
1000
0001
0010
0100
,
1000
0000
0010
0100
0010
0000
1000
0001
,
0100
0010
0100
0001
1000
0100
0010
0001
,
0100
0000
0010
0000
0000
0000
0000
1000
0000
0000
0100
0000
0000
0000
0000
1000
,
0000
0000
0010
0000
0000
0000
0000
0100
0000
0000
0010
0000
0000
0000
0000
0100
,
0000
0000
0001
0000
0000
0000
0000
0010
0000
0000
0001
0000
0000
0000
0000
0100
,
0000
0000
0010
0000
0000
0000
0000
1000
0000
0000
0001
0000
0000
0000
0000
0001
,
0000
0000
1000
0000
0000
0000
0000
0010
0000
0000
1000
0000
0000
0000
0000
0010
,
0000
0000
0100
0000
0000
0000
0000
0001
0000
0000
0100
0000
0000
0000
0000
0001
,
0000
0000
0010
0000
0000
0000
0000
0100
0000
0000
1000
0000
0000
0000
0000
0100
,
0000
0000
0010
0000
0000
0000
0000
0001
0000
0000
0010
0000
0000
0000
0000
0000
,
0001
1000
0100
1000
,
0010
0100
1000
0001
,
0010
0100
0010
0001
,
0100
1000
0001
0100
,
0010
1000
0001
0000
0010
0100
1000
0000
,
0010
0100
0001
0000
1000
0100
0010
0000
,
0001
1000
0100
0000
1000
0010
0100
0000
,
0010
1000
0001
0000
0010
0100
1000
0001
,
0100
0010
0100
0001
1000
0100
0010
0000
,
0001
1000
0100
1000
0010
0100
0010
0000
,
1000
0001
0010
0001
0100
0010
0100
0000
,
0001
0010
0100
1000
0010
0100
0001
0000
,
1000
0000
0010
0100
0001
0000
0010
0100
,
1000
0000
0010
0100
0010
1000
0001
0100
,
0010
0000
1000
0001
0010
0000
0100
1000
,
0010
0100
0001
0100
0010
1000
0100
0010
,
0001
0000
0000
0000
1000
0000
0000
0001
0000
1000
0000
0000
1000
0100
0000
0000
,
0010
0000
0000
0000
0001
0000
0000
0100
0000
0010
0000
0000
0010
1000
0000
0000
,
0001
0000
0000
0000
0010
0000
0000
0100
0000
1000
0000
0000
1000
0001
0000
0000
,
0100
0000
0000
0000
0010
0000
1000
0000
0000
1000
0000
0000
1000
0001
0000
0000
,
0100
0000
0000
0000
0010
0000
0000
1000
0000
0001
0000
0000
0001
0100
0000
0000
,
0010
0000
0000
0000
1000
0000
0000
0001
0000
0100
0000
0000
0100
0010
0000
0000
,
1000
0000
0000
0000
0100
0000
0000
0010
0000
0001
0000
0000
0001
1000
0000
0000
,
0010
0000
0000
0000
0100
0000
0001
0000
0000
0001
0000
0000
0001
1000
0000
0001
,
0010
0000
0000
0000
;

//---------------dance-single - Expert----------------
#NOTES:
     dance-single:
     Expert:
     Challenge:
     9:
     0.680,0.776,0.144,0.041,0.467,446.000,14.000,4.000,0.000,0.000:
0000
0000
0000
0000
,
0000
0000
0000
0000
,
0000
0000
0000
0000
,
0000
0000
0000
0000
0000
0000
0000
0000
0000
0000
0000
0000
0000
0000
0100
1000
,
0000
0000
0101
0000
0000
0000
0010
0001
0000
0000
1010
0000
0000
0000
0001
0010
,
0000
0000
1100
0000
0000
0000
1000
0010
0000
0000
0101
0000
0000
0000
0010
0100
,
0000
0000
1001
0000
0000
0000
0010
0100
0000
0000
1100
0000
0000
0000
0010
0001
,
1000
0100
1000
0001
1000
0100
1000
0001
0100
0010
0100
0001
0100
0010
0100
0001
,
0200
0010
0001
0010
,
2000
0300
0100
0000
0001
0000
0100
0000
,
0002
3000
1000
0000
0010
0000
1000
0000
,
0020
0003
0100
0000
0001
0000
0100
0000
,
1030
0001
0100
0010
0001
1000
0100
0010
,
1000
0100
0010
1000
0001
0100
0010
0001
,
1000
0001
0010
1000
0001
0100
1000
0001
,
0010
0100
0001
0100
0010
1000
0010
0100
,
1000
0100
0010
1000
0100
0001
0010
0100
,
0001
0010
1000
0001
0010
0100
0001
1000
,
0010
0100
0001
1000
0100
0001
1000
0010
,
0100
0001
0010
1000
0100
0001
1000
0010
,
0100
0001
0010
1000
0100
0001
0100
1000
,
0010
0100
1000
0010
1000
0001
0010
0100
,
0001
0010
0001
0100
0010
1000
0001
0100
,
0010
1000
0001
1000
0010
0100
0001
0100
0010
1000
0001
0010
0100
1000
0001
0100
,
0010
0000
1100
0000
0000
0000
0001
0100
0000
0000
0011
0000
0000
0000
0100
1000
,
0000
0000
1001
0000
0000
0000
0100
0010
0000
0000
0011
0000
0000
0000
0010
1000
,
0000
0000
1100
0000
0000
0000
0100
0001
0000
0000
1001
0000
0000
0000
0100
0010
,
0000
0000
1100
0000
0000
0000
1000
0010
0000
0000
0101
0000
0000
0000
0001
0100
,
0001
0000
1000
0000
0010
0000
1000
0001
1000
0000
0100
0000
0010
0000
0001
0100
,
0001
0000
1000
0000
0100
0000
0010
0001
0010
0000
0100
0000
1000
0000
0010
0100
,
0010
0000
1000
0000
0001
0000
0010
0100
1000
0000
0010
0000
0100
0000
0001
1000
,
0001
0010
0100
0010
0001
0010
0100
0010
0001
1000
0100
1000
0001
1000
0100
1000
,
0001
0010
0100
0001
1000
0010
0100
1000
,
0001
0100
0010
0001
1000
0100
0010
1000
,
0001
0100
1000
0001
1000
0001
0010
1000
,
0001
1000
0100
0001
1000
0010
0001
1000
,
0010
0100
0001
0010
1000
0001
0010
0100
,
0001
1000
0100
0001
1000
0010
0100
1000
,
0001
0010
1000
0001
0010
0100
0001
1000
,
0100
0010
0001
0100
1000
0001
0100
0010
,
1000
0001
0100
1000
0001
0100
1000
0010
,
0100
0001
0010
0100
0001
0010
1000
0100
,
0001
0010
1000
0001
0010
1000
0001
0010
,
1000
0100
0010
1000
0001
0100
1000
0001
,
0100
0010
1000
0100
0001
0010
0001
1000
,
0100
0001
0010
0001
1000
0010
0100
1000
,
0010
0001
0100
0001
1000
0100
0001
0010
,
0100
1000
0001
1000
0100
0010
0001
0010
0100
1000
0001
0100
0010
1000
0001
0010
,
0100
0000
1000
0000
0001
0100
0000
0100
0000
0010
1000
0000
0010
0100
0000
0001
,
0100
0000
0010
0000
1000
0001
0000
0001
0000
1000
0100
0000
1000
0010
0000
0100
,
0010
0000
1000
0000
0001
0100
0000
0100
0000
0010
1000
0000
0001
1000
0000
0001
,
0100
0000
0010
0000
1000
0000
1000
0100
0000
0010
0001
0000
1000
0001
0000
1000
,
0100
0000
0010
0000
0100
1000
0000
1000
0000
0010
0100
0010
1000
0001
0000
1000
,
0010
0000
0100
0000
0001
0010
0000
0010
0000
0100
1000
0000
0001
0100
0000
0010
,
1000
0000
0100
0000
0010
0001
0000
0001
0000
1000
0010
0000
1000
0100
0010
0000
,
0001
0000
1000
0000
0010
0000
0100
0001
0000
1000
0010
0000
1000
0001
1000
0010
,
0100
0000
0000
0000
;
