#TITLE:Exotica;
#SUBTITLE:;
#ARTIST:Banzai;
#TITLETRANSLIT:;
#SUBTITLETRANSLIT:;
#ARTISTTRANSLIT:;
#CREDIT:;
#BANNER:exotica-bn.GIF;
#BACKGROUND:exotica-bg.GIF;
#LYRICSPATH:;
#CDTITLE:;
#MUSIC:Banzai-Exotica.mp3;
#OFFSET:-0.296;
#SAMPLESTART:53.580;
#SAMPLELENGTH:12.000;
#SELECTABLE:YES;
#BPMS:0.000=117.999,151.000=58.999,155.000=118.000;
#STOPS:0.000=0.300
;
#BGCHANGES:;
// cache tags:
#FIRSTBEAT:7.000;
#LASTBEAT:209.500;
#SONGFILENAME:Songs/StepMix 2/Exotica/steps.sm;
#HASMUSIC:1;
#HASBANNER:1;
#MUSICLENGTH:109.957;
// end cache tags

//---------------dance-single - Blank----------------
#NOTES:
     dance-single:
     Blank:
     Challenge:
     10:
     0.787,0.755,0.227,0.664,0.668,507.000,25.000,73.000,6.000,1.000:





0000
0000
0000
0000
,
0000
0000
0000
0000
0000
0000
0000
0000
0000
0000
0000
0000
1001
0000
0000
0010
,
1000
0000
1000
0010
1000
0000
0100
0000
0010
0000
1000
0000
1001
0000
0000
0010
,
1000
0000
0000
0000
0000
0000
0001
0000
0000
1000
0000
0000
0001
0000
0000
0000
0000
0000
0010
0000
0000
0000
0000
0000
1000
0000
0100
0000
0010
0000
0001
0000
0000
0000
0000
0000
2000
0000
0000
0000
0000
0000
3002
0000
0000
0000
0000
0000
,
1003
0000
1000
0001
1000
0000
0010
0000
0100
0000
0110
0000
0100
0000
0010
0000
,
1000
0000
0000
0000
0000
0000
0001
0000
0000
1000
0000
0000
0010
0000
0000
0000
0000
0000
0110
0000
0000
0000
0000
0000
0100
0000
0010
0000
0100
0000
0010
0000
0100
0000
0000
0000
1000
0000
0000
0000
0000
0000
0100
0000
0000
0000
0000
0000
,
0100
0000
1000
0100
0001
0000
1000
0000
1010
0000
1010
0000
1000
0000
0100
1000
,
0100
0000
0000
0000
0000
0000
0100
0000
0000
0010
0000
0000
0001
0000
0000
0000
0000
0000
1000
0000
0000
0000
0000
0000
0100
0000
0001
0000
0100
0000
0001
0000
0010
0000
0000
0000
0200
0000
0000
0000
0000
0000
1300
0000
0000
0000
0000
0000
,
0020
1030
0002
1003
0200
1300
0020
1030
,
0020
0000
0000
0000
0000
0000
0000
0000
0000
0000
0000
0000
0000
0000
0000
0000
0000
0000
0000
0000
0000
0000
0000
0000
1030
0000
0000
0000
0000
0000
0000
0000
0000
0000
0000
0000
0000
0000
0000
0000
0000
0000
0000
0000
0000
0000
0000
0000
0002
0000
0000
0000
0000
0000
0000
0000
0000
0000
0000
0000
0000
0000
0000
0000
0000
0000
0000
0000
0000
0000
0000
0000
1003
0000
0000
0000
0000
0000
0000
0000
0000
0000
0000
0000
0010
0000
0000
0000
0000
0000
0000
0000
0000
0000
0000
0000
0100
0000
0000
0000
0000
0000
0000
0000
0010
0000
0000
0000
0000
0000
0000
0000
0000
0000
0001
0000
0000
0000
0000
0000
0000
0000
0000
0000
0000
0000
0000
0000
0000
0000
0000
0000
0000
0000
0000
0000
1000
0000
0000
0000
0000
0000
0000
0000
0100
0000
0000
0000
0000
0000
0000
0000
0000
0000
0000
0000
0000
0000
0000
0000
0000
0000
0000
0000
0000
0000
0000
0000
0001
0000
0000
0000
0000
0000
0000
0000
0000
0000
0000
0000
0000
0000
0000
0000
0000
0000
0000
0000
0000
0000
0000
0000
,
1001
0010
0110
0100
1100
1100
1001
0001
,
0011
0000
0000
0000
0000
0000
0000
0000
0000
0000
0000
0000
0000
0000
0000
0000
0000
0000
0000
0000
0000
0000
0000
0000
0010
0000
0000
0000
0000
0000
0000
0000
0000
0000
0000
0000
0000
0000
0000
0000
0000
0000
0000
0000
0000
0000
0000
0000
1100
0000
0000
0000
0000
0000
0000
0000
0000
0000
0000
0000
0000
0000
0000
0000
0000
0000
0000
0000
0000
0000
0000
0000
1000
0000
0000
0000
0000
0000
0000
0000
0000
0000
0000
0000
0100
0000
0000
0000
0000
0000
0000
0000
0000
0000
0000
0000
0010
0000
0000
0000
0000
0000
0000
0000
0001
0000
0000
0000
0000
0000
0000
0000
0000
0000
1000
0000
0000
0000
0000
0000
0000
0000
0000
0000
0000
0000
0000
0000
0000
0000
0000
0000
0000
0000
0000
0000
1000
0000
0000
0000
0000
0000
0000
0000
0100
0000
0000
0000
0000
0000
0000
0000
0000
0000
0000
0000
0000
0000
0000
0000
0000
0000
0000
0000
0000
0000
0000
0000
0100
0000
0000
0000
0000
0000
0000
0000
0000
0000
0000
0000
0010
0000
0000
0000
0000
0000
0000
0000
0000
0000
0000
0000
,
0100
0000
0000
0000
0000
0001
1000
0000
0001
0000
0000
0000
0010
0000
0000
0000
1000
0000
0000
0000
0010
0000
0000
0000
1001
0000
0000
0000
1000
0000
0100
0000
,
0001
0000
0000
0000
0000
0000
0000
0000
0000
0000
0000
0000
0000
0000
0000
0000
0000
0000
0000
0000
0000
0000
0000
0000
0000
0000
0000
0000
0000
0000
0001
0000
0000
0000
0000
0000
1000
0000
0000
0000
0000
0000
0000
0000
0000
0000
0000
0000
0010
0000
0000
0000
0000
0000
0000
0000
0000
0000
0000
0000
0000
0000
0000
0000
0000
0000
0000
0000
0000
0000
0000
0000
0010
0000
0000
0000
0000
0000
0000
0000
0000
0000
0000
0000
0000
0000
0000
0000
0000
0000
0000
0000
0000
0000
0000
0000
1000
0000
0000
0000
0000
0000
0000
0000
0001
0000
0000
0000
0000
0000
0000
0000
0010
0000
0000
0000
0000
0000
0000
0000
0100
0000
0000
0000
0000
0000
0000
0000
1000
0000
0000
0000
0000
0000
0000
0000
0000
0000
0000
0000
0000
0000
0000
0000
0001
0000
0000
0000
0000
0000
0000
0000
0000
0000
0000
0000
1000
0000
0000
0000
0000
0000
0000
0000
0000
0000
0000
0000
0010
0000
0000
0000
0000
0000
0000
0000
0000
0000
0000
0000
0100
0000
0000
0000
0000
0000
0000
0000
0000
0000
0000
0000
,
0010
0000
0000
0000
0000
0001
1000
0000
0001
0000
0000
0000
1000
0000
0000
0000
0110
0000
0000
0000
0110
0000
0000
0000
0001
0000
0010
0000
1000
0000
0010
0000
,
0100
0000
0000
0000
0000
0000
0000
0000
0000
0000
0000
0000
0000
0000
0000
0000
0000
0000
0000
0000
0000
0000
0000
0000
0000
0000
0000
0000
0000
0000
0001
0000
0000
0000
0000
0000
1000
0000
0000
0000
0000
0000
0000
0000
0000
0000
0000
0000
0010
0000
0000
0000
0000
0000
0000
0000
0000
0000
0000
0000
0000
0000
0000
0000
0000
0000
0000
0000
0000
0000
0000
0000
0100
0000
0000
0000
0000
0000
0000
0000
0000
0000
0000
0000
0000
0000
0000
0000
0000
0000
0000
0000
0000
0000
0000
0000
0010
0000
0000
0000
0000
0000
0000
0000
1000
0000
0000
0000
0000
0000
0000
0000
0001
0000
0000
0000
0000
0000
0000
0000
1000
0000
0000
0000
0000
0000
0000
0000
0001
0000
0000
0000
0000
0000
0000
0000
0000
0000
0000
0000
0000
0000
0000
0000
0010
0000
0000
0000
0000
0000
0000
0000
0000
0000
0000
0000
0000
0000
0000
0000
0000
0000
0000
0000
0000
0000
0000
0000
2000
0000
0000
0000
0000
0000
0000
0000
0000
0000
0000
0000
0000
0000
0000
0000
0000
0000
0000
0000
0000
0000
0000
0000
,
0100
0010
0010
0001
0001
0010
3020
1000
,
1000
0000
0000
0000
0000
0000
0100
0000
0000
0000
0000
0000
0032
0000
0000
0000
0000
0000
1000
0000
0000
0000
0000
0000
1000
0000
0000
0003
0000
0000
1000
0000
0000
0000
0000
0000
1000
0000
0000
0000
0001
0000
0000
0000
0000
0000
0001
0000
,
1000
0000
0000
0000
0200
0000
0000
0300
0101
0000
0101
0000
2000
0000
0000
0000
,
0100
0100
0100
0100
0100
0100
3010
0002
,
1000
1000
0100
0100
0010
1003
0200
1000
,
1000
0000
0000
0000
0000
0000
0010
0000
0000
0000
0000
0000
0301
0000
0000
0010
0000
0000
0100
0000
0000
1000
0000
0000
0100
0000
0000
0010
0000
0000
0001
0000
0000
0000
0000
0000
1000
0000
0000
0000
0000
0000
0010
0000
1000
0000
0001
0000
,
1000
0000
0000
0000
0000
0000
0000
0000
0010
0000
0000
0000
0000
0000
0000
0000
0000
0000
0000
0000
0000
0000
0000
0000
0000
0000
0000
0000
0000
0000
1000
0000
0000
0000
0000
0000
0001
0000
0000
0000
0000
0000
0000
0000
0000
0000
0000
0000
1000
0000
0000
0000
0000
0000
0000
0000
0000
0000
0000
0000
0000
0000
0000
0000
0000
0000
0000
0000
0000
0000
0000
0000
0001
0000
0000
0000
0000
0000
0000
0000
0000
0000
0000
0000
0000
0000
0000
0000
0000
0000
0000
0000
0000
0000
0000
0000
0110
0000
0000
0000
0000
0000
0000
0000
0000
0000
0000
0000
0000
0000
0000
0000
0000
0000
0000
0000
0000
0000
0000
0000
1100
0000
0000
0000
0000
0000
0000
0000
0000
0000
0000
0000
0000
0000
0000
0000
0000
0000
0000
0000
0000
0000
0000
0000
0001
0000
0000
0000
0000
0000
0000
0000
0000
0000
0000
0000
0000
0000
0000
0000
0000
0000
0000
0000
0000
0000
0000
0000
1000
0000
0000
0000
0000
0000
0000
0000
0000
0000
0000
0000
0001
0000
0000
0000
0000
0000
0000
0000
0000
0000
0000
0000
,
0020
0000
0000
0000
0000
0000
0000
0000
0000
0000
0000
0000
1030
0000
0000
0000
0000
0000
1000
0000
0001
0000
1000
0000
0100
0000
0010
0000
0000
0000
2000
0000
0000
3002
0000
0000
0023
0000
0000
0000
0000
0000
1000
0000
0000
0000
0000
0000
,
1030
0000
0000
0000
0000
0000
0000
0000
0001
0000
0000
0000
0000
0000
0000
0000
0000
0000
0000
0000
0000
0000
0000
0000
0000
0000
0000
0000
0000
0000
0000
0000
0001
0000
0000
0000
0000
0000
0000
0000
0000
0000
0000
0000
0000
0000
0000
0000
0000
0000
0000
0000
0000
0000
0000
0000
0000
0000
0000
0000
0000
0000
0000
0000
0000
0000
0000
0000
1000
0000
0000
0000
0000
0000
0000
0000
0000
0000
0000
0000
0000
0000
0000
0000
0000
0000
0000
0000
0000
0000
0000
0000
0010
0000
0000
0000
0000
0000
0000
0000
0000
0000
0000
0000
0000
0000
0000
0000
0000
0000
0000
0000
0000
0000
0000
0000
0000
0000
0000
0000
0000
0000
0000
0000
0000
0000
0000
0000
0000
0000
0000
0000
0000
0000
0000
0000
0000
0000
0000
0000
0000
0000
0000
0000
0000
0000
0000
0000
0000
0000
0000
0000
0000
0001
0000
0000
0000
0000
0000
0000
0000
0000
0000
0000
0000
1000
0000
0000
0000
0000
0000
0000
0000
0000
0000
0000
0000
0000
0000
0000
0000
0000
0000
0000
0100
0000
0000
0000
0000
0000
0000
0000
,
0000
0000
0000
0000
0000
0000
0000
0000
0000
0000
1000
0000
0000
0000
0000
0000
0000
0000
0000
0000
0000
1000
0001
1000
0001
0000
0000
0000
0010
0000
0000
0000
,
0200
0010
0302
0010
2003
0010
3200
0010
,
2300
0000
0000
0000
0000
0000
0000
0000
0000
0000
0000
0000
0000
0000
0000
0000
0000
0000
0000
0000
0000
0000
0000
0000
0010
0000
0000
0000
0000
0000
0000
0000
0000
0000
0000
0000
0000
0000
0000
0000
0000
0000
0000
0000
0000
0000
0000
0000
3002
0000
0000
0000
0000
0000
0000
0000
0000
0000
0000
0000
0000
0000
0000
0000
0000
0000
0000
0000
0000
0000
0000
0000
1003
0000
0000
0000
0000
0000
0000
0000
0000
0000
0000
0000
0010
0000
0000
0000
0000
0000
0000
0000
0000
0000
0000
0000
0100
0000
0000
0000
0000
0000
0000
0000
0010
0000
0000
0000
0000
0000
0000
0000
0000
0000
0001
0000
0000
0000
0000
0000
0000
0000
0000
0000
0000
0000
0000
0000
0000
0000
0000
0000
0000
0000
0000
0000
1000
0000
0000
0000
0000
0000
0000
0000
0010
0000
0000
0000
0000
0000
0100
0000
0000
0000
0000
0000
0010
0000
0000
0000
0000
0000
0000
0000
0000
0000
0000
0000
1000
0000
0000
0000
0000
0000
0000
0000
0000
0000
0000
0000
0000
0000
0000
0000
0000
0000
0000
0000
0000
0000
0000
0000
,
0100
0000
1000
0001
1000
0000
0001
0010
0001
0000
0010
0100
0010
0000
1000
0001
,
1000
0000
1000
0100
1000
0000
0001
0010
0001
0000
0100
0010
0100
1000
0001
0000
,
2000
0100
3020
0100
0032
0100
0023
0100
,
2030
0000
0000
0000
0000
0000
0000
0000
0000
0000
0000
0000
0000
0000
0000
0000
0000
0000
0000
0000
0000
0000
0000
0000
0100
0000
0000
0000
0000
0000
0000
0000
0000
0000
0000
0000
0000
0000
0000
0000
0000
0000
0000
0000
0000
0000
0000
0000
3002
0000
0000
0000
0000
0000
0000
0000
0000
0000
0000
0000
0000
0000
0000
0000
0000
0000
0000
0000
0000
0000
0000
0000
1003
0000
0000
0000
0000
0000
0000
0000
0000
0000
0000
0000
0010
0000
0000
0000
0000
0000
0000
0000
0000
0000
0000
0000
0100
0000
0000
0000
0000
0000
0000
0000
0010
0000
0000
0000
0000
0000
0000
0000
0000
0000
1000
0000
0000
0000
0000
0000
0000
0000
0000
0000
0000
0000
0000
0000
0000
0000
0000
0000
0000
0000
0000
0000
0010
0000
0000
0000
0000
0000
0000
0000
2000
0000
0000
0000
0000
0000
0000
0000
0000
0000
0000
0000
3002
0000
0000
0000
0000
0000
0000
0000
0000
0000
0000
0000
1003
0000
0000
0000
0000
0000
0000
0000
0000
0000
0000
0000
0000
0000
0000
0000
0000
0000
0000
0000
0000
0000
0000
0000
,
0001
0000
1000
0000
0010
0000
1000
0000
0100
0000
0010
0000
0001
0000
1000
0001
,
1000
0000
0010
0000
0100
0000
1000
0010
1000
0001
0200
0000
2300
0000
3020
0000
,
0032
1000
0203
1000
0302
1000
0023
1000
,
0032
0000
0000
0000
0000
0000
0000
0000
0000
0000
0000
0000
0000
0000
0000
0000
0000
0000
0000
0000
0000
0000
0000
0000
1000
0000
0000
0000
0000
0000
0000
0000
0000
0000
0000
0000
0000
0000
0000
0000
0000
0000
0000
0000
0000
0000
0000
0000
0203
0000
0000
0000
0000
0000
0000
0000
0000
0000
0000
0000
0000
0000
0000
0000
0000
0000
0000
0000
0000
0000
0000
0000
1300
0000
0000
0000
0000
0000
0000
0000
0000
0000
0000
0000
0001
0000
0000
0000
0000
0000
0000
0000
0000
0000
0000
0000
1000
0000
0000
0000
0000
0000
0000
0000
0010
0000
0000
0000
0000
0000
0000
0000
0000
0000
0100
0000
0000
0000
0000
0000
0000
0000
0000
0000
0000
0000
0000
0000
0000
0000
0000
0000
0000
0000
0000
0000
1000
0000
0000
0000
0000
0000
0000
0000
0001
0000
0000
0000
0000
0000
0000
0000
0000
0000
0000
0000
0000
0000
0000
0000
0000
0000
0000
0000
0000
0000
0000
0000
1000
0000
0000
0000
0000
0000
0000
0000
0000
0000
0000
0000
0001
0000
0000
0000
0000
0000
0000
0000
0000
0000
0000
0000
,
1000
0000
0100
1000
0100
1000
0001
0010
0100
0000
1000
0001
1000
0000
0010
0100
,
1000
0000
0001
0000
0010
0000
0001
0000
1000
0000
0100
0000
1000
0000
0001
0000
1000
0000
0000
0000
1000
0001
1000
0001
1000
0000
0000
0001
1000
0000
0001
1000
,
0001
0000
0000
0000
0000
0000
0000
0000
0000
0000
0000
0000
1000
0000
0000
0000
0000
0000
0000
0000
0000
0000
0000
0000
0010
0000
0000
0000
0000
0000
0000
0000
0000
0000
0000
0000
0100
0000
0000
0000
0000
0000
0000
0000
0000
0000
0000
0000
0001
0000
0000
0000
0000
0000
0000
0000
0000
0000
0000
0000
0000
0000
0000
0000
0000
0000
0001
0000
0000
0000
0000
0000
1000
0000
0000
0000
0000
0000
0000
0000
0000
0000
0000
0000
0001
0000
0000
0000
0000
0000
0010
0000
0000
0000
0000
0000
0100
0000
0000
0000
0000
0000
0000
0000
0000
0000
0000
0000
1000
0000
0000
0000
0000
0000
0000
0000
0000
0000
0000
0000
0100
0000
0000
0000
1000
0000
0000
0000
0000
0000
0000
0000
0100
0000
0000
0000
0000
0000
0000
0000
1000
0000
0000
0000
0001
0000
0000
0000
0000
0000
0000
0000
0000
0000
0000
0000
0000
0000
0000
0000
0000
0000
0000
0000
0000
0000
0000
0000
1000
0000
0000
0000
0000
0000
0000
0000
0000
0000
0000
0000
0000
0000
0000
0000
0000
0000
0000
0000
0000
0000
0000
0000
,
0020
1000
0230
1000
0302
1000
0023
1000
,
0032
0000
0000
0000
0000
0000
0000
0000
0000
0000
0000
0000
0000
0000
0000
0000
0000
0000
0000
0000
0000
0000
0000
0000
1000
0000
0000
0000
0000
0000
0000
0000
0000
0000
0000
0000
0000
0000
0000
0000
0000
0000
0000
0000
0000
0000
0000
0000
0203
0000
0000
0000
0000
0000
0000
0000
0000
0000
0000
0000
0000
0000
0000
0000
0000
0000
0000
0000
0000
0000
0000
0000
1300
0000
0000
0000
0000
0000
0000
0000
0000
0000
0000
0000
1000
0000
0000
0000
0000
0000
0000
0000
0000
0000
0000
0000
0001
0000
0000
0000
0000
0000
0000
0000
0100
0000
0000
0000
0000
0000
0000
0000
0000
0000
0010
0000
0000
0000
0000
0000
0000
0000
0000
0000
0000
0000
0000
0000
0000
0000
0000
0000
0000
0000
0000
0000
0001
0000
0000
0000
0000
0000
0000
0000
1000
0000
0000
0000
0000
0000
0000
0000
0000
0000
0000
0000
0000
0000
0000
0000
0000
0000
0000
0000
0000
0000
0000
0000
0010
0000
0000
0000
0000
0000
0000
0000
0000
0000
0000
0000
0000
0000
0000
0000
0000
0000
0000
0000
0000
0000
0000
0000
,
0200
0000
0000
0000
0010
0000
0000
0000
0302
0000
0000
0000
0010
0000
0000
0000
0203
0000
0000
0000
0020
0000
0000
0030
2300
0000
0000
0000
0010
0000
0000
0000
,
3002
0000
0000
0000
0000
0000
0000
0000
0000
0000
0000
0000
0000
0000
0000
0000
0000
0000
0000
0000
0000
0000
0000
0000
0010
0000
0000
0000
0000
0000
0000
0000
0000
0000
0000
0000
0000
0000
0000
0000
0000
0000
0000
0000
0000
0000
0000
0000
0203
0000
0000
0000
0000
0000
0000
0000
0000
0000
0000
0000
0000
0000
0000
0000
0000
0000
0000
0000
0000
0000
0000
0000
1300
0000
0000
0000
0000
0000
0000
0000
0000
0000
0000
0000
0001
0000
0000
0000
0000
0000
0000
0000
0000
0000
0000
0000
0100
0000
0000
0000
0000
0000
0000
0000
0001
0000
0000
0000
0000
0000
0000
0000
0000
0000
1000
0000
0000
0000
0000
0000
0000
0000
0000
0000
0000
0000
0000
0000
0000
0000
0000
0000
0000
0000
0000
0000
0010
0000
0000
0000
0000
0000
0000
0000
0100
0000
0000
0000
0000
0000
0000
0000
0000
0000
0000
0000
0000
0000
0000
0000
0000
0000
0000
0000
0000
0000
0000
0000
0200
0000
0000
0000
0000
0000
0000
0000
0000
0000
0000
0000
0000
0000
0000
0000
0000
0000
0000
0000
0000
0000
0000
0000
,
0010
0010
1000
1000
0010
0010
2300
0001
,
0001
0000
0100
0001
3200
0000
1000
0000
1000
0000
1000
0001
0320
0000
0100
1000
,
0130
0000
0110
0000
2000
0000
0100
0001
3100
0000
0101
0000
0002
0000
0010
1000
,
0013
0000
0000
0000
0000
0000
1000
0000
0000
0001
0000
0000
0100
0000
0000
0000
0000
0000
1000
0000
0000
0000
0000
0000
0100
0000
0001
0000
0100
0000
0010
0000
0000
0001
0000
0000
0200
0000
0000
0000
0000
0000
0010
0000
0000
0000
0000
0000
,
1000
0000
1000
0000
0010
0000
0010
0000
0001
0000
0301
1000
0020
0000
1000
0000
,
1000
0000
0100
1000
0032
0000
0010
0000
0010
0000
1000
0010
2003
0000
0100
0010
,
3100
0000
1001
0000
0002
0000
0010
0100
2003
0000
3002
0000
2003
0000
0100
0001
,
3100
0000
1001
0000
0020
0000
0100
0001
0130
0000
0100
0000
1202
0000
0000
0000
,
0000
0000
0000
0000
0000
0000
0000
0000
0303
0000
0MM0
0000
0000
M00M
0MM0
0000
;

//---------------dance-single - Blank----------------
#NOTES:
     dance-single:
     Blank:
     Medium:
     7:
     0.479,0.498,0.209,0.518,0.095,289.000,23.000,57.000,6.000,0.000:


























0000
0000
0000
0000
,
0000
0000
0000
0000
0000
0000
0100
0010
,
0100
0000
0001
1000
0010
0000
1000
0100
,
1000
0000
0001
1000
0001
1000
1001
0000
,
0110
1000
0001
0100
,
0010
0000
1000
0000
0001
1000
0001
0000
,
1000
0000
0010
0000
0100
0100
0001
0000
,
1000
0000
0010
0000
1000
0001
1000
0010
,
2000
3002
0023
0230
,
0320
0000
2030
0001
3010
0001
2000
0000
,
3200
0000
2300
0000
3002
1000
2003
0000
,
3020
0000
0000
0000
0230
0000
0000
0000
0301
0000
1000
0001
2000
0000
0000
0000
,
3100
0000
0001
1000
0010
1000
0200
0000
,
0301
0000
0000
0000
0100
0000
0100
0000
0100
0010
0100
0000
0002
0000
0000
0000
,
1003
0000
0010
1000
0020
0230
0320
0000
,
1030
0000
0000
0000
0001
0000
1000
0000
0010
0100
0010
0000
1000
0000
0000
0000
,
1001
1000
1010
0010
,
0011
0001
0101
0100
,
1100
0100
0001
0000
0100
0100
0001
0000
,
0100
0100
0001
0010
1000
0001
1000
0000
,
1001
0001
0011
0010
,
0110
0000
0000
0000
0100
0000
0000
0000
1100
0000
0000
0000
0100
0000
0000
0001
,
1000
0000
0000
0000
0100
0000
0010
0000
0100
0000
0000
0000
0001
0000
0000
1000
,
0010
0000
0000
0000
1000
0000
0001
0000
1000
0000
0010
1000
0010
0000
0001
0000
,
1000
0010
0100
0001
,
1000
0000
0000
0000
0100
0000
0000
0000
0010
0000
0010
1000
0010
0000
1000
0000
,
0002
0203
0320
2030
,
3020
0000
0230
0000
0310
0100
1000
0100
,
0010
0000
0000
1000
0001
0000
0010
0000
0100
0000
0000
0000
0010
0000
0100
0000
,
0010
0000
0000
0000
0001
0000
0010
0000
1000
0000
0000
1000
0010
0000
0100
0000
,
0002
0023
0230
0302
,
2003
0000
3200
0010
0301
0010
2000
0000
,
3100
0010
0100
0000
0001
1000
0001
1000
,
0010
0000
1000
0000
0001
0000
0010
0000
0100
0000
1000
0100
1000
0000
0110
0000
,
0200
0302
2003
3020
,
0230
0000
0000
0000
0302
0000
1000
0000
0103
0000
1000
0000
0010
0000
0000
1000
,
0001
0000
0000
0000
1000
0000
0001
0000
0010
0000
0100
0010
0001
0000
0000
0000
,
1000
0000
0000
0000
0010
0000
1000
0000
0001
0000
1000
0001
2000
0000
0001
0000
,
3020
0000
0000
0000
0100
0000
0000
0000
0230
0000
0000
0000
0010
0000
0000
0000
0302
0000
0000
0000
1000
0000
0100
1000
0103
0000
0000
0000
0000
0000
0000
0000
,
2000
3002
0023
0230
,
0320
0000
2030
0100
3010
0001
0002
0000
,
0203
0000
0320
0000
2030
0010
3020
0000
,
0230
0000
0000
0000
0302
0000
1000
0000
0103
0000
0010
1000
0001
0000
0000
0000
,
1001
1000
1100
0100
,
0110
0010
0011
0001
,
1001
0000
1000
0000
1000
0000
0000
0001
1000
0000
1000
0000
1000
0000
0000
0001
,
0100
0010
1000
0001
1000
0010
0100
0000
,
0110
0100
0101
0001
,
1001
1000
1010
0010
,
0110
0000
0100
0000
0100
0000
0000
0001
0100
0000
0100
0000
0100
0000
0000
0001
,
1000
0010
0100
0001
1000
0001
2002
0000
,
0000
0000
0000
0000
0000
0000
3003
0MM0
,
0000
M00M
0MM0
0000
0000
0000
0000
0000
0000
0000
0000
0000
0000
0000
0000
0000
;

//---------------dance-single - Blank----------------
#NOTES:
     dance-single:
     Blank:
     Easy:
     5:
     0.373,0.405,0.255,0.291,0.005,227.000,28.000,32.000,6.000,0.000:



























0000
0000
0000
0000
,
0000
0000
0000
0000
,
0000
0000
0000
0000
,
0000
0000
0000
2000
,
3002
1003
0010
0100
,
0001
0000
1000
0000
1000
0100
0010
0000
,
0001
0000
1000
0000
0010
0010
0100
0000
,
0001
0000
1000
0000
0010
1000
0010
0000
,
0110
0010
1010
1000
,
1001
0001
0011
0001
,
1001
1000
1010
0010
,
0110
0100
0101
0001
,
1000
0000
0010
1000
0010
0000
0001
0000
,
1000
0000
0010
0100
0010
0100
0010
0000
,
0001
0000
1000
0100
0010
0010
0100
0000
,
0001
0000
1000
0010
1000
0001
2000
0000
,
3010
0002
1003
0200
,
0310
2000
3001
0002
,
1003
0000
0002
0000
1003
1000
0002
0000
,
1003
0001
0001
2000
,
3010
0020
0130
0200
,
0301
0000
0002
0000
1003
0001
1000
0000
,
0010
1000
0001
0100
,
0010
0000
1000
0000
0001
1000
0002
0000
,
1000
0100
0100
1000
,
0010
1000
0010
1003
,
1001
0001
0011
0010
,
0110
0100
1100
1000
,
1001
0000
0001
0000
0010
0000
0100
0010
,
0100
0000
0010
0000
1000
0010
0100
0000
,
1002
0013
2010
3100
,
0210
0301
1002
0013
,
1000
0100
0010
0000
1000
0001
0100
0000
,
0001
1000
0010
0000
0010
0100
0010
0010
,
0010
0000
0001
0001
0001
0000
1000
1000
,
1000
0000
0100
0100
0100
1000
0001
0000
,
1000
0000
0010
0000
0100
0000
0001
1000
,
0001
0000
0010
1000
0001
1000
0002
0000
,
2003
3020
0230
0301
,
1001
1000
1010
0010
,
0110
0100
0101
1000
,
0101
0000
0001
0000
1001
1000
1000
0000
,
1010
0000
0010
0000
0110
0010
2000
0000
,
0001
0010
0100
3020
,
0100
0032
1000
0023
,
0130
0000
0020
0100
0130
0000
0020
0100
,
0130
1000
0001
0010
0100
0010
0002
0000
,
1000
0010
0100
2003
,
0100
0000
0000
0000
0020
0000
0000
0000
0000
0000
0000
3030
1010
0000
0000
0000
,
0001
0000
1010
0000
0001
0001
1010
1000
,
0001
0100
0010
1000
0001
1000
0002
0000
,
0000
0000
0000
0000
,
0003
0000
0MM0
0000
0000
M00M
0MM0
0000
0000
0000
0000
0000
0000
0000
0000
0000
;

//---------------dance-single - Blank----------------
#NOTES:
     dance-single:
     Blank:
     Beginner:
     3:
     0.230,0.260,0.118,0.191,0.000,143.000,13.000,21.000,0.000,0.000:





















0000
0000
0000
0000
,
0000
0000
0000
0000
,
0000
0000
0000
0000
,
0000
0000
0000
1000
,
0001
1000
0000
0001
,
0000
0001
0100
0001
,
0000
1000
0010
0001
,
0000
1000
0001
1000
,
0010
0000
1000
0000
,
0001
0000
1000
1000
,
0001
0010
0100
0010
,
1000
0100
0001
1001
,
1000
0000
0010
0000
,
1000
0000
1000
0010
,
0100
0001
1000
0010
,
0100
0001
1000
0020
,
0000
0000
0000
2030
,
0000
3002
0000
0013
,
0110
0100
0110
0010
,
0110
1000
0001
0020
,
0000
0000
0000
2030
,
0000
0002
3003
1001
,
1000
0000
0010
0000
,
0010
0000
1000
0001
,
1000
0000
0010
0000
,
1000
0000
0001
1000
,
0001
1000
0010
0010
,
1000
0100
0100
0010
,
1000
0000
0001
1000
,
0001
0000
1000
0010
,
0100
0100
0010
0010
,
1000
1000
0001
0002
,
0000
2003
0000
3020
,
0000
0230
0000
0301
,
0001
1000
1000
0010
,
0010
0100
0100
0002
,
0000
2003
0000
3020
,
0000
0230
0000
0301
,
1000
0010
0100
0001
,
1000
0010
1000
0001
,
1000
0010
0100
0100
,
0001
1000
0010
0100
,
0001
1000
0010
0020
,
0000
0000
0000
2030
,
0000
3002
0000
1003
,
1010
1000
1010
1000
,
1001
0010
0110
0200
,
0000
0000
0000
2300
,
0000
3002
0000
1003
,
1010
1000
1001
0001
,
1001
1000
1010
2000
,
0000
0000
0000
0000
,
3000
0000
0000
0000
;

//---------------dance-single - Blank----------------
#NOTES:
     dance-single:
     Blank:
     Hard:
     10:
     0.838,0.923,0.573,0.909,0.655,482.000,63.000,100.000,6.000,0.000:

0000
0000
0000
0000
,
0000
0000
0000
0000
0000
0000
0000
0000
0000
0000
0000
0000
0002
0000
0000
1000
,
0013
0000
1000
0100
0010
0000
0001
0000
1000
0000
0010
0000
2000
0000
0000
0010
,
3100
0000
0000
0000
0000
0000
0001
0000
0000
1000
0000
0000
0010
0000
0000
0000
0000
0000
0100
0000
0000
0000
0000
0000
0010
0000
1000
0000
0001
0000
0100
0000
0000
0000
0000
0000
0001
0000
0000
1000
0000
0000
0001
0000
0000
0000
0000
0000
,
1001
0000
1000
0010
1000
0000
1100
0000
0110
0000
0011
0000
0002
0000
0000
1000
,
0013
0000
0000
0000
0000
0000
1000
0000
0000
0010
0000
0000
1000
0000
0000
0000
0000
0000
1010
0000
0000
0000
0000
0000
0100
0000
0001
0000
0100
0000
0001
0000
0100
0000
0000
0000
0002
0000
0000
0000
0000
0000
0000
0000
0000
1000
0000
0000
,
0013
0000
1000
0001
1000
0000
1100
0000
0012
0003
0120
0030
2000
0000
0000
0001
,
3100
0000
0000
0000
0000
0000
0010
0000
0000
1000
0000
0000
0010
0000
0000
0000
0000
0000
0001
0000
0000
0000
0000
0000
0010
0000
0100
0000
1000
0000
0100
0000
1000
0000
0000
0000
0001
0000
0000
0000
0000
0000
2000
0000
0000
0000
0000
0000
,
0020
3000
0032
0000
0200
0003
2000
0300
0020
3000
0002
0030
0200
0003
0020
0300
,
2000
0030
0002
3000
0020
0003
0100
0000
1030
0100
0000
0100
1000
0000
0020
0000
,
0200
0030
0002
0300
2000
0003
0020
3000
0200
0030
2000
0300
0002
3000
0020
0003
,
2000
0030
0200
3000
0002
0300
2000
0003
0010
3001
0000
0001
2000
0000
0100
0001
,
3100
0000
1000
0100
0010
0000
0011
0000
1001
0000
1010
0000
2000
0000
0000
0010
,
3100
0000
0000
0000
0000
0000
1000
0000
0000
0001
0000
0000
1000
0000
0000
0000
0000
0000
0010
0000
0000
0000
0000
0000
0100
0000
0010
0000
0100
0000
0001
0000
0100
0000
0000
0000
0002
0000
0000
0000
0000
0000
0000
0000
0000
1000
0000
0000
,
0103
0000
0100
1000
0001
0000
0011
0000
0120
0030
1200
0300
2000
0000
0000
0010
,
3100
0000
0000
0000
0000
0000
0001
0000
0000
1000
0000
0000
0001
0000
0000
0000
0000
0000
0010
0000
0000
0000
0000
0000
0100
0000
0001
0000
0100
0000
0010
0000
0100
0000
0000
0000
0001
0000
0000
0000
0000
0000
1000
0000
0000
0000
0000
0000
,
0001
0000
0000
1000
0010
1000
0010
0000
1010
0000
0000
0000
0001
0000
1000
0000
,
0001
0000
0000
1000
0100
0010
0001
0000
1001
0000
0000
0000
1000
0000
0001
0000
,
1000
0000
0000
1000
0001
0010
0100
0000
0120
0000
0230
0300
0210
0000
0300
0000
,
0110
0000
0000
0001
0010
0100
1000
0000
1100
0000
1100
0000
0010
0000
0100
0000
,
0010
0000
0000
0001
1000
0010
0100
0000
0110
0000
0000
0000
1000
0000
0001
0000
,
1000
0000
0000
0001
1000
0100
0010
0000
1001
0000
0100
0000
1002
0000
0000
1000
,
0103
0000
0100
1000
0100
0000
0110
0000
1100
0000
1001
0000
0002
0000
0000
0010
,
1003
0000
0000
0000
0000
0000
1000
0000
0000
0010
0000
0000
0100
0000
0000
0000
0000
0000
0001
0000
0000
0000
0000
0000
1000
0000
0001
0000
1000
0000
0010
0000
0100
0000
0000
0000
0001
0000
0000
1000
0000
0000
0010
0000
1000
0000
0000
0000
,
0000
0000
0000
0001
0100
0000
0010
0000
0000
0000
1000
0000
0000
0000
0000
0002
0000
0000
0000
0003
0100
0000
1000
0000
0100
0000
0000
0000
1000
0000
0001
0000
,
1000
0000
0000
0000
0100
0000
0010
0000
0100
0000
0010
0000
1000
0000
0001
0000
1000
0000
0000
0000
0000
0001
1000
0001
1000
0010
0100
0000
0000
0000
0000
0000
,
0000
0000
0000
0000
0010
0000
0000
0000
0100
0000
0010
0000
0000
0000
0100
0000
0010
0000
0000
0000
0010
0000
0000
0000
0100
0010
0100
0000
0000
0000
0000
0000
,
0100
0000
0000
0000
0000
0000
0000
0000
0001
0000
1000
0000
0000
1000
0000
0000
0001
0000
0000
1000
0010
0100
0000
0000
0001
1000
0001
0000
0010
0000
0000
0000
,
0100
1000
1100
0100
0010
0001
1001
1000
,
0010
0000
0000
0000
0100
0000
0000
0000
0101
0000
0000
0000
0001
0000
0000
0000
1000
0000
0000
0000
0010
0000
0000
0000
1000
0010
1000
0000
0000
0000
0000
0000
,
0000
0000
0000
0000
1000
0000
0000
0000
0001
0000
1000
0000
0000
0000
0001
0000
0100
0000
0000
0000
1000
0000
0000
0000
0001
0010
0001
0000
0000
0000
0000
0000
,
0110
0000
0000
0000
0000
0000
0000
0000
0010
0000
0100
0000
0000
0001
0000
0000
1000
0000
0000
0010
0100
0010
0000
0000
0001
0000
0000
0000
0100
0000
0000
0000
,
1000
0001
0100
0010
1010
1000
0001
0010
,
0110
0000
0000
0000
0100
0000
0000
0000
1000
0000
0000
0000
0001
0000
0000
0000
1001
0000
0000
0000
1000
0000
0001
1000
0002
0000
0000
0000
0020
0000
0003
0000
,
0200
0030
0002
0300
2000
0003
0020
3000
0200
0030
0002
0300
2000
0003
0200
3000
,
0020
0300
2000
0030
0002
3000
0200
0003
0010
0301
0000
1000
0001
0000
1000
0001
,
1000
0100
1000
0010
1010
0000
0010
0100
0010
1000
0001
1000
1001
0000
1000
0010
,
1000
0000
0100
0000
0001
0000
1000
0000
0001
0000
0010
0000
1000
0000
0010
0000
1000
0000
0001
0000
1000
0000
0001
1000
0001
0000
0100
0010
0000
0000
0100
0010
,
0001
0000
0000
0000
0000
0000
0000
0000
0000
0000
0000
0000
1100
0000
0000
0000
0000
0000
0000
0000
0000
0000
0000
0000
0110
0000
0000
0000
0000
0000
0000
0000
0000
0000
0000
0000
0011
0000
0000
0000
0000
0000
0000
0000
0000
0000
0000
0000
0001
0000
0000
0000
0000
0000
0000
0000
0000
0000
0000
0000
1000
0000
0000
0000
0000
0000
0010
0000
0000
0000
0000
0000
0000
0000
0000
0000
0000
0000
0000
0000
0000
0000
0000
0000
0001
0000
0000
0000
0000
0000
1000
0000
0000
0000
0000
0000
0100
0000
0000
0000
0000
0000
0000
0000
0000
0000
0000
0000
0110
0000
0000
0000
0000
0000
0000
0000
0000
0000
0000
0000
0002
0000
0000
0000
0000
0000
0003
0000
1000
0000
0000
0000
0010
0000
0000
0000
1000
0000
0000
0000
0000
0000
0000
0000
0100
0000
0000
0000
0000
0000
0000
0000
0000
0000
0000
0000
0000
0000
0000
0000
0000
0000
0000
0000
0000
0000
0000
0000
0200
0000
0000
0000
0000
0000
0000
0000
0000
0000
0000
0000
0000
0000
0000
0000
0000
0000
0000
0000
0000
0000
0000
0000
,
0020
0300
2000
0030
0002
3000
0200
0003
0020
0300
2000
0030
0200
3000
0002
0300
,
0020
0003
2000
0030
0200
3000
0002
0300
1000
0013
0000
0001
1000
0000
0020
0000
,
0200
0030
0002
0300
2000
0003
0020
3000
0200
0030
0002
0300
2000
0003
0020
3000
,
0200
0030
0002
0300
2000
0003
0002
3000
1000
0103
0000
0100
0010
0000
0110
0000
,
0100
0000
0000
1000
0100
0010
0001
0000
1001
0000
0000
0000
0001
0000
1001
0000
,
1000
0000
0000
0010
0100
0001
0100
0000
0201
0000
0300
0000
2010
0000
3010
0000
,
1010
0000
0000
0001
1000
0010
0100
0000
0120
0000
0031
0000
0210
0000
1300
0000
,
0120
0031
0110
1000
0120
0031
0110
0100
,
1200
0000
0300
1000
0001
0010
0100
0000
0210
0000
0300
0000
0001
0000
1001
0000
,
1000
0000
0000
1000
0100
0010
0001
0000
1002
0000
0003
0000
1100
0000
0001
0000
,
1200
0000
0300
0001
1000
0010
0100
0000
0102
0003
2000
3000
0102
0000
1003
0000
,
0201
0000
1300
0000
0101
0000
1000
0000
0001
1000
0001
1000
2001
0000
0000
0000
,
0000
0000
0000
0000
0000
0000
3000
0MM0
,
M00M
0MM0
0000
0000
0000
0000
0000
0000
0000
0000
0000
0000
0000
0000
0000
0000
;
