#TITLE:Card Captor Sakura;
#SUBTITLE:- Anata No Ireba;
#ARTIST:丹下桜;
#TITLETRANSLIT:;
#SUBTITLETRANSLIT:;
#ARTISTTRANSLIT:Tange Sakura;
#CREDIT:Anime Toshokan;
#BANNER:Card Captor Sakura - Anata No Ireba.png;
#BACKGROUND:Card Captor Sakura - Anata No Ireba bg.png;
#LYRICSPATH:;
#CDTITLE:dejiko.png;
#MUSIC:Card Captor Sakura - Anata No Ireba.mp3;
#OFFSET:-2.162;
#SAMPLESTART:68.610;
#SAMPLELENGTH:17.200;
#SELECTABLE:YES;
#BPMS:0.000=55.910,12.000=111.810;
#STOPS:;
#BGCHANGES:;
// cache tags:
#FIRSTBEAT:6.250;
#LASTBEAT:178.750;
#SONGFILENAME:Songs/DDR Anime 3rd Mix/Card Captor Sakura - Anata No Ireba/Card Captor Sakura - Anata No Ireba.sm;
#HASMUSIC:1;
#HASBANNER:1;
#MUSICLENGTH:106.919;
// end cache tags

//---------------dance-single - CHALLENGE----------------
#NOTES:
     dance-single:
     CHALLENGE:
     Challenge:
     7:
     0.395,0.355,0.150,0.337,0.079,244.000,16.000,36.000,0.000,0.000:
0000
0000
0000
0000
,
0000
0000
0000
0000
0000
0000
0000
0000
0000
1000
1000
0000
0200
0000
0300
0000
,
0000
0010
0010
0000
0002
0000
0000
0003
0000
0100
0100
0000
0020
0000
0000
0030
,
1001
0000
1001
0000
1001
0100
0010
0000
,
1000
0100
1000
0200
0000
0010
0010
0300
,
0001
0100
0001
0200
0000
0010
0010
0300
,
0000
0000
1000
0000
2000
0000
0000
3100
0010
0000
0001
0000
0100
0000
0000
0000
,
1000
0001
0100
0020
0000
1000
1030
0000
,
1000
0100
0001
0200
0000
1000
1300
0000
,
0001
0100
1000
0200
0000
0001
0301
0000
,
0000
0000
0100
0000
0200
0000
0000
0310
1000
0000
0100
0000
0010
0000
0000
0000
,
0000
0000
0100
0000
0200
0000
0000
0310
0001
0000
0100
0000
0010
0000
0000
0000
,
0000
0000
1000
0000
0100
0000
0010
0000
0002
0000
0000
1000
0000
0000
2000
0003
,
0000
0000
3100
0000
0010
0000
0001
0000
0200
0000
0000
0010
0000
0000
1000
0000
,
0300
0000
0001
0000
0100
0000
0010
0000
2000
0000
0000
0100
0000
0000
3020
0000
,
0000
1030
0100
0010
0001
0100
0010
1000
,
0000
0000
0100
0000
0010
0000
0001
0000
2000
0000
0000
0100
0000
0000
3010
0000
,
0000
0100
0010
0001
1000
0100
0010
0001
,
0100
0010
1000
0100
0010
0001
0100
0010
,
1000
0100
0010
0001
0200
0000
0020
0330
,
0000
0200
0320
2030
,
3200
0000
0010
0320
0000
0001
0031
0000
,
0000
0000
1000
0100
0001
0100
1000
0100
,
0002
0000
1000
1003
,
0200
0000
0010
0310
0000
0000
0000
1000
,
0100
0010
0001
0200
0000
0010
0010
0020
,
0000
0330
0000
0000
0000
0010
1000
0002
,
0000
0100
0200
0000
0000
0000
0303
0000
,
1000
0000
0010
0000
1000
0000
0100
0000
1100
0000
0000
1010
0000
0000
0002
0000
,
0000
0103
0010
1000
0100
0001
0100
1000
,
0000
0000
1000
0000
1000
0000
0000
0000
1001
0000
0000
1001
0000
0000
0000
0000
,
0000
0100
0100
0010
0001
1000
1000
0000
,
0001
0000
0100
0000
0001
0000
0010
0000
0101
0000
0000
0101
0000
0000
2000
0000
,
0000
3100
0010
0001
0100
1000
0100
0001
,
0000
0000
0001
0000
0001
0000
0000
0000
1001
0000
0000
1001
0000
0000
0000
0000
,
1000
0100
0010
0001
0100
0020
0000
2030
,
0001
0100
0010
3002
,
1000
0100
0010
1003
,
1000
0100
0010
0001
0100
0010
1000
0000
,
1000
0100
0020
0000
0000
0000
0030
0000
,
1001
0000
0100
0000
0010
0000
1000
0000
0100
0000
0000
0100
0000
0000
1001
0000
,
0000
0000
0100
0000
0010
0000
0001
0000
0100
0000
0000
0100
0000
0000
0000
0000
,
1000
0100
0010
0000
0001
0100
0010
0000
,
1000
0100
0001
0000
0001
0100
1000
0000
,
1001
0000
0100
0000
0010
0000
0001
0000
1001
0000
0000
1001
0000
0000
0000
0000
;
