#TITLE:Sonic X;
#SUBTITLE:- Sonic Drive;
#ARTIST:Sega;
#TITLETRANSLIT:;
#SUBTITLETRANSLIT:;
#ARTISTTRANSLIT:;
#CREDIT:Anime Toshokan;
#BANNER:Sonic X - Sonic Drive.png;
#BACKGROUND:Sonic X - Sonic Drive bg.png;
#LYRICSPATH:;
#CDTITLE:dejiko.png;
#MUSIC:Sonic X - Sonic Drive.mp3;
#OFFSET:-0.422;
#SAMPLESTART:48.560;
#SAMPLELENGTH:18.800;
#SELECTABLE:YES;
#BPMS:0.000=204.000;
#STOPS:;
#BGCHANGES:0.000=Sonic X - Sonic Drive.avi=1.000=0=0=1,
300.000=Sonic X - Sonic Drive bg.png=1.000=0=0=1,
99999=-nosongbg-=1.000=0=0=0 // don't automatically add -songbackground-
;
// cache tags:
#FIRSTBEAT:4.000;
#LASTBEAT:299.000;
#SONGFILENAME:Songs/DDR Anime 5th Mix/Sonic X - Sonic Drive/Sonic X - Sonic Drive.sm;
#HASMUSIC:1;
#HASBANNER:1;
#MUSICLENGTH:89.391;
// end cache tags

//---------------dance-single - CHALLENGE----------------
#NOTES:
     dance-single:
     CHALLENGE:
     Challenge:
     9:
     0.676,0.669,0.425,0.302,0.011,358.000,38.000,27.000,0.000,0.000:
0000
0000
0000
0000
,
1000
1000
1000
1000
,
1000
1000
0000
0000
,
0001
0001
0001
0001
,
0001
0001
0000
1100
,
0011
0000
0000
0101
0000
0000
0110
0000
,
0000
1100
0000
0000
0011
0010
0101
0000
,
0001
0010
0100
0000
1000
0100
0010
0000
,
0001
0100
1000
0000
1000
0100
0001
0000
,
0010
0100
0010
0000
0100
0010
0100
0000
,
0001
0010
1000
0000
1000
0010
0001
0000
,
0010
0100
0001
0000
0010
0100
1000
0000
,
0000
0010
0010
0001
0001
0100
0100
1000
,
1000
0010
0001
0100
0010
0001
0100
1000
,
0000
0010
0000
0101
0000
0100
0000
0001
,
0001
0000
1000
0100
0010
1000
0100
0001
,
0000
1000
0000
1001
0000
0100
0000
0001
,
0020
0000
0000
0000
0000
0000
0001
0000
0000
0000
0001
0000
0000
0000
0100
0030
,
0000
0000
1000
0100
1000
0001
0100
0000
,
0020
0000
1000
1000
0000
0100
0000
0130
,
0000
0000
1000
0000
0001
0000
1000
0001
,
1001
0000
1000
0100
0001
0100
0010
0001
,
0000
1000
0000
0101
0000
0001
0000
1000
,
0001
0000
0100
1000
0001
0100
0010
0001
,
0000
0010
0000
1100
0000
0100
0000
1000
,
0002
0000
0000
0100
0000
0100
0000
1003
,
0000
1000
0100
0010
0100
1000
0100
0000
,
2000
0000
0100
0100
0000
0001
0000
3001
,
0000
0100
0010
0001
0100
0010
1000
1000
,
1000
0000
0010
0100
1000
0000
0100
0010
,
0001
0000
0010
0100
1000
0000
0100
0010
,
0001
0000
1000
0100
0001
0000
0001
0100
,
1000
0000
1000
0100
0001
0000
1001
0000
,
0010
0100
0010
1000
0001
0010
0010
0000
,
0010
0100
0010
1000
0001
0100
0100
0000
,
0110
0000
0000
1001
0000
0000
0101
0000
,
0000
1100
0000
0000
0101
0000
1100
0000
,
0100
0010
0002
2003
3000
0002
0003
0220
,
0000
0000
0000
0330
,
1000
0100
1000
0000
0001
0100
0001
0000
,
1000
0100
0001
0001
0100
1000
1000
0000
,
0010
0001
0100
0010
1000
0010
0001
0010
,
0200
0000
0001
0301
0000
0000
0000
0000
,
1000
0100
0010
0001
0010
0100
0001
0100
,
2000
0000
0001
3001
0000
0000
0000
0000
,
0001
0100
0000
1000
0100
0001
0000
0020
,
0000
0030
0000
1000
0100
0101
0000
0002
,
0000
0100
0103
0000
0000
0000
0001
1000
,
0001
1000
0001
1000
0000
1001
0000
0000
,
0010
0001
0010
0100
0010
1000
0010
0001
,
0002
0000
1000
1003
0000
0000
0000
0000
,
0100
0001
0100
0010
0100
1000
0100
1000
,
2000
0000
0001
3001
0000
0000
1100
0000
,
0010
0001
0010
0100
1000
0100
0010
0000
,
0001
0010
0100
1000
0100
0010
0001
0010
,
0000
1000
2000
0000
3000
0000
1001
0000
,
1000
0100
0010
0001
0000
0110
0000
0100
,
0000
0010
1000
0100
0000
0010
1001
0000
,
0002
0000
0000
2003
0000
0000
3200
0000
,
0020
0300
0000
0000
0000
0000
2000
0030
0000
0000
0000
0000
0100
0000
0000
0000
,
3200
0000
0000
0000
0000
0300
1001
1001
,
0100
0001
0100
1000
0100
0001
0100
1000
,
0011
0000
0000
0101
0000
0000
1010
0000
,
1100
0000
0100
0000
0001
1000
0000
0200
,
0000
0000
0000
0000
,
0000
0000
0000
0000
,
0000
0000
0000
0000
0300
0000
0000
0000
0010
0000
0000
0000
0001
1000
0001
1000
,
0020
0000
0000
0030
0002
0000
0000
0003
2000
0000
0000
3000
0002
0000
0000
0003
,
0010
0010
0010
0010
,
0010
0010
0000
1001
,
0100
0100
0100
0100
,
0100
0100
0000
0110
,
0011
0000
0000
0101
0000
0000
1010
0000
,
0000
1100
0000
0000
0001
1000
0001
0000
,
1000
0100
1000
0100
0000
1000
0001
0000
;
