#TITLE:Tetrix;
#SUBTITLE:(Type B Remix);
#ARTIST:Hypernov8;
#TITLETRANSLIT:;
#SUBTITLETRANSLIT:;
#ARTISTTRANSLIT:;
#CREDIT:;
#BANNER:Tetrix.png;
#BACKGROUND:Tetrix- bg.png;
#LYRICSPATH:;
#CDTITLE:HS3logo.png;
#MUSIC:Tetrix.mp3;
#OFFSET:0.000;
#SAMPLESTART:51.640;
#SAMPLELENGTH:12.000;
#SELECTABLE:YES;
#BPMS:0.000=165.000,46.000=329.999,47.000=165.000,62.000=330.000,67.000=165.000,169.000=330.000,179.000=165.000;
#STOPS:169.000=0.360
,171.000=0.360
,173.000=0.360
;
#BGCHANGES:;
// cache tags:
#FIRSTBEAT:12.000;
#LASTBEAT:296.000;
#SONGFILENAME:Songs/StepMix 1/Tetrix (Type B Remix)/tetrix.sm;
#HASMUSIC:1;
#HASBANNER:1;
#MUSICLENGTH:107.972;
// end cache tags

//---------------dance-single - ----------------
#NOTES:
     dance-single:
     :
     Hard:
     9:
     0.646,0.678,0.324,0.398,0.199,410.000,35.000,43.000,6.000,0.000:
0000
0000
0000
0000
,
0000
0000
0000
0000
,
0000
0000
0000
0000
,
0010
0100
0001
1000
0100
1000
0010
0010
,
0100
0000
0000
0000
0100
0000
0001
0000
1000
0000
0000
0001
0010
0000
0100
0000
,
1000
0000
1000
0001
0010
0000
0010
0100
,
2000
0000
0000
3010
0100
0000
0001
0000
,
1010
1001
0101
0000
,
0000
0000
0010
0000
0000
0000
0010
0000
1001
0000
0000
0001
0100
0000
0010
0000
,
0200
0000
0000
0000
0300
0000
0010
0000
0100
0000
0000
0010
0100
0000
0001
0000
,
1000
0000
0001
1000
0010
0000
0110
0000
,
1001
0011
MMMM
0001
,
0100
0000
0010
0000
1000
0000
0000
1000
0001
0000
0100
0000
0010
0000
0000
0000
,
1000
0100
0020
0000
0031
0100
0010
0000
,
0000
1000
0010
0000
0100
0000
0011
0000
,
1001
2200
0000
0000
,
0000
0000
3300
0001
,
0000
0000
0000
0000
,
0000
0000
0000
0000
0100
0000
0001
0000
0010
0000
0100
1000
0010
0000
0000
0000
,
0000
0000
0110
1001
,
0000
2000
3020
0130
,
0000
0000
0000
0000
0000
0000
0011
0100
,
0000
0100
0011
0000
0000
1010
0000
0000
,
1001
0000
0000
0002
,
0000
0000
0000
0000
0013
0000
0100
0000
1000
0000
0010
0100
0001
0000
1000
0000
,
0010
0000
0100
0001
1000
0000
0010
0000
0100
0000
0001
1000
0010
0000
0100
0000
,
0010
1000
0100
0100
0010
0010
0100
0100
,
1000
0000
1000
0000
0010
0000
0100
0000
0001
0000
1000
0010
0100
0000
0001
0000
,
1000
0000
0100
0010
0001
0000
0010
0000
0100
0000
1000
0100
0010
0000
0001
0000
,
0010
1000
0010
0001
0100
1000
0100
0001
,
0010
0200
0020
0000
0000
0330
0000
0000
,
1010
1001
0102
0000
0000
0000
2003
0000
,
3020
0000
0000
0000
0130
0000
0000
0001
0100
0000
0100
0000
0010
0000
0000
1000
,
0010
0010
0200
0000
0302
0000
2003
0000
,
3020
0000
0000
0000
0130
0000
0000
0001
0100
0000
0100
0000
0010
0000
0000
1000
,
0010
0010
0200
0000
0320
0000
2030
0000
,
3001
0000
0000
0000
1000
0000
0010
0100
0010
0000
0100
0000
0001
0000
1000
0000
,
0010
0000
0100
0000
0001
0000
1000
0100
1000
0000
0010
0000
0100
0000
0001
0000
,
1000
0000
0100
0000
0010
0000
0001
0010
0001
0000
0100
0000
0010
0000
1000
0100
,
1000
0000
0010
0000
0100
0000
0010
0100
0010
0000
0100
0000
0001
0000
0001
0000
,
1000
0000
1000
0000
0220
0000
0000
0000
0000
0000
0000
0000
0000
0330
0000
0000
,
1001
0000
0000
0000
0220
0000
0000
0000
0000
0000
0000
0000
0000
0330
0000
0000
,
1001
0110
0000
0011
,
0000
1010
0000
0110
,
0000
0000
1001
0000
0000
0000
1000
0010
,
0100
0000
1000
0000
0100
0010
0000
0001
0100
0000
0000
0000
0010
0000
1000
0000
,
0100
0000
0010
0000
0001
0010
0000
0100
1000
0000
0001
0000
0100
0000
0010
0000
,
1000
0010
0100
0001
1000
0010
0100
0001
,
0000
1100
0000
2002
0000
3003
0010
0001
,
1000
0000
0010
0000
1000
0001
0000
0100
1000
0000
0000
0000
0001
0000
0010
0000
,
1000
0000
0001
0000
0100
0001
0000
1000
0010
0000
0100
0000
1000
0000
0001
0000
,
0010
0001
1000
0100
0010
0001
1000
0100
,
0000
1010
0000
0202
0000
0303
0100
0000
,
0100
0000
0000
0000
0010
0000
1000
0000
0001
0000
0100
0010
1000
0000
0001
0000
,
0010
0000
0100
1000
0100
0000
0010
0000
0001
0000
0010
0001
0100
0000
0010
0000
,
1000
0001
1000
1000
0010
0010
0100
0100
,
0001
0000
0001
0000
1000
0000
0010
0000
1000
0000
0001
0010
0001
0000
1000
0000
,
0100
0000
1000
0001
0010
0000
0100
0000
1000
0000
0001
0100
0010
0000
1000
0000
,
0001
1000
0010
0010
0100
0100
0010
0010
,
1000
0100
0020
0000
0000
0030
0000
0000
,
0011
0100
1001
0000
0000
0000
2000
0000
,
3020
0000
0000
0000
0130
0000
0000
0100
0001
0000
1000
0000
0100
0000
0000
0100
,
0010
0001
2000
0000
3020
0000
0230
0000
,
0301
0000
0000
0000
1000
0000
0000
1000
0010
0000
0100
0000
0001
0000
0000
0001
,
0010
0100
2000
0000
3002
0000
0023
0000
,
0130
0000
0000
0000
1000
0000
0010
0100
0001
0000
1000
0000
0010
0000
0100
0000
,
0001
0000
1000
0000
0010
0000
0100
0001
0100
0000
0010
0000
1000
0000
0010
0000
,
0100
0000
0001
0000
1000
0000
0100
0010
0001
0000
0100
0000
0010
0000
1000
0010
,
0100
0000
0001
0000
1000
0000
0100
1000
0001
0000
0100
0000
0010
0000
0100
0000
,
0010
0000
0100
0000
0002
0000
0000
0000
1000
0003
2000
0000
0000
0000
3100
0000
,
0200
0000
0320
0000
0031
0002
0000
1000
,
1003
0010
0200
0000
0000
0000
0000
0000
,
0000
0000
0000
0300
,
M00M
1001
0000
0000
;

//---------------dance-single - ----------------
#NOTES:
     dance-single:
     :
     Challenge:
     10:
     0.713,0.788,0.463,0.333,0.426,453.000,50.000,36.000,154.000,0.000:
0000
0000
0000
0000
,
0000
0000
0000
0000
,
0000
0000
0000
0000
,
0001
0000
0010
0000
0001
0000
0100
0010
1000
0000
0010
0000
0100
0000
0001
1000
,
0100
0000
0000
0100
0010
0000
0001
0000
1000
0000
0001
0000
0001
0000
1000
0000
,
0010
0000
0000
0000
0100
0000
0001
0000
0010
0000
0000
0000
1000
0000
0001
0100
,
0001
0000
1000
0000
0001
0000
1000
0100
1000
0000
0000
1000
0010
0000
0000
0010
,
0200
0000
0001
0000
2300
0000
3000
M000
,
0000
0000
0102
0000
0000
0000
1003
0000
2100
0000
0000
0100
3010
0000
0001
0000
,
0012
0000
0000
0000
0000
0000
1003
0000
2010
0000
0000
0001
3100
0000
0010
0000
,
1000
0000
0000
1000
0010
0000
0010
0000
0200
0000
0000
0000
1300
0000
0000
0000
,
0101
0000
0000
0000
2MMM
0000
0000
0000
0MMM
0000
0000
3000
0010
0000
0000
0000
,
0010
0000
0001
0000
0100
0000
0000
0010
0001
0000
1000
0000
0001
0000
0000
0001
,
0100
0000
0000
0100
0010
0000
0000
0000
0000
0000
0000
1000
0100
0000
0000
0010
,
0001
0000
0000
1000
0010
0000
0000
0100
0001
0000
0000
0001
0100
0000
0000
0000
,
0101
1010
MMMM
MMMM
,
MMMM
0000
0100
0010
0100
0010
0110
0000
,
MMMM
MMMM
MMMM
MMMM
,
0000
0000
1010
1000
1010
1000
0202
0303
,
0000
MMMM
0000
MM00
0011
0000
1100
0000
,
MMMM
0110
1001
0101
,
MMMM
0000
MMMM
0000
MMMM
0000
0110
1100
,
0000
0011
1100
0000
1001
0101
0000
0110
,
1002
0000
0000
0000
0100
0000
0000
0000
1003
0000
0000
0000
0100
0010
0100
0010
,
0100
0010
0100
0010
0100
0000
0001
0000
0100
0000
0001
0100
0001
0000
1000
0000
,
0100
0000
0001
0100
1000
0000
0010
0000
0100
0000
0001
1000
0010
0000
0001
0000
,
0010
1000
0100
0010
0100
0010
1000
0001
,
0100
0000
0010
0000
0100
0000
0001
0000
0100
0000
1000
0100
0001
0000
0100
0000
,
0001
0000
0010
1000
0010
0000
0001
0000
0100
0000
0001
1000
0100
0000
0010
0000
,
0001
1000
0010
0100
0001
0010
0001
1000
,
0001
0010
0022
0000
0000
0000
0000
0033
,
1100
0000
0000
0000
0011
0000
0000
0000
2200
0000
0000
0000
0000
0000
0000
0000
0000
0000
0000
0000
0000
0000
0000
3300
0002
0000
0000
0000
0000
0000
0000
0000
,
0203
0000
0000
0000
0310
0000
1000
0100
1000
0000
0001
0000
0010
0000
0100
0010
,
0100
0000
0000
0000
0001
0000
0000
0000
2000
0000
0000
0000
0000
0000
0000
0000
0010
0000
0000
0000
00M0
00M0
00M0
0000
3001
0000
0000
000M
000M
000M
0000
0000
,
1100
0000
0000
0000
0010
0000
0001
0100
0010
0000
1000
0000
0010
0000
0100
0001
,
1000
0000
0000
0000
0010
0000
0000
0000
0002
0000
0000
0000
0000
0000
0000
0000
1000
0000
0000
0000
M000
M000
M000
0000
0013
0000
0000
0000
00M0
00M0
00M0
0000
,
1001
0000
0000
0000
1M00
0000
0001
1000
0M01
0000
1000
0000
00M1
0000
1000
0000
,
00M1
0000
1000
0000
1M01
0000
1000
0001
1M00
0000
0001
0000
10M0
0000
0001
0000
,
10M0
0000
0001
0000
1M01
0000
1000
0001
1M00
0000
0001
0000
10M1
0000
0001
1000
,
00M1
0000
1000
0000
1M01
0000
0001
1000
0M01
0000
1000
0000
0010
0000
0100
0000
,
0001
0100
0020
0000
0000
0000
0030
0000
,
0100
0001
0100
0000
0020
0000
0000
0000
0000
0000
0000
0000
0030
0000
0000
0000
,
1000
0001
1000
0000
0010
0000
0000
0000
MMMM
0000
0000
0000
11MM
0000
0000
0000
,
MMMM
MM11
MMMM
1MM1
,
MMMM
0000
0000
M1M1
0000
0000
MMMM
0000
0000
1000
0010
0000
,
0100
0000
0000
0001
0000
1000
0000
0000
0000
0001
0000
0010
0000
0000
0000
0000
0000
0000
0100
0000
0000
0100
0000
0010
,
0000
0000
0000
1000
0000
0000
0001
0000
0100
0000
0000
0000
0020
0000
0000
0130
0000
0000
0001
0000
0000
1000
0000
0001
,
0000
0000
0000
0000
1000
0000
0000
0000
0001
0000
0010
0000
0001
0000
0000
0000
0100
0000
0000
0000
0000
0000
0000
0001
2000
0000
0000
0000
0000
0000
0000
0000
,
0010
0000
0000
0000
0000
0000
0000
0000
0000
0000
0000
0000
3100
0000
0000
0000
0000
0000
0000
0000
0000
1100
0000
0000
0000
0000
0000
0000
0000
0000
0000
0000
0000
0000
0000
0000
0001
0000
0000
0000
0100
0000
0000
0000
0000
0000
0000
0000
,
0010
0000
0000
1000
0000
0001
0000
0000
0000
1000
0000
0100
0000
0000
0000
0000
0000
0000
0010
0000
0000
0010
0000
0100
,
0000
0000
0000
0001
0000
0000
1000
0000
0010
0000
0000
0000
0200
0000
0000
0310
0000
0000
1000
0000
0000
0001
0000
1000
,
0000
0000
0000
0000
0001
0000
0000
0000
1000
0000
0100
0000
1000
0000
0000
0000
0010
0000
0000
0000
0000
0000
0000
1000
0002
0000
0000
0000
0000
0000
0000
0000
,
0100
0000
0000
0000
0013
0000
0000
0022
0000
0000
0030
0000
1000
0000
0000
0000
,
1003
0000
0000
0000
1000
0000
0100
0000
0010
0000
0001
0010
0100
0000
0010
0000
,
0001
0000
0100
0010
0100
0000
0001
0000
1000
0000
0010
0100
0001
0000
1000
0000
,
0010
0100
0001
0100
1000
0100
0001
0010
,
0001
0000
1000
0000
0001
0000
0010
0000
0001
0000
1000
0001
1000
0000
0100
0000
,
0010
0000
1000
0001
0100
0000
0001
0000
1000
0000
0010
0100
0010
0000
1000
0000
,
0001
0100
0001
0010
0001
1000
0100
0010
,
0001
1000
0002
0000
0000
0000
0003
0000
,
1100
0001
0110
0000
0000
0000
1001
0000
,
0200
0000
0000
0000
0310
0000
1000
0100
1000
0000
0001
0000
0010
0000
0100
0010
,
0100
0000
0000
0000
0001
0000
0000
0000
2000
0000
0000
0000
0000
0000
0000
0000
0010
0000
0000
0000
00M0
00M0
00M0
0000
3001
0000
0000
000M
000M
000M
0000
0000
,
1100
0000
0000
0000
0010
0000
0001
0100
0010
0000
1000
0000
0010
0000
0100
0001
,
1000
0000
0000
0000
0010
0000
0000
0000
0002
0000
0000
0000
0000
0000
0000
0000
1000
0000
0000
0000
M000
M000
M000
0000
0013
0000
0000
0000
00M0
00M0
00M0
0000
,
1001
0000
0000
0000
1M00
0000
0001
1000
0M01
0000
1000
0000
00M1
0000
1000
0000
,
00M1
0000
1000
0000
1M01
0000
1000
0001
1M00
0000
0001
0000
10M0
0000
0001
0000
,
10M0
0000
0001
0000
1M01
0000
1000
0001
1M00
0000
0001
0000
10M1
0000
0001
1000
,
00M1
0000
1000
0000
1M01
0000
0001
1000
0M01
0000
1000
0000
0010
0000
0100
0000
,
0001
0100
0020
0000
0000
0000
0030
0000
,
0100
0001
0100
0001
0200
0000
0000
0000
0000
0000
M3MM
0000
0000
0000
0000
0000
,
1000
0010
1000
0010
2000
0000
0000
0000
0001
0000
0000
3000
0001
0000
0000
0000
,
0001
0100
0010
1000
,
MMMM
M22M
M00M
M33M
,
MMMM
0000
0000
0000
;

//---------------dance-single - ----------------
#NOTES:
     dance-single:
     :
     Beginner:
     1:
     0.132,0.170,0.009,0.000,0.000,99.000,1.000,0.000,0.000,0.000:
0000
0000
0000
0000
,
0000
0000
0000
0000
,
0000
0000
0000
0000
,
0000
0000
0000
0000
,
1000
0000
0000
0000
,
1000
0000
0000
0000
,
0010
0000
0000
0000
,
0010
0010
0010
0000
,
0000
0000
0100
0000
,
0000
0000
0100
0000
,
0000
0000
0001
0000
,
1000
1000
1000
0000
,
0000
0000
0000
0010
,
0000
0000
0000
0100
,
0000
0000
0000
0001
,
0001
1000
0000
0000
,
0000
0000
0000
0000
,
0000
0000
0000
0000
,
0000
0000
0000
0000
,
0000
0000
0000
0000
,
0000
0000
0000
0010
,
0000
0000
0000
0000
,
0000
0010
0000
0000
,
0000
0000
0000
0010
,
0000
1000
1000
0010
,
0010
0100
0000
0000
,
0000
0010
0010
0100
,
0100
0001
0000
0000
,
0000
1000
0001
1000
,
0001
1000
0000
0000
,
0000
0010
0000
0000
,
0100
0001
0000
1000
,
0000
0010
0000
0010
,
0000
0010
0000
0000
,
0000
0010
0000
0100
,
0000
0001
0000
0000
,
0000
1000
0000
0000
,
0000
1000
0000
0000
,
0000
0001
0000
1000
,
0000
0001
0000
1000
,
0000
0001
0000
0000
,
0000
0100
0000
0000
,
0000
0010
0000
0000
,
0000
0000
0000
0000
,
0000
0000
0000
0000
,
0000
0000
0010
0010
,
0000
0000
0000
0010
,
0010
0000
0000
1000
,
1000
0000
0000
0001
,
0001
0000
0000
0100
,
0100
0000
0000
0010
,
0000
0000
0000
0010
,
0000
0000
0000
1000
,
0000
1000
1000
1000
,
0000
0001
0000
0000
,
0000
0010
0010
0010
,
0000
0100
0000
0000
,
0000
0100
0100
0100
,
0000
0001
0000
0000
,
0000
1000
0000
0000
,
0001
1000
0000
1000
,
0000
0100
0000
0100
,
0000
0100
0000
0000
,
0000
0010
0000
0010
,
0000
0010
0000
0000
,
0000
0001
0000
0000
,
0000
1000
0000
0000
,
0000
0001
0000
1000
,
0000
0001
0000
1000
,
0000
0001
0000
0000
,
0000
1000
0000
0000
,
0000
0100
0000
0000
,
0000
0000
0000
0000
,
0000
1001
0000
0000
;

//---------------dance-single - ----------------
#NOTES:
     dance-single:
     :
     Easy:
     4:
     0.255,0.407,0.130,0.232,0.000,154.000,14.000,25.000,0.000,0.000:
0000
0000
0000
0000
,
0000
0000
0000
0000
,
0000
0000
0000
0000
,
0010
0010
0010
0010
,
0020
0000
0030
0000
,
2000
0000
3000
0000
,
0002
0000
0003
0000
,
0100
0100
0110
0000
,
0000
0000
0010
0000
,
1000
0000
0010
0000
,
0100
0001
0100
0001
,
1000
0001
2000
0000
,
0000
0000
0000
3020
,
0000
0000
0000
0230
,
0000
0302
0000
1000
,
1000
1003
0000
0000
,
0000
0000
0000
0010
,
0000
0000
0000
0000
,
0000
0010
0100
0110
,
0000
0000
0001
1001
,
0000
1000
0001
1001
,
0000
0000
0000
1000
,
0000
0100
0000
0010
,
0000
0001
0000
1000
,
0000
0020
0000
0130
,
0000
0002
0000
1003
,
0000
2000
0000
3010
,
0000
0100
0010
0100
,
0000
0001
1000
0001
,
0000
0200
0000
0000
,
0300
0110
0000
0000
,
0001
1000
0000
0001
,
0000
1000
0100
0010
,
0001
0010
0000
0100
,
0000
1000
0010
0100
,
0001
1000
0000
0010
,
0000
1000
0100
0001
,
0000
0001
0100
1000
,
0000
1000
0100
0001
,
0000
0001
0100
1000
,
0000
0220
0000
0330
,
1001
0220
0000
0330
,
1001
0010
0000
0010
,
0000
0010
0000
0010
,
0000
0000
0000
0010
,
0000
1000
0000
0100
,
0010
0001
0000
1000
,
0000
0010
0000
0100
,
0001
0010
0000
0100
,
0000
1000
0000
0010
,
0010
0010
0000
0100
,
0000
0100
0000
0001
,
1000
1001
0000
0000
,
0000
0100
0010
0001
,
1000
0010
0100
0001
,
1000
0020
0000
0230
,
0000
0301
0001
1000
,
1000
0010
0010
0100
,
0100
0002
0000
2003
,
0000
3010
0000
0000
,
0010
0010
0000
2000
,
0000
0100
0000
0100
,
0000
3100
0000
0000
,
0000
0002
0000
0100
,
0000
0103
0000
0000
,
0000
2100
0000
3100
,
0000
0102
0000
0103
,
0000
2000
0000
3010
,
0000
0002
0000
0013
,
0000
1000
0000
0001
,
0000
1000
0000
0100
,
0001
1001
0000
0000
,
0000
0000
0000
0000
,
0000
1001
0000
0000
;

//---------------dance-single - ----------------
#NOTES:
     dance-single:
     :
     Medium:
     6:
     0.389,0.514,0.176,0.185,0.000,255.000,19.000,20.000,7.000,0.000:
0000
0000
0000
0000
,
0000
0000
0000
0000
,
0000
0000
0000
0000
,
0000
0000
0000
0000
,
1000
0000
0100
0010
0001
0000
0010
0100
,
1000
0010
0100
0001
,
2000
0000
3010
0100
,
0101
1010
1001
0000
,
0000
0100
0000
0100
0010
0000
0001
1000
,
0100
0000
0000
0010
0001
0000
1000
0010
,
0100
0000
0001
1000
0100
0000
0010
0000
,
0001
1000
0000
0010
,
0000
0000
0100
0000
0000
0000
0001
1000
,
0001
1000
0001
0000
0000
0000
0100
0000
,
0000
0000
0010
0000
0000
0000
1000
0100
,
0010
0001
1000
0000
0000
0000
0000
0000
,
0000
0000
0000
0001
,
0000
0000
0000
0000
,
0000
0000
0010
1000
0010
1000
0001
0000
,
0000
0000
0100
0110
,
0000
0101
1010
0100
,
0000
0000
0000
0000
0000
0000
0100
0100
,
0000
0000
0001
0000
0000
1000
0000
0000
,
0010
0000
0000
2000
,
0000
0000
3010
0100
0010
0100
0010
0100
,
0010
0100
0001
0100
0001
0100
0001
0100
,
0001
0100
0010
0000
1000
0000
0100
0000
,
1000
0000
0001
0010
0001
0010
0001
0010
,
0001
0010
0001
1000
0001
1000
0001
1000
,
0001
1000
0100
0000
0010
0000
0001
0000
,
1000
0110
0000
0000
,
0001
1000
0001
0000
0000
0000
0200
0000
,
0000
0310
0010
0001
,
0001
2000
3200
0320
,
0031
1000
1000
0001
,
1000
0002
0203
0320
,
1030
0000
0001
0000
0001
0000
0010
1000
,
0010
1000
0001
0000
0001
0000
0100
0010
,
0100
0010
1000
0000
0100
0000
0001
0000
,
0010
1000
0100
0001
,
0010
0000
0220
0000
0000
0330
0000
0000
,
0001
0220
0000
0330
,
0001
1000
0000
0100
,
0000
0001
0000
0010
,
0000
1000
0000
0100
,
0000
0000
0100
0000
0000
0000
0010
0001
,
0010
0001
0010
0000
0000
0000
0100
0000
,
0000
1000
0000
0010
,
0100
0002
0000
1003
,
0000
0100
0000
0010
,
0001
0000
1000
0000
0000
0000
0010
0100
,
0010
0100
0010
0000
0000
0000
0010
0000
,
0010
1000
0000
0000
,
0000
1000
0100
0010
,
0001
0000
0010
0100
0010
0000
0001
0000
,
0010
0000
0001
1000
0010
0000
0100
0000
,
0001
1000
0010
0100
,
0001
0010
0100
0000
1000
0000
0010
0000
,
0100
0010
0100
0000
0001
0000
1000
0000
,
0100
0010
0000
0000
,
0010
0010
0010
0000
0000
0000
1000
0000
,
0000
1100
0011
1010
,
0101
0110
0010
0010
,
1000
0110
1001
0101
,
1010
0101
0100
1000
,
0010
0000
0100
0001
0100
0000
0010
0000
,
0010
0000
1000
0010
1000
0000
0001
0000
,
0100
0000
0010
1000
0100
0000
0010
0001
,
0100
0000
0010
1000
0100
0000
0010
0000
,
0010
0002
0000
0000
,
2003
0000
0020
3000
0000
0000
0000
0000
,
0230
0302
0000
M000
,
00M0
M000
00M0
M000
,
0000
0203
0000
030M
,
000M
0000
0000
0000
;
