#TITLE:Final Fantasy X2;
#SUBTITLE:- Real Emotion;
#ARTIST:Yumi Koda;
#TITLETRANSLIT:;
#SUBTITLETRANSLIT:;
#ARTISTTRANSLIT:;
#CREDIT:;
#BANNER:realemotion.png;
#BACKGROUND:realemotion-BG.png;
#LYRICSPATH:;
#CDTITLE:;
#MUSIC:realemotion.mp3;
#OFFSET:-8.600;
#SAMPLESTART:8.600;
#SAMPLELENGTH:12.000;
#SELECTABLE:ROULETTE;
#BPMS:0.000=126.900;
#STOPS:;
#BGCHANGES:4.000=FFX2.avi=1.000=0=0=1,
275.000=realemotion-BG.png=1.000=0=0=1,
99999=-nosongbg-=1.000=0=0=0 // don't automatically add -songbackground-
;
// cache tags:
#FIRSTBEAT:0.000;
#LASTBEAT:276.000;
#SONGFILENAME:Songs/Games/realemotion/realemotion.sm;
#HASMUSIC:1;
#HASBANNER:1;
#MUSICLENGTH:140.990;
// end cache tags

//---------------dance-single - BASIC----------------
#NOTES:
     dance-single:
     BASIC:
     Easy:
     3:
     0.174,0.220,0.184,0.163,0.000,123.000,26.000,23.000,0.000,0.000:

1000
0000
1001
0000
,
0001
0010
0100
0000
,
1000
0010
0100
0000
,
0001
1000
0010
0000
,
1001
0000
1001
0000
,
0010
0100
0010
0000
,
1000
0001
1000
0000
,
0010
0100
0010
0000
,
0002
0000
0000
0000
0000
0000
0000
0000
0000
0000
0000
0000
0000
0003
0000
0000
,
0010
0000
0000
0000
,
1000
0000
0000
0000
,
0001
0000
0000
0000
,
1001
0000
1001
0000
,
0010
0000
0000
0000
,
0100
0000
0000
0000
,
0010
0000
0000
0000
,
1001
0000
1001
0000
,
0002
0000
0000
0000
0000
0000
0000
0000
0000
0000
0000
0000
0000
0000
0000
0000
0000
0000
0000
0003
0000
0000
0000
0000
,
2000
0000
0000
0000
0000
0000
0000
3000
,
0020
0000
0000
0030
,
1000
0000
1001
0000
,
0001
0000
0000
0000
,
1000
0000
0000
0000
,
0020
0000
0000
0000
0000
0000
0000
0000
0000
0000
0000
0030
,
0000
0000
0000
0000
,
1001
0000
1001
0000
,
0010
0000
0100
0000
,
2000
0000
0000
0000
0000
0000
0000
0000
0000
0000
0000
0000
0000
0000
0000
0000
0000
0000
0000
0000
0000
0000
0000
0000
0002
0000
0000
0000
0000
0000
0000
0000
0000
0000
0000
0000
0000
0000
0000
0000
0000
3000
0003
0000
0000
0000
0000
0000
,
1001
0000
1001
0000
,
0010
0000
0100
0000
,
1000
0000
0001
0000
,
0020
0000
0000
0000
0000
0000
0000
0000
0000
0000
0000
0000
0000
0000
0000
0000
0000
0000
0000
0000
0000
0000
0000
0000
0200
0000
0000
0000
0000
0000
0000
0000
0000
0000
0000
0000
0000
0000
0000
0000
0000
0000
0000
0000
0000
0000
0000
0330
,
1000
0000
1001
0000
,
0002
0000
0000
0000
0000
0000
0000
0000
0000
0000
0000
0000
0000
0000
0000
0000
0000
0000
0000
0000
0000
0000
0000
0000
2000
0000
0000
0000
0000
0000
0000
0000
0000
0000
0000
0000
0000
0000
0000
0000
0000
0000
0000
0000
0000
0000
0000
3003
,
1001
0000
1001
0000
,
0010
1000
0001
0000
,
0010
0001
1000
0000
,
0010
0100
0010
0000
,
1001
0000
1001
0000
,
0010
1000
0001
0000
,
0100
0001
1000
0000
,
0010
0100
0010
0000
,
2000
0000
0000
0000
0000
0000
0000
0000
0000
0000
0000
3000
,
0010
0000
0000
0000
,
1000
0000
0000
0000
,
0001
0000
0000
0000
,
1001
0000
1001
0000
,
1000
0000
0000
0000
,
0001
0000
0000
0000
,
0010
0000
0000
0000
,
1001
0000
1001
0000
,
0002
0000
0000
0000
0000
0000
0000
0000
0000
0000
0000
0003
,
2000
0000
0000
0000
0000
0000
0000
3000
,
0020
0000
0000
0000
0000
0000
0000
0000
0000
0000
0000
0000
0000
0030
0000
0000
,
1000
0000
1001
0000
,
0010
0000
1000
0000
,
0100
0000
0001
0000
,
2002
0000
0000
0000
0000
0000
0000
3003
,
0000
0000
0000
0000
,
0001
0000
1000
0000
,
0010
0000
0100
0000
,
0002
0000
0000
0000
0000
0000
0000
0000
0000
0000
0000
0000
0000
0000
0000
0000
0000
0000
0000
0000
0000
0000
0000
0000
2000
0000
0000
0000
0000
0000
0000
0000
0000
0000
0000
0000
0000
0000
0000
0000
0000
3000
0003
0000
0000
0000
0000
0000
,
1000
0000
0100
0000
,
0010
0000
0001
0000
,
1000
0000
0001
0000
,
0020
0000
0000
0000
0000
0000
0000
0000
0200
0000
0000
0000
0000
0000
0000
0330
,
1001
0000
1001
0000
,
2000
0000
0000
0000
0000
0000
0000
0000
0002
0000
0000
0000
0000
3003
0000
0000
,
0010
0000
1000
0000
,
1001
0000
0000
0000;

//---------------dance-single - ANOTHER----------------
#NOTES:
     dance-single:
     ANOTHER:
     Medium:
     6:
     0.359,0.392,0.298,0.270,0.035,274.000,42.000,38.000,0.000,0.000:

0010
1000
0000
0001
0100
0000
0000
0000
,
1000
1000
0001
0000
,
0001
0001
1000
0000
,
0010
0010
0100
0000
,
1001
0001
1001
0000
0110
0000
1001
0000
,
0100
0100
0010
0000
,
1000
1000
0001
0000
,
0001
0001
1000
0000
,
0000
0000
0000
0000
,
0010
0000
1000
0000
0001
1000
0010
0100
,
0002
0000
0000
0000
0000
0000
0000
0000
0000
0010
0000
0000
0000
0000
0000
0000
0000
0000
2000
0000
0000
0000
0000
0000
0000
0000
0000
0000
0000
0000
0000
0000
0000
0000
0000
0000
0000
0000
0000
0000
0000
0003
3000
0000
0000
0000
0000
0000
,
0010
0000
0000
0000
0000
0000
0010
0000
0000
0000
0000
0000
2000
0000
0000
0000
0000
0000
0000
3000
0000
0010
0000
0000
,
1001
1000
1001
0000
0110
0000
1001
0000
,
0010
0000
1000
0000
0001
1000
0100
0010
,
0002
0000
0000
0010
0000
0000
2000
0000
0000
0000
0000
0000
0000
0000
3003
0000
,
1000
0000
0000
0010
0000
0000
2000
0000
0000
0000
0000
3000
,
1001
0001
1001
0000
0110
0000
1001
0000
,
0000
0000
1000
0000
0001
0010
2000
0000
,
0000
0000
0000
0000
3000
0000
1000
0000
0000
0000
0000
0000
0001
0000
0000
0010
0000
0000
2000
0000
0000
0000
0000
0000
,
0000
0000
0000
3000
0010
0000
0000
0000
1000
0000
0100
0000
0001
0000
0010
0000
,
0020
0000
0000
0100
0000
0000
2000
0000
0000
0000
0000
0000
0000
0000
3030
0000
,
0000
0000
1000
0000
0001
1000
0010
0100
,
0000
0000
0001
0000
1000
0001
0010
0100
,
2002
0000
0000
0000
0000
0000
0000
3003
,
0000
0000
0000
0000
0000
0000
0000
0010
,
1000
0000
0000
0001
1000
0000
0000
0001
,
0010
0000
1000
0001
1000
0100
0010
0001
,
0020
0000
0000
0000
0000
0000
0000
0000
0000
0100
0000
0000
0200
0000
0000
0000
0000
0000
0000
0330
0000
0001
0000
0000
,
1001
0000
0000
0001
0000
0000
1001
0000
0000
0000
0000
0000
0010
0000
0000
0000
0100
0000
0000
0000
0000
1000
0000
0000
,
0001
0000
0000
1000
0001
0000
0000
1000
,
0001
0000
1000
0000
0001
0010
0100
1000
,
2000
0000
0000
0000
0000
0000
0100
0000
0002
0000
0000
0000
0000
3003
0000
0000
,
1001
0000
1000
0000
1001
0000
0000
0000
0001
0000
0000
0010
0000
0000
0100
0000
,
2000
0000
0000
0000
0000
0000
0010
0000
0002
0000
0000
0000
0000
3003
0010
0000
,
1001
0001
1001
0000
0110
0000
1001
0000
,
0010
0010
0100
0000
,
1000
1000
0001
0000
,
0001
0001
1000
0000
,
1001
0001
1001
0000
0110
0000
1001
0000
,
0100
0100
0010
0000
,
0001
0001
1000
0000
,
1000
1000
0001
0000
,
2002
0000
0000
0000
0000
0000
0000
0000
0000
0000
0000
3003
0000
0000
0000
0000
,
0010
0000
1000
0000
0001
1000
0010
0100
,
0002
0000
0000
0010
0000
0000
2000
0000
0000
0000
0000
0000
0000
3003
0000
0000
,
1000
0000
0000
0000
0000
0000
1000
0000
0000
0000
0000
0000
0002
0000
0000
0000
0000
0000
0000
0003
0000
0010
0000
0000
,
1001
1000
1001
0000
0110
0000
1001
0000
,
0001
0000
0001
0000
1000
0100
0010
0001
,
0020
0000
0000
0000
0000
0000
0000
0000
0000
0100
0000
0000
0000
0000
0000
0000
0000
0000
0200
0000
0000
0000
0000
0000
0000
0000
0000
0000
0000
0000
0000
0000
0000
0000
0000
0000
0000
0000
0000
0000
0000
0000
0000
0000
0330
0000
0000
0000
,
1000
0000
1000
0000
0020
0000
0030
0100
,
1001
0001
1001
0000
0110
0000
1001
0000
,
0000
1000
0001
0020
,
0000
0000
0030
1000
0000
0000
0001
0000
0000
0200
0000
0000
,
0000
0000
0000
0000
0300
0000
0010
0000
0000
0000
0000
0000
1000
0000
0000
0100
0000
0000
0001
0000
0000
0010
0000
0000
,
0002
0000
0000
0100
0000
0000
2000
0000
0000
0000
0000
3003
0000
0000
0000
0000
,
0000
0000
1000
0000
0001
0010
0100
1000
,
0000
0000
1000
0000
0001
0010
0100
1000
,
2002
0000
0000
0000
0000
0000
0000
3003
,
0000
0000
0000
0000
0000
0000
0000
0010
,
1000
0000
0000
0001
1000
0000
0000
0001
,
1000
0000
0001
0000
1000
0100
0010
0001
,
2000
0000
0000
0000
0000
0000
0000
0000
0000
0000
0000
0000
0000
0000
0000
0000
0000
0000
0010
0000
0000
0000
0000
0000
0002
0000
0000
0000
0000
0000
0000
0000
0000
0000
0000
3003
0000
0000
0000
0000
0000
0000
0100
0000
0000
0000
0000
0000
,
0001
0000
0000
0000
1000
0000
0000
0000
0001
0000
0000
0010
0000
0000
1000
0000
,
0001
0000
0000
0001
1000
0000
0000
1000
,
0001
0000
0010
0000
0001
0010
0100
1000
,
2000
0000
0000
0000
0000
0000
0000
0000
0000
0000
0000
0000
0000
0000
0000
0000
0000
0000
0010
0000
0000
0000
0000
0000
0002
0000
0000
0000
0000
0000
0000
0000
0000
0000
0000
0000
0000
0000
0000
0003
0000
3000
0010
0000
0000
0000
0000
0000
,
1001
0000
0001
0000
1001
0000
0000
0000
0010
0000
0000
1000
0000
0000
0010
0000
,
2000
0000
0000
0000
0000
0000
0010
0000
0002
0000
0000
0000
0000
3003
0010
0000
,
1001
0001
1001
0000
0110
0000
1001
0000
,
1001
0000
0000
0000;

//---------------dance-single - MANIAC----------------
#NOTES:
     dance-single:
     MANIAC:
     Hard:
     8:
     0.558,0.489,0.433,0.255,0.238,454.000,61.000,36.000,0.000,0.000:

1010
0101
0000
0010
1000
0000
0000
0000
,
0010
1000
0010
0000
0100
0000
0000
0010
1000
0000
0001
0000
0010
0000
0000
0000
,
0001
0000
0000
0010
0000
0000
0001
0000
0000
0000
0000
0000
1000
0000
0000
0000
0000
0000
0000
0000
0000
0100
0000
0000
2000
0000
0000
0000
0000
0000
0000
0000
0000
0000
0000
0000
0000
0000
0000
0000
0000
3000
0000
0000
0000
0000
0000
0000
,
0010
0000
0000
0100
0000
0000
0010
0000
0000
0000
0000
0000
0100
0000
0000
0000
0000
0000
0000
0000
0000
0001
0000
0000
2000
0000
0000
0000
0000
0000
0000
0000
0000
0000
0000
0000
0000
0000
0000
0000
0000
3000
0000
0000
0000
0000
0000
0000
,
0011
0001
0011
0000
1100
0100
1100
0000
,
1000
0100
1000
0000
0010
0000
0000
0100
0001
0000
1000
0000
0001
0000
0000
0000
,
0100
0000
0000
0001
0000
0000
0100
0000
0000
0000
0000
0000
0010
0000
0000
0000
0000
0000
0000
0000
0000
1000
0000
0000
0200
0000
0000
0000
0000
0000
0000
0000
0000
0000
0000
0000
0000
0000
0000
0000
0000
0300
0000
0000
0000
0000
0000
0000
,
0010
0100
0010
0000
0001
0000
0000
1000
0002
0000
0000
0000
0003
0000
0000
0000
,
0010
0001
0010
0100
1000
0100
1000
0001
,
1000
0001
0000
0000
0010
0000
0100
0000
0001
0000
0100
0000
0010
0000
0100
0000
,
0010
0000
0000
0100
0000
0000
0220
0000
0000
0000
0000
0000
0000
0000
0330
0000
,
1000
0010
0000
0000
1000
0000
0100
0000
1000
0000
0001
0000
1000
0000
0100
0000
,
1100
1000
1100
0000
0011
0010
0011
0000
,
0010
0000
0000
0100
0000
0000
0000
0000
0000
0000
0000
0000
0010
0000
0000
0000
0000
0000
1000
0000
0000
0000
0000
0000
0010
0000
0000
0000
0000
0000
0000
0000
0100
0000
0000
0000
0001
0000
0000
0000
0000
0000
1000
0000
0000
0000
0000
0000
,
0010
0000
0000
0000
0000
0000
0000
0000
0000
0100
0000
0000
0000
0000
0000
0000
0000
0000
0220
0000
0000
0000
0000
0000
0000
0000
0000
0000
0000
0000
0000
0000
0000
0000
0000
0000
0000
0000
0000
0000
0000
0330
0000
0000
0000
0000
0000
0000
,
0010
1000
0000
0000
0010
0000
1000
0000
0001
0000
0100
0000
0001
0000
1000
0000
,
1010
0010
1010
0000
0101
0100
0101
0000
,
0001
0100
0000
0000
0001
1000
0000
0000
0010
0000
0100
0000
0002
0000
0000
0003
,
1000
0100
0000
0000
1000
0100
0000
0000
0010
0000
0001
0000
2000
0000
0000
3000
,
0010
0100
0000
0000
0001
0000
1000
0000
0010
0000
0100
0000
0001
0000
1000
0000
,
0020
0000
0000
0000
0000
0030
0000
0000
0000
2000
0000
0000
0000
0000
3000
0000
0000
0000
0002
0000
0000
0000
0000
0003
0000
0000
0000
0000
0000
0000
0011
0000
0000
0000
0000
0000
0000
0000
0000
1010
0000
0000
0000
0000
0000
0000
0000
0000
,
0010
0000
0000
0000
1000
0010
0000
0000
0100
0000
0001
0000
1000
0000
0100
0000
,
0010
0000
0000
0000
1000
0010
0000
0000
0100
0000
0001
0000
1000
0000
0100
0000
,
0010
0001
0010
0001
1000
0001
1000
0001
,
2002
0000
0000
3003
0010
0000
0100
0000
0010
0000
0100
0000
0010
0000
1000
0000
,
0011
0000
0010
0001
1100
0000
0100
0010
,
0001
1000
0000
0000
0010
0000
0100
0000
0001
0000
0010
0000
0100
0000
1000
0000
,
0002
0000
0000
0000
0000
0000
0000
0000
0000
0000
0000
0000
0000
0000
0000
0000
0000
0000
0010
0000
0000
0000
0000
0000
2000
0000
0000
0000
0000
0000
0000
0000
0000
0000
0000
0003
0000
0000
3000
0000
0000
0000
0010
0000
0000
0000
0000
0000
,
1010
0000
0010
0000
1010
0000
0000
0000
0010
0000
0000
0100
0000
0000
0001
0000
,
0011
0000
0010
0001
1100
0000
0100
1000
,
0010
0000
0000
0100
0010
0000
1000
0000
0001
0000
0010
0000
0100
0000
1000
0000
,
0002
0000
0000
0000
0000
0000
0000
0000
0000
0000
0000
0000
0000
0000
0000
0000
0000
0000
0010
0000
0000
0000
0000
0000
2000
0000
0000
0000
0000
0000
0003
0000
0000
0000
0000
3000
0000
0000
0000
0000
0000
0000
0010
0000
0000
0000
0000
0000
,
1010
0000
1000
0000
1010
0000
0000
0000
0010
0000
0000
0100
0000
0000
0001
0000
,
2000
0000
0000
0000
0000
0000
0100
0000
0002
0000
0000
3003
0010
0000
0000
0000
,
0110
0100
0110
0000
1001
0001
1001
0000
,
0010
0100
0010
0000
1000
0000
0000
0001
1000
0000
0100
0000
0010
0000
0001
0000
,
0100
0010
0100
0000
0001
0000
0000
1000
0001
0000
0010
0000
0100
0000
1000
0000
,
0100
0010
0100
0000
0001
0000
0000
1000
0001
0000
0010
0000
0100
0000
1000
0000
,
1100
0100
1100
0000
0011
0001
0011
0000
,
0010
0100
0010
0000
1000
0000
0000
0001
1000
0000
0100
0000
0010
0000
0001
0000
,
0100
0010
0100
0000
0001
0000
0000
1000
0001
0000
0010
0000
0100
0000
1000
0000
,
0010
0100
0010
0000
1000
0000
0000
0001
1000
0000
0100
0000
0010
0000
0001
0000
,
0010
0000
0000
1000
0001
0000
0000
1000
0001
0000
0000
1000
0001
0000
0000
0000
,
1000
0001
0000
0000
0010
0000
0100
0000
0001
0000
0100
0000
0010
0000
0100
0000
,
1001
0000
0000
0010
0000
0000
0200
0000
0000
0000
0000
0000
0000
0000
0300
0000
,
1000
0010
0000
0000
1000
0000
0100
0000
1000
0000
0001
0000
1000
0000
0100
0000
,
1100
1000
1100
0000
0011
0010
0011
0000
,
0010
0000
0000
0100
0000
0000
0000
0000
0000
0000
0000
0000
0010
0000
0000
0000
0000
0000
1000
0000
0000
0000
0000
0000
0010
0000
0000
0000
0000
0000
0000
0000
0100
0000
0000
0000
0001
0000
0000
0000
0000
0000
1000
0000
0000
0000
0000
0000
,
0011
0000
0000
0000
0000
0000
0000
0000
0000
0001
0000
0000
0000
0000
0000
0000
0000
0000
2000
0000
0000
0000
0000
0000
0000
0000
0000
0000
0000
0000
0000
0000
0000
0000
0000
0000
0000
0000
0000
0000
0000
3000
0000
0000
0000
0000
0000
0000
,
0001
0100
0000
0000
0001
0000
1000
0000
0001
0000
0010
0000
0100
0000
1000
0000
,
1010
0010
1010
0000
0101
0100
0101
0000
,
0001
0100
0000
0000
0001
1000
0000
0000
0010
0000
0100
0000
0002
0000
0000
0003
,
1000
0100
0000
0000
1000
0100
0000
0000
0010
0000
0001
0000
2000
0000
0000
3000
,
0010
0100
0000
0000
0001
0000
1000
0000
0010
0000
0100
0000
0001
0000
1000
0000
,
0020
0000
0000
0000
0000
0030
0000
0000
0000
2000
0000
0000
0000
0000
3000
0000
0000
0000
0002
0000
0000
0000
0000
0003
0000
0000
0000
0000
0000
0000
0011
0000
0000
0000
0000
0000
0000
0000
0000
1010
0000
0000
0000
0000
0000
0000
0000
0000
,
0010
0000
0000
0000
1000
0010
0000
0000
0100
0000
0001
0000
1000
0000
0100
0000
,
0010
0000
0000
0000
1000
0010
0000
0000
0100
0000
0001
0000
1000
0000
0100
0000
,
0010
0001
0010
0001
1000
0001
1000
0001
,
2002
0000
0000
3003
0010
0000
0100
0000
0010
0000
0100
0000
0010
0000
1000
0000
,
0011
0000
0010
0001
1100
0000
0100
0010
,
0001
1000
0000
0000
0010
0000
0100
0000
0001
0000
0010
0000
0100
0000
1000
0000
,
0002
0000
0000
0000
0000
0000
0000
0000
0000
0000
0000
0000
0000
0000
0000
0000
0000
0000
0010
0000
0000
0000
0000
0000
2000
0000
0000
0000
0000
0000
0000
0000
0000
0000
0000
0003
0000
0000
3000
0000
0000
0000
0010
0000
0000
0000
0000
0000
,
1010
0000
0010
0000
1010
0000
0000
0000
0010
0000
0000
0100
0000
0000
0001
0000
,
0011
0000
0010
0001
1100
0000
0100
1000
,
0010
0000
0000
0100
0010
0000
1000
0000
0001
0000
0010
0000
0100
0000
1000
0000
,
0002
0000
0000
0000
0000
0000
0000
0000
0000
0000
0000
0000
0000
0000
0000
0000
0000
0000
0010
0000
0000
0000
0000
0000
2000
0000
0000
0000
0000
0000
0003
0000
0000
0000
0000
3000
0000
0000
0000
0000
0000
0000
0010
0000
0000
0000
0000
0000
,
1010
0000
1000
0000
1010
0000
0000
0000
0010
0000
0000
0100
0000
0000
0001
0000
,
2000
0000
0000
0000
0000
0000
0100
0000
0002
0000
0000
3003
0010
0000
0000
0000
,
0110
0100
0110
0000
1001
0001
1001
0000
,
0110
0000
0000
0000;

//---------------dance-single - Challenge----------------
#NOTES:
     dance-single:
     Challenge:
     Challenge:
     9:
     0.545,0.514,0.567,0.262,0.394,421.000,80.000,37.000,0.000,0.000:

1001
0000
0000
0000
0110
0000
0000
0000
0000
0011
0000
0000
1100
0000
0000
0000
0000
0000
0000
0000
0000
0000
0000
0000
,
0010
1000
0010
0000
0001
0000
0100
1000
0100
0000
0001
0000
0101
0000
0000
0000
,
0001
0010
0001
0000
0100
0000
1000
0100
1000
0000
0010
0000
0100
0000
0010
0000
,
0100
0010
0001
0000
0001
0000
0010
0100
1000
0000
0000
0000
0000
0000
0000
0000
,
0011
0110
1100
1001
,
1000
0100
1000
0000
0100
0000
0010
0001
0010
0000
1000
0000
0001
0000
0000
0000
,
0100
0001
0100
0000
0010
0000
0100
1000
0100
0000
0011
0000
0101
0000
1010
0000
,
0010
0100
0010
0000
1000
0000
0100
0010
0100
0000
0000
0000
0000
0000
0000
0000
,
0000
0000
0000
0000
0000
0000
0000
0000
1000
0100
1000
0100
1000
0100
1000
0100
,
1000
0001
0000
0100
0000
0010
0000
0001
0000
0000
1000
0000
0100
0000
0010
0000
,
0001
0000
0000
0010
0000
0000
2200
0000
0000
0000
0000
0000
0000
0000
3300
0000
,
1000
0010
0000
0100
0000
0001
0000
2000
0000
0000
3000
0000
0000
0000
0100
0000
,
1100
1100
0011
0011
,
0001
0100
0000
0010
0000
1000
0000
0100
0000
0000
0010
0000
0001
0000
0010
0000
,
0100
0000
0000
0000
0000
0000
0010
0000
0000
0000
0000
0000
0100
0000
0000
0000
0000
0000
0220
0000
0000
0000
0000
0000
0000
0000
0000
0000
0000
0000
0000
0000
0000
0000
0000
0000
0000
0000
0000
0000
0000
0330
0000
0000
0000
0000
0000
0000
,
0010
1000
0000
0100
0000
0010
0000
0002
0000
0000
0000
0003
0000
0000
1000
0000
,
1010
0110
0101
0110
,
1001
0000
0000
0000
1000
0100
0000
0001
0000
0001
0010
0100
2000
0000
0000
3000
,
0000
0000
0000
0000
0010
1000
0000
0100
0000
0010
0001
0100
2000
0000
0000
3000
,
0000
0000
0000
0000
0010
0100
0000
0010
0000
0000
0001
0000
1000
0000
0100
0000
,
0020
0000
0000
0000
0000
0030
0000
0000
0000
2000
0000
0000
0000
0000
3000
0000
0000
0000
0002
0000
0000
0000
0000
0003
0000
0000
0000
0000
0000
0000
1001
0000
0000
0000
0000
0000
0000
0000
0000
0110
0000
0000
0000
0000
0000
0000
0000
0000
,
0011
0000
0000
0000
1000
0010
0000
0001
0000
0000
0001
0100
1000
0000
0100
0000
,
0000
0000
0000
0000
1000
0010
0000
0100
0000
0000
0001
0000
0100
0000
0010
1000
,
0002
0000
0000
0000
0000
0000
0000
0003
,
2100
0000
0000
0000
0000
0000
3010
0001
,
0101
0000
0010
1000
1100
0000
0100
0010
,
0001
1000
0000
0010
0000
0001
0000
1000
0000
0100
0000
0001
1000
0000
0100
0000
,
0020
0000
0000
0000
0000
0000
0001
0000
0002
0000
0000
0030
0003
0000
1010
0000
,
0011
0000
0000
0000
1001
0000
0000
0000
0010
0000
0000
0100
0000
0000
1000
0000
,
1100
0000
0010
0001
0101
0000
0100
1000
,
0001
0000
0010
0100
0000
1000
0000
1000
0100
0000
0010
0001
0010
0000
0001
0000
,
0002
0000
0000
0100
0200
0003
0300
0100
,
1010
0000
0001
0000
1010
0000
0000
0000
0010
0000
0000
0100
0000
0000
1000
0000
,
0020
0000
0000
0000
0000
0000
0100
0000
0200
0000
0000
0330
0000
0000
1001
0000
,
0110
1001
0101
0000
1100
0011
1001
0000
,
0010
0100
0010
0000
1000
0000
0100
0010
0100
0000
0000
0000
0000
0000
0000
0000
,
1000
0001
1000
0000
0001
0000
1000
0001
1000
0000
0000
0000
0000
0000
0000
0000
,
0010
0100
0010
0000
0100
0000
0010
1000
0010
0000
0000
0000
0000
0000
0000
0000
,
1001
1100
1001
0101
,
0001
0100
0001
0000
0010
0000
1000
0100
1000
0000
0000
0000
0000
0000
0000
0000
,
0010
1000
0100
0000
0001
0000
0010
0001
0100
0000
0000
0000
0000
0000
0000
0000
,
0100
0001
0100
0000
0010
0000
0100
1000
0100
0000
0000
0000
0000
0000
0000
1000
,
0100
0000
0000
0001
0100
0000
0000
1000
0100
0000
0000
0001
0100
0000
0000
0000
,
1000
0001
0100
0000
0001
0000
0010
1000
0100
0000
1000
0000
0100
0010
0000
0000
,
1001
0000
0000
0110
0000
0000
2002
0000
0000
0000
0000
0000
0000
0000
3003
0000
,
0001
0010
0100
0000
1000
0100
0000
0010
0001
0000
0001
0000
0000
0000
1000
0000
,
1100
0110
1001
0011
,
0010
0100
0010
0000
1000
0000
1000
0100
0010
0000
0001
0000
0001
0000
1000
0001
,
0011
0000
0000
0000
0000
0000
0000
0000
0000
1100
0000
0000
0000
0000
0000
0000
0000
0000
2000
0000
0000
0000
0000
0000
0000
0000
0000
0000
0000
0000
0000
0000
0000
0000
0000
0000
0000
0000
0000
0000
0000
3000
0000
0000
0000
0000
0000
0000
,
0001
0100
0001
0000
0100
0000
0010
0100
0000
0000
0000
0000
0000
0000
1000
0000
,
1001
0110
1001
0110
,
2001
0000
0000
0000
0100
0010
0000
0001
3001
0010
0100
0000
2000
0000
0000
0000
,
3000
0000
0000
0000
1000
0010
0001
0000
0001
0100
1000
0000
2000
0000
0000
0000
,
3000
0000
0000
0000
0001
0010
0100
0010
1000
0000
0000
1000
0001
0000
1000
0000
,
0002
0000
0000
0000
0000
0000
0003
0000
0000
2000
0000
0000
0000
0000
3000
0000
0000
0000
0002
0000
0000
0000
0000
0003
0000
0000
0000
0000
0000
0000
1010
0000
0000
0000
0000
0000
0000
0000
0000
0110
0000
0000
0000
0000
0000
0000
0000
0000
,
0101
0000
0000
0000
1000
0010
0000
0000
0100
0000
0001
0000
1000
0000
0100
0000
,
0010
0000
0000
0000
1000
0010
0000
0000
0100
0000
0001
0000
1000
0000
0100
0000
,
0020
0000
0000
0000
0000
0000
0000
0030
,
2002
0000
0000
0000
0000
3003
0000
0010
,
0011
0000
0000
0100
1100
0000
0100
0010
,
0001
1000
0000
0000
0010
0000
0100
0000
0001
0000
0010
0000
0100
0000
1000
0000
,
1002
0000
0000
0000
0000
0000
0000
0000
0000
0000
0000
0000
0000
0000
0000
0000
0000
0000
1000
0000
0000
0000
0000
0000
2000
0000
0000
0000
0000
0000
0000
0000
0000
0000
0000
0003
0000
0000
3000
0000
0000
0000
0101
0000
0000
0000
0000
0000
,
1010
0000
0000
0000
1001
0000
0000
0000
0010
0000
0000
0100
0000
0000
1000
0000
,
1100
0000
0010
0001
0101
0000
1000
0100
,
0010
0000
0001
0010
0000
0100
0000
1000
0100
0000
0010
0000
0001
0000
1000
0000
,
0002
0000
0000
0100
0200
0003
0300
0001
,
0101
0000
0000
0000
1010
0000
0000
0000
1000
0000
0000
0100
0000
0000
0001
0000
,
2000
0000
0000
0000
0000
0000
0001
0000
0002
0000
0000
0003
3000
0000
1000
0000
,
1100
0011
0110
1100
,
1001
0000
0000
0000;
