#TITLE:Stars;
#SUBTITLE:;
#ARTIST:Roxette;
#TITLETRANSLIT:;
#SUBTITLETRANSLIT:;
#ARTISTTRANSLIT:;
#CREDIT:Plaguefox (gamecast.org/plaguemix);
#BANNER:stars-bn.png;
#BACKGROUND:stars-bg.jpg;
#LYRICSPATH:;
#CDTITLE:pmacd.png;
#MUSIC:stars.ogg;
#OFFSET:0.008;
#SAMPLESTART:9.960;
#SAMPLELENGTH:12.000;
#SELECTABLE:YES;
#BPMS:0.000=135.965;
#STOPS:;
#BGCHANGES:;
// cache tags:
#FIRSTBEAT:16.500;
#LASTBEAT:228.000;
#SONGFILENAME:Songs/Plaguemix Series/Stars/Stars.sm;
#HASMUSIC:1;
#HASBANNER:1;
#MUSICLENGTH:106.254;
// end cache tags

//---------------dance-single - HEAVY----------------
#NOTES:
     dance-single:
     HEAVY:
     Hard:
     8:
     0.463,0.456,0.198,0.151,0.235,307.000,21.000,16.000,0.000,0.000:
0000
0000
0000
0000
,
0000
0000
0000
0000
,
0000
0000
0000
0000
,
0000
0000
0000
0000
,
0000
1000
0100
0001
0000
0100
0010
0100
,
0000
1000
0010
0001
0000
0010
0100
0010
,
1000
0001
0100
1000
0000
0100
0010
0100
,
0000
0001
0010
1000
0000
0010
0100
0010
,
0001
0000
0000
1000
0010
0000
0000
1000
0100
0000
0000
1000
0001
0000
0000
0100
,
0010
0000
0000
0100
0001
0000
0000
0100
0010
0000
0000
1000
0001
0000
0000
0000
,
1000
0000
0000
0000
1001
0000
0000
0001
0010
0000
0100
0000
0010
0000
0001
0000
,
1000
0000
0000
0000
1001
0000
0000
1000
0100
0000
0010
0000
0001
0000
1000
0000
,
0010
0000
0000
0100
0001
0000
0000
0100
0010
0000
0000
0100
0001
0000
0000
1000
,
0010
0000
0000
1000
0100
0000
0000
1000
0001
0000
0000
0100
0010
0000
0000
0000
,
0100
0000
0000
0000
0110
0000
0000
0010
1000
0000
0100
0000
0001
0000
0100
0000
,
0010
0000
0000
0000
0011
0000
0000
0001
1000
0000
0100
0000
0001
0000
0100
0000
,
1000
0000
1000
0000
1000
0010
1000
0010
,
0100
0001
0000
0020
0000
0000
0030
0000
,
0010
0001
0000
0200
0000
0000
0300
0000
,
0100
0001
0000
0020
0000
0000
0030
0000
,
0001
0000
0001
0000
0001
0100
0001
0100
,
0010
1000
0000
0200
0000
0000
0300
0000
,
0100
1000
0000
0020
0000
0000
0030
0000
,
0010
1000
0000
0100
1000
0010
0100
0001
,
0011
0000
0000
0000
0010
0000
0000
0100
1000
0000
0100
0000
0010
0000
0000
0000
,
1001
0000
0000
0000
0001
0000
0000
1000
0010
0000
0100
0000
0010
0000
0000
0000
,
1100
0000
0000
0000
0100
0000
0000
0010
0001
0000
0100
0000
0010
0000
0000
0000
,
0110
0000
0000
0000
0100
0000
0000
0001
0010
0000
0100
0000
1000
0000
0010
0000
,
1010
0000
0000
0000
1000
0000
0000
0010
0100
0000
0001
0000
0010
0000
0000
0000
,
1001
0000
0000
0000
0001
0000
0000
0100
0001
0000
0010
0000
0001
0000
0000
0000
,
0101
0000
0000
0000
0100
0000
0000
0010
1000
0000
0100
0000
0010
0000
0000
0000
,
0110
0000
0000
0000
0100
0000
0000
1000
0010
0000
1000
0000
0100
0000
0010
0000
,
0001
0010
0100
1000
,
1001
0000
0000
0000
1000
0000
0000
0010
1000
0000
0100
0000
1000
0000
0020
0000
,
0000
0130
0001
0100
,
1010
0000
0000
0000
0010
0000
0000
0100
0001
0000
0010
0000
0001
0000
0200
0000
,
0000
0310
1000
0100
,
0011
0000
0000
0000
0010
0000
0000
0001
0100
0000
0001
0000
0010
0000
0200
0000
,
0000
0000
0310
0000
0001
0000
0100
0020
,
0000
1030
0200
0310
,
0001
0100
0010
0100
,
1001
0000
0000
0000
0001
0000
0000
0010
0100
0000
0010
0000
1000
0000
0020
0000
,
0000
0031
0100
0010
,
0101
0000
0000
0000
0100
0000
0000
0001
0100
0000
1000
0000
0100
0000
0002
0000
,
0000
0103
0010
1000
,
1100
0000
0000
0000
0100
0000
0000
0001
0100
0000
0010
0000
0001
0000
0200
0000
,
0000
0000
0310
0000
1000
0000
0100
0002
,
0000
0103
0020
0031
,
0200
0010
0301
1000
,
0001
0000
0000
1000
0010
0000
0000
1000
0100
0000
0000
1000
0001
0000
0000
0100
,
0010
0000
0000
0100
0001
0000
0000
0100
0010
0000
0000
1000
0001
0000
0000
0000
,
1000
0000
0000
0000
1001
0000
0000
0001
0010
0000
0100
0000
0010
0000
0001
0000
,
1000
0000
0000
0000
1001
0000
0000
1000
0100
0000
0010
0000
0001
0000
1000
0000
,
0010
0000
0000
0100
0001
0000
0000
0100
0010
0000
0000
0100
0001
0000
0000
1000
,
0010
0000
0000
1000
0100
0000
0000
1000
0001
0000
0000
0100
0010
0000
0000
0000
,
0100
0000
0000
0000
0110
0000
0000
0010
1000
0000
0100
0000
0001
0000
0100
0000
,
0010
0000
0000
0000
0001
0000
1000
0010
1000
0000
0100
0000
1000
0000
0010
0000
,
0100
0000
0000
0000
;

//---------------dance-single - LIGHT----------------
#NOTES:
     dance-single:
     LIGHT:
     Easy:
     3:
     0.246,0.295,0.047,0.151,0.000,162.000,5.000,16.000,0.000,0.000:
0000
0000
0000
0000
,
0000
0000
0000
0000
,
0000
0000
0000
0000
,
0000
0000
0000
0000
,
0000
0100
0000
0100
,
0000
0100
0000
0100
,
0000
0001
0000
1000
,
0000
0001
0000
1000
,
0001
0010
0100
1000
,
0001
0010
0100
1000
,
0001
0000
1000
0000
,
0100
0000
1000
0000
,
0001
0100
0010
1000
,
0001
0100
0010
1000
,
0001
0000
0100
0000
,
0010
0000
0100
0000
,
0001
0001
0010
0010
,
0100
0100
1000
0000
,
0010
0010
1000
0000
,
0100
0100
1000
0000
,
1000
1000
0100
0100
,
0010
0010
0001
0000
,
0100
0100
0001
0000
,
0010
0010
0001
0100
,
1001
0100
0001
0100
,
0010
0000
1000
0100
,
1001
0100
1000
0010
,
0100
0001
0100
0010
,
1001
0010
0100
0010
,
1000
0000
0100
0010
,
1001
0010
0100
0010
,
0001
0100
0010
1000
,
0001
1000
0100
0010
,
0002
0003
2000
3000
,
0001
0100
0001
0000
,
2000
3000
0002
0003
,
1000
0010
1000
0100
,
0020
0030
0200
0300
,
1000
0010
1000
0000
,
0020
0030
0200
0300
,
0001
0010
0001
0001
,
2000
3000
0002
0003
,
1000
0010
1000
0000
,
0002
0003
2000
3000
,
0001
0100
0001
0010
,
0200
0300
0020
0030
,
0001
0100
0001
0000
,
0200
0300
0020
0030
,
1000
0100
1000
1000
,
1000
0100
0010
0001
,
1000
0100
0010
0001
,
1000
0000
0001
0000
,
0010
0000
0001
0000
,
1000
0010
0100
0001
,
1000
0010
0100
0001
,
1000
0000
0010
0000
,
0100
0000
0010
0000
,
1001
0000
0000
0000
;
