#TITLE:lucid rhythms;
#SUBTITLE:;
#ARTIST:Namco "R4" Sound Team;
#TITLETRANSLIT:;
#SUBTITLETRANSLIT:;
#ARTISTTRANSLIT:;
#CREDIT:Plaguefox (gamecast.org/plaguemix);
#BANNER:lucidrhythms-bn.png;
#BACKGROUND:lucidrhythms-bg.png;
#LYRICSPATH:;
#CDTITLE:pm2cd.png;
#MUSIC:lucidrhythms.ogg;
#OFFSET:0.002;
#SAMPLESTART:33.902;
#SAMPLELENGTH:13.314;
#SELECTABLE:YES;
#BPMS:0.000=170.002,128.000=85.001,160.000=170.002;
#STOPS:;
#BGCHANGES:;
// cache tags:
#FIRSTBEAT:16.000;
#LASTBEAT:252.000;
#SONGFILENAME:Songs/Plaguemix Series/lucid rhythms/lucidrhythms.sm;
#HASMUSIC:1;
#HASBANNER:1;
#MUSICLENGTH:101.643;
// end cache tags

//---------------dance-single - LIGHT----------------
#NOTES:
     dance-single:
     LIGHT:
     Easy:
     4:
     0.236,0.310,0.049,0.216,0.020,141.000,5.000,22.000,0.000,0.000:
0000
0000
0000
0000
,
0000
0000
0000
0000
,
0000
0000
0000
0000
,
0000
0000
0000
0000
,
1000
0000
1000
0000
0001
0000
0000
1000
,
0000
1000
0001
0000
,
1000
0000
1000
0000
0001
0000
0000
0001
,
0000
0000
0001
0000
0000
0001
0000
0000
,
1000
0000
0000
0100
0000
0000
1000
0000
,
0000
0100
0000
0000
0000
0000
0000
0000
,
0001
0001
0001
0000
,
0100
0100
0100
0000
,
0001
0000
0000
0010
0000
0000
0001
0000
,
0000
0010
0000
0000
0000
0000
0000
0000
,
1000
1000
0001
0001
,
0100
0100
0100
0000
,
0001
0000
0000
0100
0000
0000
0001
0000
,
0000
0100
0000
0000
0000
0000
0000
0000
,
1000
1000
1000
0000
,
0010
0010
0010
0000
,
1000
0000
0000
0010
0000
0000
1000
0000
,
0000
0010
0000
0000
0000
0000
0000
0000
,
0001
0001
1000
1000
,
0010
0010
0010
0000
,
1001
0000
0000
0100
0000
0000
1001
0000
,
0000
0100
0000
0000
0000
0000
0000
0000
,
1000
0001
1000
0000
,
0001
1000
0001
0100
,
1001
0000
0000
0100
0000
0000
1001
0000
,
0000
0100
0000
0000
0000
0000
0000
0000
,
0001
1000
0001
0000
,
1000
0001
1000
0100
,
1000
0000
0001
0000
0000
1000
0001
0000
,
1000
0001
0001
0100
,
0001
0000
1000
0000
0000
0001
1000
0000
,
1000
0000
0000
0000
0001
0000
0000
0001
0000
0000
0001
0000
0000
0001
0000
0000
,
0001
0000
1000
0000
0000
0001
1000
0000
,
0001
1000
1000
0100
,
1000
0000
0001
0000
0000
1000
0001
0000
,
0001
0000
0000
0000
1000
0000
0000
1000
0000
0000
1000
0000
0000
1000
0000
0000
,
2000
0000
0000
0000
,
3200
0000
0000
0000
,
0320
0000
0000
0000
,
0032
0000
0000
0000
,
2003
0000
0000
0000
,
3020
0000
0000
0000
,
0230
0000
0000
0000
,
0302
0000
0000
0000
,
0023
0000
0100
0100
,
0230
1000
1000
1000
,
2300
0000
0000
0000
,
3020
0000
0000
0000
,
0230
0000
0000
0000
,
0302
0000
0000
0000
,
2003
0000
0000
0000
,
3200
0000
0000
0000
,
0320
0000
0001
0001
,
0032
1000
1000
1000
,
2003
0000
0000
0000
,
3020
0000
0000
0030
,
2002
0000
0000
0000
,
0000
0000
0000
0000
,
0000
0000
0000
0000
,
3003
0000
0000
0000
;

//---------------dance-single - STANDARD----------------
#NOTES:
     dance-single:
     STANDARD:
     Medium:
     6:
     0.313,0.496,0.059,0.157,0.039,201.000,6.000,16.000,0.000,0.000:

0000
0000
0000
0000
,
0000
0000
0000
0000
,
0000
0000
0000
0000
,
0000
0000
0000
0000
,
1000
0000
0100
0000
0001
0000
0000
1000
,
0000
0000
0100
0000
0001
0000
0000
0001
,
1000
0000
0100
0000
0001
0000
0100
0001
,
0000
0100
0001
0000
0100
0001
0000
0000
,
1000
0000
0000
0100
0000
0000
1000
0000
,
0000
0100
0000
0100
0000
0100
0000
0000
,
1001
0001
0001
0000
,
1001
1000
1000
0001
,
0001
0000
0000
0100
0000
0000
0001
0000
,
0000
0100
0000
0100
0000
0100
0000
0000
,
1001
1000
0100
0100
,
1100
0100
0100
0100
,
1000
0000
0000
0100
0000
0000
1000
0000
,
0000
0100
0000
0100
0000
0100
0000
0000
,
0002
0000
0000
0003
,
2000
0000
0000
3001
,
0001
0000
0000
0010
0000
0000
0001
0000
,
0000
0010
0000
0010
0000
0010
0000
0000
,
2000
0000
0001
0001
,
3002
1000
1000
1000
,
1003
0000
0000
0100
0000
0000
0010
0000
,
0000
0001
0000
0000
0010
0000
0001
0000
,
0020
0000
0031
1000
,
0200
0000
1300
0010
,
0001
0000
0000
0010
0000
0000
0100
0000
,
0000
1000
0000
0000
0001
0000
0100
0000
,
0002
0000
1000
0100
,
1003
1000
0001
0001
,
1000
0000
0100
0000
0010
0000
0000
0001
0000
0000
0010
0000
0100
0000
0000
0000
,
1000
0100
0010
0100
1000
0100
0010
0000
,
0001
0000
0010
0000
0100
0000
0000
1000
0000
0000
0100
0000
0010
0000
0000
0000
,
0001
0000
0010
0000
0100
0000
0000
0010
0000
0000
0001
0000
0000
0010
0000
0000
,
0100
0000
0100
0000
1000
0000
0000
0010
0000
0000
0010
0000
1000
0000
0100
0000
,
1000
1000
0100
1000
0010
0010
0100
0001
,
0100
0000
0100
0000
0001
0000
0000
0010
0000
0000
0010
0000
0001
0000
0100
0000
,
0001
0000
0010
0000
0100
0000
0000
0100
0000
0000
1000
0000
0000
0010
0000
0000
,
0100
0010
1000
0001
0000
0100
0000
0010
,
0000
0000
0000
0000
0000
1000
0000
0001
,
0000
0000
0000
0000
0000
0100
0000
0010
,
0000
0000
0000
0000
0000
1000
0000
0001
,
0000
0000
0000
0000
1000
0100
0000
1000
,
0000
0000
0001
0010
0000
0001
0000
0100
,
0000
0000
0000
0000
0000
0001
0010
0100
,
1000
0001
0010
0100
1000
0001
0000
1000
,
0000
0000
0000
0000
0000
0101
0000
1010
,
0000
0000
0000
0000
,
0000
1000
0100
0010
0001
1000
0100
0010
,
0001
0000
0010
0100
1000
0001
0000
0010
,
0200
0000
0000
0000
,
2300
0000
0000
0000
,
3020
0000
0000
0000
,
0230
0000
0000
0000
,
0302
0000
1000
0100
,
2003
0010
0001
0010
,
3002
0000
0000
0000
,
2003
0000
0000
0000
,
0002
0000
0000
0000
,
0000
0000
0000
0000
,
0000
0000
0000
0000
,
3003
0000
0000
0000
,;

//---------------dance-single - HEAVY----------------
#NOTES:
     dance-single:
     HEAVY:
     Hard:
     8:
     0.416,0.589,0.128,0.236,0.108,259.000,13.000,24.000,0.000,0.000:
0000
0000
0000
0000
,
0000
0000
0000
0000
,
0000
0000
0000
0000
,
0000
0000
0000
0000
,
1000
0100
0010
0100
1000
0100
0010
0001
,
1000
0100
0010
0001
0010
0100
0010
0001
,
0010
0100
1000
0100
0010
0100
1000
0100
,
0010
0001
0010
0100
1000
0100
0010
0001
,
1000
0000
1000
0100
0000
0100
1000
0000
,
1000
0100
0000
0100
0000
0100
0000
0000
,
0010
0010
0010
0000
,
0001
0001
0001
0100
,
0100
0000
0100
0010
0000
0010
0100
0000
,
0100
0010
0000
0010
0000
0010
0000
0000
,
1000
1000
1001
0001
,
0101
0001
0001
0001
,
1000
0100
0010
2002
0000
0000
0000
0000
,
0000
0000
3003
0000
,
0200
0000
0000
0000
,
0320
0000
0000
0100
,
1030
0000
0000
1000
0000
1000
0100
0010
,
0000
0001
0100
0000
1000
0100
0000
0001
,
0000
0001
0100
0000
2000
0000
3001
0000
,
1001
0000
0000
0100
0000
0000
0001
0000
,
0001
0000
0000
0001
0000
0001
0100
0010
,
0000
1000
0100
0000
0001
0100
0000
1000
,
0000
1000
0100
0000
0002
0000
0000
0000
,
0003
0100
1001
0000
,
2000
0000
0000
3100
0000
0010
0001
0100
,
0000
0001
0010
0000
0100
1000
0000
0010
,
0000
0100
0001
0000
0020
0000
0000
0000
,
0000
0000
0000
0030
,
0001
0000
0001
0000
0010
0000
0000
0010
0000
0000
0100
0000
1000
0000
0000
1000
,
0001
0000
0001
0000
0010
0000
0000
0100
0000
1000
0001
0000
0010
0000
0100
1000
,
0001
0000
0001
0000
0100
0000
0000
0010
0000
0000
0010
0000
1000
0000
0000
1000
,
0001
0000
0001
0000
0100
0000
0010
1000
0000
0001
0100
0000
0010
1000
0001
0100
,
0001
0000
1000
0000
0100
0000
0000
0100
0000
0000
0010
0000
0001
0000
0000
0001
,
1000
0000
1000
0000
0100
0000
0000
0010
0000
0001
1000
0000
0100
0000
0010
0001
,
1000
0000
1000
0000
0010
0000
0000
0100
0000
0000
0100
0000
0001
0000
0000
0001
,
1000
0000
1000
0000
0010
0000
0100
0001
0000
1000
0010
0000
0100
0001
1000
0010
,
0100
0001
1000
0010
0000
0110
0000
0001
,
0000
0010
0100
1000
0000
0110
0000
1000
,
0000
0001
1000
0001
0000
0110
0000
0010
,
0000
1000
0100
0010
0000
0011
0000
0001
,
0000
0101
0000
0000
0010
1000
0000
1100
,
0000
0000
0100
0010
0000
0101
0000
2020
,
0000
0000
0000
3030
0000
1000
0100
0010
,
0100
1000
0100
0001
0100
1000
0000
0002
,
0000
0000
0100
1000
,
0010
1000
0100
1003
,
0000
0001
0010
0100
0010
0001
0010
1000
,
0010
0000
0001
0100
0010
1000
0000
1000
,
0200
0000
0000
0000
,
2300
0000
0000
0000
,
3002
0000
0000
0000
,
0023
0000
0000
0000
,
0200
0030
1000
0320
,
0001
0230
1000
0320
,
0002
0000
0030
2003
,
0200
0000
3000
0320
,
0002
0000
0000
0000
,
0000
0000
0000
0000
,
0000
0000
0000
0000
,
0033
0000
0000
0000
;
