#TITLE:Acid Sunset;
#SUBTITLE:;
#ARTIST:MC_XD;
#TITLETRANSLIT:;
#SUBTITLETRANSLIT:;
#ARTISTTRANSLIT:;
#CREDIT:;
#BANNER:Acid Sunset-bn.png;
#BACKGROUND:Acid Sunset-bg.png;
#LYRICSPATH:;
#CDTITLE:;
#MUSIC:Acid Sunset.mp3;
#OFFSET:-0.040;
#SAMPLESTART:24.040;
#SAMPLELENGTH:12.000;
#SELECTABLE:YES;
#BPMS:0.000=250.001,224.000=125.000,272.000=250.001;
#STOPS:;
#BGCHANGES:;
// cache tags:
#FIRSTBEAT:0.000;
#LASTBEAT:314.000;
#SONGFILENAME:Songs/StepMix 2/Acid Sunset/Acid Sunset.sm;
#HASMUSIC:1;
#HASBANNER:1;
#MUSICLENGTH:92.584;
// end cache tags

//---------------dance-single - ----------------
#NOTES:
     dance-single:
     :
     Hard:
     9:
     0.625,0.805,0.248,0.119,0.140,371.000,23.000,11.000,47.000,1.000:
0001
0010
1000
0010
,
0001
0100
1000
0100
,
0001
0010
1000
0010
,
0001
0100
1000
0100
,
0001
0010
0001
0000
1001
0000
1000
0000
,
0010
0100
0010
0000
1001
0000
0100
0000
,
1000
0010
1000
0000
0101
0000
0010
0000
,
0001
0100
0001
0000
0010
0000
0100
0000
,
1000
0000
0010
0100
0000
0100
0000
1000
,
0001
0000
0100
0010
0000
0010
0000
1000
,
0100
0000
0010
0001
0000
0001
0010
0000
,
0100
1000
0010
1000
0100
1000
0010
0000
,
0110
0000
1000
0000
,
0001
1000
0001
1000
,
0001
0100
0001
0000
0100
0001
0100
0000
,
0010
1000
0010
0001
0010
1000
0010
0001
,
0010
0000
0100
0000
0010
0000
0001
0100
,
0001
0000
1000
00M0
0000
0010
0000
0000
,
1000
0000
0100
0000
1000
0010
0001
0010
,
0100
0000
1000
00M0
0000
0010
0000
0000
,
0001
0000
0010
0100
00M0
0100
1000
0100
,
0001
0010
0001
0100
,
0001
0000
0100
0010
0M00
0010
1000
0010
,
0001
0100
0010
1000
,
1MM1
0000
1000
0000
0010
0100
0010
0100
,
0001
0000
0010
0000
0100
0000
1000
0010
,
0100
0000
0010
0000
1000
0100
0010
0001
,
0010
0000
0100
0000
0010
0000
0001
1000
,
0010
0000
0100
0000
0010
1000
0000
1000
,
0000
0100
0010
0001
0100
0000
0001
0000
,
0010
0000
0100
0000
,
1000
0010
0100
0001
,
0010
0100
0010
0001
,
0010
0001
01M0
0001
1M00
0000
0010
0000
,
0100
0000
0000
0010
0000
0000
1000
0000
,
0001
0000
0000
0100
0000
0000
0010
0000
,
1000
0010
0100
1000
,
0001
0010
0001
01M0
0001
0M00
1000
0000
,
0010
0000
0000
0100
0000
0000
1000
0000
,
0001
0000
0000
0010
0000
0000
0001
0000
,
0100
2000
3000
0100
,
0010
1000
0010
M001
0010
000M
1000
0000
,
0100
0020
0030
0001
,
0100
0000
0000
0010
0000
0000
0100
0000
,
0001
1000
0001
0000
1000
0000
0010
0000
,
0100
0001
0010
100M
0010
M000
0001
0000
,
0100
0000
0000
0010
0000
0000
0100
0000
,
0010
0000
0000
1000
0000
0000
0100
0000
,
0010
0100
0010
0000
0001
0000
1000
0000
,
0100
1000
0M01
0010
010M
0000
0M10
0000
,
0001
0000
0000
0100
0000
0000
0010
0000
,
1000
0000
0000
0100
0000
0000
1000
0000
,
0001
1001
MMMM
0101
,
MMMM
1010
MMMM
1001
,
1000
0001
1000
0001
1000
0010
1000
0010
,
2000
0100
0100
3000
,
0110
0000
0001
0010
0000
0100
0010
0000
0001
0010
0000
0100
,
1000
0000
0100
0010
0000
0100
1000
0000
0100
0010
0000
0100
,
1000
0000
0000
0110
0000
0001
1000
0000
0000
0110
0000
1000
,
0001
0000
0000
1001
0000
0010
0100
0000
0000
1001
0000
0100
,
0010
1000
0010
0000
0100
0000
0010
0000
0100
0001
0100
0000
0010
0000
1000
0000
,
0200
0000
0000
0010
0300
0000
0010
0000
0002
0000
0000
0100
0003
0000
0010
0000
,
1000
0000
0000
1100
0000
0100
0010
0000
0000
0110
0000
0010
,
0001
0000
0000
0011
0000
0001
0100
0000
0000
0101
0000
0010
,
1000
0100
1000
0000
0010
0000
0001
0000
0100
0010
0100
0000
0001
0000
0010
0000
,
0200
0000
0000
0010
0300
0000
0010
0000
0002
0000
0000
0100
0003
0000
0000
0000
,
1001
0000
1000
0010
0100
0001
0010
0000
,
1000
0000
0100
0010
0001
0000
0100
0000
0010
0000
0000
1001
0000
0000
0110
0000
,
2000
0100
0000
0100
,
0000
0010
0000
0010
,
3000
0000
0001
0010
0001
01M0
0001
0M00
,
1000
0000
0000
0010
0000
0000
0100
0000
,
M0M1
0100
M0M1
0100
,
0010
1M0M
0010
1M0M
,
0100
M010
0M01
10M0
010M
M010
0M01
10M0
,
020M
0000
0000
0000
0000
0000
0000
0300
,
1001
0000
0010
0000
,
1000
0000
0100
0000
,
2002
0010
3003
0000
;

//---------------dance-single - ----------------
#NOTES:
     dance-single:
     :
     Challenge:
     11:
     0.892,1.000,0.464,0.173,0.383,519.000,43.000,16.000,98.000,2.000:
0010
0100
0010
1000
0010
0100
0010
0100
,
0001
0010
0100
1000
0100
1000
0100
0000
,
0110
1000
0001
0010
1000
0010
0001
0100
,
0010
1000
0100
0001
0100
1000
0010
0000
,
1001
0010
1000
0100
0010
0001
0010
1000
,
0100
0010
0001
0100
0010
1000
0010
0000
,
0101
0010
1000
0100
1000
0001
0010
0001
,
1000
0100
1000
0010
0100
0001
0100
0000
,
10M0
000M
0100
1010
0M0M
1000
0110
0000
,
0001
M000
0010
1001
0MM0
1000
0110
0000
,
M001
00M0
0100
0110
M000
0001
1100
00M0
,
100M
0M00
0010
1M1M
0000
0100
0011
0M00
,
0010
1M0M
0010
MM00
0010
010M
0010
M000
,
0100
M001
0100
000M
M100
M010
M10M
0000
,
0010
1000
0100
0010
0001
1000
0100
0010
,
0001
0000
0001
0000
0001
0000
0001
0000
0001
0010
0100
0010
0100
0010
0100
0010
,
0200
0000
1000
0300
0010
1000
0001
1000
,
0100
0000
1000
0000
0001
0000
0100
0010
,
1000
0000
0100
0000
0010
0001
0100
0001
,
0010
0000
0100
0000
1000
0000
0010
1000
,
0001
0000
0010
0100
0010
0001
1000
0010
,
0100
0000
0010
1000
0010
1000
0100
1000
,
0100
0000
0010
0001
1000
0001
0010
0100
,
1000
0000
0010
1000
0010
0001
0010
0100
,
M11M
0000
1000
0100
0010
0001
0100
0010
,
0100
0000
0001
0010
1000
0100
0010
0001
,
0100
0000
0010
0100
0001
1000
0100
1000
,
0010
0000
0100
0010
1000
0001
0010
0001
,
0010
0000
1M1M
0000
0110
M11M
0000
11MM
,
0000
0000
0110
0000
0101
M0M0
0101
0000
0011
0000
MM00
0000
1000
0000
0000
0000
,
0001
0000
0010
0000
0100
0010
0100
0010
,
0100
0010
0100
0110
,
1000
0001
1000
0010
,
1000
0100
M010
0100
1000
0000
0010
0000
,
1000
0100
0000
0100
0010
0000
0100
0001
,
1000
0010
0000
0010
0100
0000
0010
0001
,
0100
0010
1000
0010
,
0001
0010
1M00
0010
0001
0000
0100
0000
,
1010
0000
0000
1010
0000
0000
0110
0000
,
0011
0000
0000
0011
0000
0000
1001
0000
,
0110
1000
0100
0010
,
0001
0010
010M
0010
0001
0000
0100
0000
,
0010
0000
1000
0100
0010
0100
1000
0000
,
0010
0100
0001
1000
0100
0000
1000
0000
,
2000
0020
3030
0000
0100
0000
0001
0000
,
0010
0100
0001
1000
0100
0010
0001
0010
,
0001
0100
0001
0100
0010
0100
0010
1000
,
0100
0010
0001
0100
0010
0000
1100
0000
,
0002
0200
0303
0000
0010
0000
1000
0000
,
0100
1000
0M10
1000
0001
0000
0010
0000
,
0001
0100
0001
1000
0001
0000
0100
0000
,
0010
1000
0010
0110
,
0202
0303
1000
1000
,
0010
0010
0100
0100
,
0010
1000
0010
0001
0010
1000
0010
0001
,
0010
0000
1000
0000
0100
0000
0010
0000
0001
0010
0001
0000
0010
0001
0010
0000
,
1M01
0000
0000
00M0
0100
0010
M10M
0000
0000
0M0M
0010
1000
0M10
0000
0000
00M0
0100
0001
M1M0
0000
0000
000M
0010
0100
,
M010
0000
0000
00MM
1000
0100
10M0
0000
0000
0M00
0001
1000
00M1
0000
0000
M0M0
0100
0001
M100
0000
0000
000M
0010
1000
,
0M10
0000
0000
M0MM
0100
0000
0020
0000
0000
0M30
1000
0001
1M00
0000
0000
000M
0100
0000
M02M
0000
0000
0M30
0001
1000
,
00M1
0000
0000
M0MM
0100
0000
0M20
0000
0000
0030
1000
0001
1MM0
0000
0000
000M
0100
0000
10M0
0000
0000
M00M
0010
0000
,
0100
0010
1000
0010
0100
0010
1000
0010
0100
0000
0010
0000
1000
0000
0100
0000
,
0001
0000
0010
0000
0100
0000
0001
0000
0100
0000
0000
0110
0000
0000
1001
0000
,
2000
0000
0000
0M00
0010
0000
0010
0000
0000
000M
0100
0000
0100
0000
0000
00M0
0001
0000
0001
0000
0000
0M00
0010
0000
,
3020
0000
0000
M000
0100
0000
0100
0000
0000
000M
1000
0000
1000
0000
0000
0M00
0001
0000
0001
0000
0000
000M
1000
0000
,
1030
0100
0010
0100
1000
0001
0100
0010
0100
0001
1000
0100
0001
0100
1000
0000
,
0010
0000
0100
0010
0100
0000
1000
0000
0100
0000
0000
1010
0000
0000
0101
0000
,
0010
1000
0010
0100
0010
1000
0100
0010
0001
1000
0100
0010
0001
0100
0010
0000
,
1000
0000
0001
0000
0010
1000
0001
0000
0010
0000
0000
0001
0000
0000
1100
0000
,
2002
0000
0000
0000
0010
0000
0000
0000
0003
0000
0000
0000
0100
0000
0000
3000
,
0010
0100
0001
0010
0100
0000
1010
0000
,
1010
0000
0000
0000
0100
0010
0100
0010
0100
0000
0010
0000
1000
0000
0100
0000
,
0010
0000
0000
0101
0000
0000
0110
0000
,
1000
0001
0010
0001
,
1000
0001
0010
0001
,
1000
0100
1000
0001
0010
0001
1000
0100
,
1000
0000
0010
0000
0100
0000
0001
0000
1000
0010
1000
0010
1000
0100
1000
0100
,
2000
0010
00M0
0010
,
00M2
0000
0MM0
0000
,
0110
0000
3003
0000
;

//---------------dance-single - ----------------
#NOTES:
     dance-single:
     :
     Medium:
     7:
     0.454,0.636,0.194,0.162,0.049,261.000,18.000,15.000,25.000,0.000:
0010
1000
0010
0000
,
0100
0001
0010
0000
,
0100
1000
0010
0000
,
0100
0001
1000
0000
,
0100
1000
0010
0000
,
0100
0010
0001
0000
,
0100
0000
101M
0000
,
0100
0000
M011
0000
,
0100
0010
0001
0100
,
0010
1000
0010
0000
,
0100
0010
1000
0001
,
0010
0001
0100
0000
,
0010
0000
1000
0000
,
0100
0000
0010
0000
,
0001
0001
0001
0001
,
1000
0001
1000
0000
0001
1000
0001
0000
,
0010
0000
1000
0000
0000
0100
0000
0000
,
0010
0000
0100
0000
0000
0010
0000
0000
,
0001
0000
0100
0000
0000
0010
0000
0000
,
1000
0000
0010
0000
0000
0100
0000
0000
,
0010
0000
0100
0000
0000
0001
0000
0000
,
0010
0000
1000
0000
0000
0100
0000
0000
,
1000
0000
0100
0000
0000
0010
0000
0000
,
0001
0000
1000
0000
0000
0100
0000
0000
,
1001
0000
0100
0000
,
1001
0000
0010
0100
,
0001
0000
0010
0000
,
0001
0000
1000
0010
,
0100
0000
0100
0000
0000
0001
0000
0001
,
0000
0000
1000
0100
1000
0000
0010
0000
,
0010
0000
1001
0000
,
0100
0000
1001
MMMM
,
0100
1000
1000
0010
,
0100
0001
0010
0100
,
0010
0100
0100
0010
,
1000
0001
0100
0001
,
0010
0001
0001
0100
,
0010
0100
0001
0010
,
0100
1000
1000
0100
,
0020
0000
MM3M
0000
,
1001
0010
0000
0000
,
0010
1000
0000
0000
,
0110
0001
0000
0000
,
0101
1000
0000
0000
,
2000
0010
3000
0100
,
0010
1000
0001
0100
,
0010
0000
0000
0000
,
0011
1000
0000
0000
,
2000
0001
3000
0001
,
0010
0100
0000
0000
,
1010
0100
0000
0000
,
0001
0010
0001
0010
,
0100
1000
0100
1000
,
0010
1000
0010
0100
,
0001
0100
0001
0000
,
2002
0000
0000
3003
0220
0000
0000
0330
,
1000
10M0
10M0
10M0
,
0010
0M10
0M10
0M10
,
0100
010M
010M
010M
,
0001
M001
M001
M001
,
1001
0010
1000
0100
2000
0000
3000
0000
,
0010
0000
0000
0100
0000
0000
1000
0000
0100
0000
0000
0001
0000
0000
0010
0000
,
0100
0000
0100
1000
0000
0000
1000
0000
1000
0100
0000
0000
,
1000
0000
0010
0100
0000
0000
0010
0000
0100
0001
0000
0000
,
1001
0010
0001
0100
0002
0000
0003
0000
,
1000
0000
0010
0000
0100
0000
0010
0000
1000
0000
0000
0001
0000
0000
1000
0000
,
0001
0010
0001
0100
0020
0000
0030
0000
,
1000
0000
0000
0010
0000
0000
0100
0000
0010
0000
0000
0100
0000
0000
0010
0000
,
0002
0000
0010
0000
,
0023
000M
0000
0000
0100
0000
0000
0000
,
0230
00M0
0000
0000
1000
0000
0000
0000
,
2300
0M00
0000
0000
0000
0000
0000
0000
,
3010
M000
0100
0000
0010
0000
0001
0000
,
0010
1000
0100
0010
,
0001
0010
0100
1000
,
0010
1000
0010
0000
0100
0001
0100
0000
,
1001
0000
1100
0000
,
1001
0100
0010
0100
,
0020
0000
0030
0000
;

//---------------dance-single - ----------------
#NOTES:
     dance-single:
     :
     Easy:
     5:
     0.316,0.466,0.097,0.259,0.000,172.000,9.000,24.000,0.000,0.000:
0010
0000
0100
0000
,
0010
0000
0100
0000
,
0001
0000
1000
0000
,
0001
0000
1000
0000
,
0100
0010
0100
0000
,
1000
0010
1000
0000
,
0001
0100
0001
0000
,
0010
0100
0010
0000
,
0001
0000
0001
0000
,
1000
0000
1000
0000
,
0010
0000
0010
0000
,
0100
0000
0100
0000
,
2002
0000
3003
0000
,
1001
0000
0010
0000
,
0100
0000
0001
0000
,
0020
0000
0000
0030
,
0200
0000
0000
0300
,
2000
0000
0000
3000
,
0020
0000
0000
0030
,
0200
0000
0000
0300
,
0001
0000
0001
0000
,
1000
0000
1000
0000
,
0100
0000
0100
0000
,
0010
0000
0010
0000
,
1001
0000
0100
0000
,
0010
1000
0000
0100
,
0010
0000
0010
0000
,
0001
0000
0100
0000
,
0010
0000
0010
0000
0000
1000
0000
0000
,
0000
0001
0000
0000
0010
0000
0010
0000
,
0010
0000
0100
0000
,
1000
0000
0001
0000
,
0010
0000
0100
0000
,
1000
0000
0010
0000
,
0100
0000
0001
0000
,
0010
0000
0100
0000
,
0010
0000
0001
0000
,
1000
0000
0001
0000
,
0100
0000
1000
0000
,
0100
0000
0001
0000
,
0020
0100
0130
0000
,
1000
0000
0100
0000
,
2000
0001
3001
0000
,
0010
0000
1000
0000
,
0002
0010
0013
0000
,
0100
0000
0010
0000
,
0200
1000
1300
0000
,
0100
0000
1000
0000
,
0020
0100
0130
0000
,
1000
0000
0001
0000
,
0020
0001
0031
0000
,
0100
0000
0010
0000
,
1000
1000
0000
0000
,
1000
1000
0000
0000
,
0001
1000
0001
1000
,
0001
0010
0001
0010
,
1001
0000
0000
0000
,
0100
0000
0000
0000
,
0010
1000
0000
0001
,
0000
1000
0000
0001
,
1001
0000
0100
0010
1000
0000
0100
0000
,
2000
0000
0000
0000
0002
0000
0000
3003
,
0000
0010
0000
0100
,
0000
0010
0000
0100
,
1001
0000
0010
0001
0100
0000
0010
0000
,
2000
0000
0000
0000
0002
0000
0000
3003
,
0100
0000
0010
1000
0001
0000
0110
0000
,
0002
0000
0000
0000
2000
0000
0000
3003
,
0200
0000
0000
0000
,
0010
0000
0000
0000
,
0310
0000
0100
0000
,
1000
0000
0010
0001
,
0100
0000
0010
0000
,
0100
0000
0010
0000
,
0100
0010
0100
0010
,
0220
0000
0000
0000
0000
0000
0000
0330
,
0000
0000
0000
0000
,
0000
0000
0000
0000
,
2002
0000
3003
0000
;

//---------------dance-single - ----------------
#NOTES:
     dance-single:
     :
     Beginner:
     1:
     0.119,0.170,0.043,0.011,0.000,72.000,4.000,1.000,0.000,0.000:
0100
0000
0000
0000
,
0000
0000
0000
0000
,
0010
0000
0000
0000
,
0000
0000
0000
0000
,
0100
0000
0000
0000
,
0010
0000
0000
0000
,
1000
0000
0000
0000
,
0001
0000
0000
0000
,
0010
0000
0000
0000
,
0100
0000
0000
0000
,
1000
0000
0000
0000
,
0001
0000
0000
0000
,
0010
0000
0000
0000
,
0000
0000
0000
0000
,
0100
0000
0000
0000
,
0000
0000
0000
0000
,
0010
0000
0000
0000
,
0000
0000
0000
0000
,
0001
0000
0000
0000
,
0000
0000
0000
0000
,
1000
0000
0000
0000
,
0000
0000
0000
0000
,
0010
0000
0000
0000
,
0000
0000
0000
0000
,
0100
0000
0000
0000
,
0001
0000
0000
0000
,
1000
0000
0000
0000
,
0010
0000
0000
0000
,
0100
0000
0100
0000
,
0000
0000
0100
0000
,
0100
0000
0000
0000
,
0001
0000
0000
0000
,
1001
0000
0000
0000
,
0000
0000
0000
0000
,
0100
0000
0000
0000
,
0001
0000
0000
0000
,
1001
0000
0000
0000
,
0000
0000
0000
0000
,
1000
0000
0000
0000
,
0100
0000
0000
0000
,
0010
0000
0000
0000
,
0010
0000
0000
0000
,
0001
0000
0000
0000
,
0001
0000
0000
0000
,
1000
0000
0000
0000
,
1000
0000
0000
0000
,
0100
0000
0000
0000
,
0100
0000
0000
0000
,
0010
0000
0000
0000
,
0010
0000
0000
0000
,
0100
0000
0000
0000
,
0100
0000
0000
0000
,
1000
0000
0000
0000
,
1000
0000
0000
0000
,
0001
0000
0000
0000
,
0001
0000
0000
0000
,
1001
0000
0000
0000
,
0000
0000
0000
0000
,
0000
1000
0000
1000
,
0000
1000
0000
1000
,
0000
0000
0010
0000
,
0000
0000
0100
0000
,
0000
0001
0000
0001
,
0000
0001
0000
0001
,
0000
0000
0010
0000
,
0000
0000
0100
0000
,
0000
0000
0100
0000
,
0000
0000
0010
0000
,
0000
0000
0000
0000
,
0001
0000
0000
0000
,
1000
0000
0000
0000
,
0001
0000
0000
0000
,
1000
0000
0000
0000
,
0001
0000
0000
0000
,
1000
0000
0000
0000
,
0001
0000
0000
0000
,
1001
0000
0000
0000
,
0000
0000
0000
0000
,
0100
0200
0300
0000
;
