#TITLE:Close Your Eyes;
#SUBTITLE:;
#ARTIST:Subatomic;
#TITLETRANSLIT:;
#SUBTITLETRANSLIT:;
#ARTISTTRANSLIT:;
#CREDIT:;
#BANNER:close your eyes.jpg;
#BACKGROUND:closeyoureyesbg.jpg;
#LYRICSPATH:;
#CDTITLE:;
#MUSIC:Close Your Eyes (Subatomic).mp3;
#OFFSET:0.000;
#SAMPLESTART:39.190;
#SAMPLELENGTH:12.000;
#SELECTABLE:YES;
#BPMS:0.000=153.020,334.000=147.820,335.000=130.600,336.000=117.380,337.000=103.360,338.000=90.000;
#STOPS:0.000=0.080
,269.000=0.220
;
#BGCHANGES:;
// cache tags:
#FIRSTBEAT:14.000;
#LASTBEAT:343.500;
#SONGFILENAME:Songs/StepMix 1.0/Close Your Eyes/closeyreyes.sm;
#HASMUSIC:1;
#HASBANNER:1;
#MUSICLENGTH:136.968;
// end cache tags

//---------------dance-single - Blank----------------
#NOTES:
     dance-single:
     Blank:
     Challenge:
     12:
     0.732,1.000,0.504,0.526,0.789,534.000,69.000,72.000,119.000,26.000:




0000
0000
0000
0000
,
0000
0000
0000
0000
,
0000
0000
0000
0000
,
0000
0000
0000
0000
2000
0000
3110
0010
,
0200
0000
1310
1000
0200
0000
0311
0001
,
2000
0000
3101
0100
0020
0000
1130
1000
,
0200
0000
0311
0010
0002
0000
0113
0010
,
0200
0000
2302
0000
3023
0000
1130
0100
,
0002
0000
1013
0010
0002
0000
0113
0100
,
0002
0000
1103
1000
0200
0000
1310
0010
,
0200
0000
1301
0001
0200
0000
0311
0010
,
0200
2302
3113
1000
,
1100
0010
0110
1000
,
0110
0000
0010
1000
0011
0000
1000
0000
,
1001
0100
1100
0001
,
1100
0000
0011
1000
0100
0000
1100
0000
,
0100
0110
0202
1303
,
2020
0000
3031
1000
0202
0000
1303
0000
,
0220
1330
2002
3103
,
40M4
0000
0000
0M00
0000
0000
0000
0000
3003
0000
0000
0000
40M0
0000
0000
00M0
0000
0000
0001
0000
0000
0000
0000
0000
,
001M
0000
00M1
3000
M040
M000
0100
0M00
,
0001
M000
0130
0000
0400
0000
M010
000M
,
1000
M000
M010
0300
1004
0M00
01M0
0000
,
0M10
0000
00M0
0M03
0400
0000
M001
0000
,
001M
0301
4000
010M
,
00M1
30M1
0M40
1000
,
0100
0000
1M30
00MM
0400
0000
001M
0000
,
10M0
0000
000M
0010
0000
00M0
0004
0300
0000
MM00
0000
0000
,
0000
0M00
M000
0000
0000
0000
40M0
0000
0M00
0003
0000
000M
,
0000
0000
00M0
0000
0000
0000
0040
0000
0000
3000
M000
000M
,
0000
0M00
0000
M000
0000
0000
0004
0M00
0000
0000
0000
0000
,
0000
M000
0000
0030
00M0
0000
4000
0000
0000
0003
000M
0M00
,
0000
00M0
0000
0000
000M
0000
0400
0000
00M0
0000
0000
0000
,
0000
0000
000M
0000
000M
0000
0040
0000
0000
0000
0000
000M
,
0000
0000
0000
0000
0000
0000
0004
0000
0000
3333
MMMM
0000
,
2000
0000
0000
0000
3200
0000
0000
0000
1300
0100
1000
0100
0010
0100
0010
0001
,
1000
0100
0010
0001
1000
0100
0010
0001
0100
1000
0100
0010
0100
1000
0100
0001
,
0010
0100
1000
0001
1000
0100
0010
0100
1000
0100
0010
0100
1000
0001
0010
0001
,
0010
0100
0010
0001
0100
0001
1000
0100
0010
0001
0100
0010
0100
1000
0010
0100
,
0010
0001
0010
0100
1000
0100
1000
0010
1000
0001
1000
0010
1000
0100
1000
0100
,
1000
0001
1000
0001
1000
0001
0010
0100
1000
0100
1000
0100
1000
0010
1000
0001
,
1000
0010
1000
0100
1000
0001
1000
0100
0010
0001
0010
0100
1000
0100
1000
0001
,
0010
0000
0000
0100
0000
0000
0010
0000
0000
0001
0000
0000
0010
0000
0000
1000
0000
0000
0010
0000
0000
0001
0000
0000
4400
0000
0000
0000
0000
0000
0000
0000
00M0
0000
0000
0000
0000
0000
0000
0000
000M
0000
0000
0000
0000
0000
0000
0000
,
00M0
0000
0000
0000
0000
0000
0000
0000
000M
0000
0000
0000
00M0
0000
0000
0000
0000
0000
0000
0000
0000
0000
0000
0000
3311
0000
0000
0000
0000
0000
0000
0000
0000
0000
0000
0000
1000
0000
0000
0100
0000
0000
0010
0000
0000
0001
0000
0000
,
0010
0100
1000
0100
1000
0100
0010
0001
1000
0100
0010
0100
1000
0100
1000
0001
,
0010
0001
1000
0010
0202
0000
0000
0303
2020
0000
0000
3030
0100
0010
0100
1000
,
0100
1000
0100
0010
0001
0010
0100
1000
0100
1000
0010
0100
0010
0100
2002
0000
,
0000
3003
0000
0000
0110
0000
1100
0000
1112
0000
0003
0000
1000
0100
1000
0100
,
1000
0100
0010
0100
0010
1000
0010
1000
0100
0010
0100
1000
0010
1000
0010
1000
,
0100
0010
0101
0000
0110
0000
1100
0000
0011
1000
0100
0010
0001
1000
0100
1000
,
0001
0010
0100
1000
0001
0010
0001
1000
0100
1000
0100
0010
0100
0001
0010
0001
,
1000
0100
0010
0001
2100
0000
3000
0000
0120
0000
1030
0000
0001
0000
1000
0100
,
0000
0001
0010
0000
2000
3000
0002
0003
1000
0000
0001
0000
1000
0000
0001
0010
,
0000
0010
0001
0000
2000
3000
0002
0003
0100
0000
0100
0000
0010
0000
1000
0001
,
0000
0001
1000
0000
0100
0000
0010
0000
1001
0000
0000
0000
1000
0000
0001
0000
,
1000
0001
1000
0001
0010
1000
0010
0001
1000
0000
0001
0000
1000
0000
0001
0100
,
0000
0100
0001
0000
2000
3000
0002
0003
0100
0000
0010
0000
0001
0000
0001
0010
,
0000
0010
0100
0000
2000
3000
0002
0003
0100
0000
0010
0000
0100
0000
0001
0010
,
0000
0100
0001
0000
0020
0030
0200
0300
1000
0000
0010
0000
1000
0000
0001
0010
,
0000
0010
0100
0000
0200
0000
0020
0000
1330
0000
1000
0000
1000
0000
0010
1000
,
0000
0100
1000
0000
0002
0003
2000
3000
0010
0000
1000
0000
0001
0000
0100
0010
,
0000
0100
1000
0000
0002
0003
2000
3000
0010
0000
0001
0000
0010
0000
0001
1000
,
0000
1000
0010
0000
0200
0300
0002
0003
1000
0000
0010
0000
0100
0000
0001
1000
,
0000
0010
0100
0000
2000
3000
0200
0300
0001
0000
0010
0000
0100
0000
1000
0100
,
0000
0010
0001
0000
0020
0030
0200
0300
0001
0000
1000
0000
0100
0000
0001
0100
,
0000
0001
0100
0000
0002
0003
2000
3000
0100
0000
0010
0000
0100
0000
1000
0100
,
0000
0010
0100
0000
1000
0000
0100
0001
0000
0010
0000
0000
0001
0100
0010
0100
,
0001
1000
0010
1000
M22M
0330
4400
0000
0000
0000
0000
0000
00M0
0000
0000
0000
,
0000
0000
0000
0001
0000
0000
3300
0000
MM00
0044
0000
0000
0M00
0000
0000
0000
M000
0000
0000
0000
0000
0000
0000
0000
,
0000
1033
M0MM
4400
0000
0000
0000
0000
,
0000
0000
0000
0011
0000
0000
33M0
0000
MM00
4004
0000
0000
0000
0000
0000
0000
0000
0000
00M0
0000
0000
0000
0000
0000
,
0M00
0000
0000
0100
0000
0000
3003
0000
M00M
0440
0000
0000
0000
0000
0000
0000
0000
0000
0000
0000
0000
0000
0000
0000
,
0000
0000
0000
1001
0000
0000
0330
0000
0MM0
4040
0000
0000
0000
0000
0000
0000
0000
0000
0000
0000
0000
0000
0000
0000
,
0000
0000
0000
0100
0000
0000
3030
0000
M0M0
0404
0000
0000
0000
0000
0000
0000
00M0
0000
0000
0000
0000
0000
M000
0000
,
0000
0000
0000
1000
00M0
0000
0303
0000
0M0M
4004
0000
0000
0000
0000
0000
0000
0M00
0000
0000
0000
0000
0000
00M0
0000
,
0000
0000
0000
0000
0000
0000
0010
0000
0M00
0000
0000
0000
3003
0000
0000
0000
M00M
0000
1001
0000
0000
0000
0000
0000
0100
0000
0000
0010
0000
0000
0100
0000
0000
1000
0000
0000
0100
0000
0000
1000
0000
0000
0100
0000
0000
0010
0000
0000
,
0100
1000
0010
0100
1000
0100
0010
0100
1000
0100
0001
0010
0100
1000
0001
0010
,
0100
0000
0000
1000
0000
0000
0100
0000
0000
1000
0000
0000
0100
0000
0000
0010
0000
0000
0044
0000
0000
0000
0000
0000
0000
0000
0000
0000
0000
0000
0000
0000
M000
0000
0000
0000
0000
0000
0000
0000
0000
0000
0000
0000
0M00
0000
0000
0000
,
0000
0000
0000
0100
M000
0000
0033
0000
00MM
4400
0000
0000
0000
0000
0000
0000
0000
0000
0000
0000
0000
0000
0000
0000
,
0000
0000
0011
0000
3300
0000
1001
0000
0100
0010
1000
0001
0010
0100
1000
0100
,
0010
0000
0000
0001
0000
0000
0010
0000
0000
0100
0000
0000
1000
0000
0000
0100
0000
0000
2000
0000
0000
0000
0000
0000
0000
0000
0000
0000
00M0
0000
0100
0000
0000
0000
0000
0000
0000
0000
0000
0000
0MM0
0000
0002
0000
0000
0000
0000
0000
,
3000
0000
0000
0100
0000
0000
00M0
0000
0000
2000
0000
0000
0M03
0000
0000
0010
0000
0000
0000
0000
0000
0002
0M00
0000
,
0000
0000
00M0
3100
0000
0000
0000
0000
0M00
2000
0000
0000
0003
0000
0000
3001
0000
0000
0000
0000
0000
0400
0000
0000
,
0000
0000
0000
0040
0000
0000
M000
0000
0000
0000
000M
0000
0000
0000
0000
0000
0000
0000
0000
0000
0000
0000
0000
0000
,
M000
0000
000M
0000
0000
0000
M000
0000
0330
0000
0MM0
000M
0000
0M00
0000
M000
,
0000
00M0
0000
0000
0000
0000
0000
0000
;

//---------------dance-single - Blank----------------
#NOTES:
     dance-single:
     Blank:
     Hard:
     10:
     0.641,0.747,0.679,0.664,0.245,414.000,93.000,91.000,65.000,36.000:






0000
0000
0000
0000
,
0000
0000
0000
0000
,
0000
0000
0000
0000
,
0000
0000
1020
0130
,
1002
0013
0210
0310
,
0012
1003
0210
0301
,
0021
1030
0002
0013
,
2001
3020
0132
0103
,
2010
3100
0120
0031
,
2001
3100
0021
0130
,
2010
3001
0120
1030
,
2100
3100
0110
1001
,
1100
0110
0011
0110
,
1100
0000
0001
1000
0001
0000
1001
0000
,
0110
1100
1001
1010
,
0110
0000
0001
0100
0010
0000
1100
0000
,
0110
0011
2000
0MMM
,
3200
M0MM
0320
MM0M
,
0032
0000
0000
MMM0
0000
0000
2003
0000
0000
0MMM
0000
3000
,
4004
0000
0000
0000
0000
0000
0000
3003
0440
0000
0000
0000
0000
0000
0000
0000
,
0000
0330
4400
0000
,
0000
3300
0440
0000
,
0000
0330
4004
0000
,
0000
3003
0404
0000
,
0000
0303
4004
0000
,
0000
3003
0404
0000
,
0000
0303
4040
0000
,
0000
3030
0004
1000
,
0010
1003
4000
0001
,
0010
3001
0400
0010
,
1000
0301
0040
1000
,
0100
0031
0400
0010
,
0001
0310
4000
0100
,
0001
3010
0400
1000
,
0010
0000
0000
0000
0000
0000
1300
0000
0000
0000
0000
0000
0010
0000
0000
0000
0000
0000
M000
0000
000M
0M00
0000
0000
,
20M0
0000
0002
0000
3103
0010
1000
0100
,
0001
0100
1000
0100
0010
0100
1000
0100
,
1000
0100
0001
0100
0001
1000
0010
0100
,
2000
3100
0010
0001
0200
0310
1000
0100
,
0002
0013
0100
0010
2000
3100
0010
0100
,
2000
3100
0010
0100
0020
0130
0001
0020
,
0130
1000
0100
2000
3100
0010
0001
0200
,
0310
0002
0013
0020
4034
0000
0000
0000
,
0000
0000
0000
0000
3003
0000
0000
0000
1111
0000
0001
1000
0100
0010
0001
0000
,
0010
0100
1000
0100
1000
0100
0010
0100
,
1000
0000
0100
0000
1011
0000
0000
0000
1101
0000
0000
0000
0010
0100
0010
0000
,
1000
0100
0010
0001
0010
0100
1000
0101
,
0000
0000
0000
0000
1100
0000
0110
0000
1111
0000
0000
0000
1000
0100
0010
0000
,
0100
0010
1000
0100
1000
0100
0010
0100
,
1000
0000
0110
0000
0011
0000
1100
0000
0110
0000
0000
0000
1000
0100
0010
0001
,
0100
1000
0100
1000
0100
0010
0100
0010
,
0001
0000
0010
0000
1MM1
0000
0000
0000
M21M
0000
0320
0000
0032
0000
1003
0100
,
0000
0010
0001
0000
2000
0000
3200
0000
0310
0000
0100
0000
0010
0000
1000
0100
,
0000
1000
0010
0000
0200
0000
0302
0000
2013
0000
3100
0000
0010
0000
0100
0010
,
0000
0000
0000
0000
0000
0000
0000
0000
0000
0000
0000
0000
0010
0000
0000
0000
0000
0000
0000
0000
0000
0000
0000
0000
0100
0000
0000
0000
0000
0000
0000
0000
0000
0000
0000
0000
0000
0000
0000
0000
0000
0000
0000
0000
0000
0000
0000
0000
0002
0000
0000
0000
0000
0000
0000
0000
0000
0000
0000
0000
0000
0000
0000
0000
0000
0000
0000
0000
0000
0000
0000
0000
2003
0000
0000
0000
0000
0000
0000
0000
0000
0000
0000
0000
0000
0000
0000
0000
0000
0000
0000
0000
0000
0000
0000
0000
3000
0000
0000
0000
0000
0000
0000
0000
0000
0000
0000
0000
0000
0000
0000
0000
00M0
0000
0000
0000
0000
0000
0000
0000
0M00
0000
0000
0000
0000
0000
0000
0000
M000
0000
0000
0000
000M
0000
0000
00M0
0M00
0000
0000
0000
0000
0000
0000
0000
1001
0000
0000
0000
0000
0000
0000
0000
0000
0000
0000
0000
0000
0000
0000
0000
0000
0000
0000
0000
0000
0000
0000
0000
0110
0000
0000
0000
0000
0000
0000
0000
0000
0000
0000
0000
0000
0000
0000
0000
0000
0000
0000
0000
0000
0000
0000
0000
,
1000
0100
0010
0001
0010
0100
1000
0010
1001
0000
0100
0000
0010
0000
0001
0010
,
0000
0100
1000
0000
0020
0030
0200
0300
1000
0000
0001
0000
1000
0000
0010
0100
,
0000
0001
0010
0000
2000
0000
3002
0000
1003
0000
0010
0000
1000
0000
0100
0010
,
0000
0010
0100
0000
2000
0000
3002
0000
0103
0000
0010
0000
0100
0000
1000
0100
,
0000
0010
0001
0000
0000
0M0M
M0M0
0M0M
1000
0000
0100
0000
0010
0000
1000
0100
,
0000
1000
0100
0000
0020
0000
0230
0000
0310
0000
0001
0000
0010
0000
0100
1000
,
0000
0010
0001
0000
0020
0000
2030
0000
3100
0000
0010
0000
0001
0000
0001
0010
,
0000
0010
0001
0000
0020
0000
0230
0000
1300
0000
0001
0000
1000
0000
0010
0100
,
0000
0001
0010
0000
0200
0000
0320
0000
1030
0000
0010
0000
0100
0000
0001
0100
,
0000
0100
0010
0000
0002
0000
0203
0000
1300
0000
0010
0000
0001
0000
0100
0010
,
0000
0001
1000
0000
0020
0000
0230
0000
0301
0000
1000
0000
0100
0000
0010
0001
,
0000
0100
0010
0000
0200
0000
0301
0010
0000
0100
0000
0000
1000
0100
0010
0001
,
0010
0100
1000
0100
MMMM
0000
2000
0000
0000
0000
0100
0000
0000
0000
0010
0000
,
0000
0100
3000
0002
0000
0100
0000
1000
,
0000
0013
0000
2000
0000
0100
0000
0010
,
0000
0100
3000
0002
0000
0100
0000
0010
,
0000
1003
0000
2002
0000
0100
0000
0010
,
0000
0110
3003
0220
0000
1000
0000
0001
,
0000
1001
0330
2200
0000
0001
0000
0010
,
0000
0011
3300
0022
0000
0100
0000
1000
,
0000
0000
1100
0000
0033
0000
2002
0M00
0000
0000
0100
00M0
0000
0000
0M10
0000
,
0000
0000
0000
0110
0000
0000
3003
0000
0000
0022
0M00
0000
0000
0000
M000
0100
0000
0000
0000
0000
0M00
1000
0000
0000
,
0000
0000
1100
0000
M033
0000
2002
0M00
0000
00M0
0100
0000
0000
00M0
0100
0000
,
0000
0000
0000
0110
0000
0000
3003
0000
0000
0220
000M
0000
M000
0000
0000
1000
000M
0000
0000
0000
0000
0001
M000
0000
,
0000
0000
1001
0000
M33M
0000
2200
0000
3300
0000
0010
0001
0010
0000
1000
0100
,
1000
0000
0100
0010
0100
0000
1020
0000
0000
0000
1001
0000
0030
0000
0120
0000
,
0000
1100
0030
0102
0000
1010
0003
2001
,
0000
0110
3000
0120
0000
1001
0030
4000
,
0000
0004
00M0
0000
0000
0M00
0000
00M0
,
0000
3003
0M00
M000
000M
00M0
0000
0M00
,
00M0
000M
0000
0000
;

//---------------dance-single - Blank----------------
#NOTES:
     dance-single:
     Blank:
     Medium:
     8:
     0.633,0.658,0.496,0.679,0.066,439.000,68.000,93.000,22.000,54.000:



0000
0000
0000
0000
,
0000
0000
0000
0000
,
0000
0000
0000
0000
,
0000
0000
2010
3010
,
0201
0310
0102
0013
,
2010
3100
0021
0130
,
1020
0130
0210
0301
,
2000
3002
0213
0310
,
0021
0031
2001
3100
,
1002
0013
2001
3100
,
1002
0013
1002
0103
,
0020
0230
1310
0100
,
0011
0010
1100
0100
,
0110
0000
0001
1000
0100
0000
0001
0000
,
0110
0001
1100
0100
,
0011
0000
0010
1000
0100
0000
1100
0000
,
0100
0110
1002
1103
,
0012
0113
2010
3010
,
0120
0031
2100
3010
,
4004
0000
3203
0010
,
0001
0310
0002
0100
,
0010
0103
2000
0100
,
0010
3010
0200
0010
,
0010
1301
0002
0010
,
0100
1003
2000
0100
,
0010
3001
0200
0010
,
1000
0310
0020
0100
,
0001
0130
2002
0100
,
0010
3103
2200
0010
,
0001
3310
0220
0001
,
1000
0331
0022
0100
,
1000
0133
2002
0100
,
0010
3013
0220
1000
,
1000
0331
2200
0010
,
0001
3301
0022
0100
,
2000
0000
0233
0000
3310
0001
0010
0100
,
1000
0000
0100
0000
0010
0001
0010
0000
0001
0000
0100
0000
0010
0000
1000
0000
,
0100
0000
0010
0000
0001
0100
0010
0000
0100
0000
0010
0000
0001
0000
0010
0000
,
0100
0000
1000
0000
0100
0010
0100
0000
0001
0000
0010
0000
0100
0000
1000
0000
,
0100
0000
0010
0000
0001
1000
0001
0000
0100
0000
0010
0000
0100
0000
0010
0000
,
0001
0000
0010
0000
0100
1000
0100
0000
0010
0000
0100
0000
0010
0000
0001
0000
,
0010
0000
0100
0000
0010
0100
0010
0000
1000
0000
0100
0000
0001
0000
0010
0000
,
0100
0000
0010
0000
1000
0001
1000
0000
4004
0000
0000
0000
0000
0000
0000
0000
,
0000
0000
3003
0000
1001
0100
0010
0100
,
1000
0100
0010
0001
0010
0100
1000
0100
,
0001
0010
1100
0000
0011
0000
0100
0010
,
0100
0000
1000
0000
0100
0000
1000
0000
0100
0000
0010
0000
1000
0000
0110
000M
,
M000
0M00
00M0
M000
0011
0000
1100
0000
0110
0000
1000
0000
0100
0000
1000
0000
,
0010
1000
0001
1000
0100
1000
0010
1000
,
0100
1100
0011
1100
0110
1000
0100
0010
,
0001
1000
0100
0010
0001
1000
0100
0010
,
0100
1000
0110
0010
1001
0100
0010
1000
,
0100
0010
0100
2000
3100
0010
0100
1000
,
0100
0010
0001
0020
0130
1000
0100
0010
,
0100
0000
0000
0010
0000
0000
0100
0000
0000
0020
0000
0000
1030
0000
0000
0000
0000
0000
M0M0
0000
000M
0M00
0000
0000
,
M0M0
0000
000M
0M00
0000
0000
M0M0
0000
0000
0000
0000
0000
0100
0000
0000
0010
0000
0000
0100
0000
0000
0010
0000
0000
,
1000
0100
0010
0200
0310
0010
0100
0100
,
1000
1000
0100
0020
0031
0001
0010
0100
,
0010
0010
0100
2000
3010
0010
0100
1000
,
1000
0100
0010
0002
0103
0100
0010
0010
,
0001
0001
1000
2000
3100
0010
0100
1000
,
0100
0010
0001
0200
0310
0100
1000
0100
,
0010
0100
0010
0002
0013
0100
0010
0001
,
1000
0010
0002
2003
3001
0100
1000
0100
,
0010
0100
0001
2000
3100
0001
0010
0001
,
0010
1000
0010
0200
0310
0001
0010
1000
,
0100
0000
0001
0000
0010
0000
2000
0010
3000
0001
0000
0000
1000
0100
1000
0100
,
1000
0100
1000
0100
1001
0000
2000
0000
0000
0000
0001
0000
0000
0000
0010
0000
,
0000
0001
0000
3002
0000
0010
0000
0100
,
0000
0010
0000
2003
0000
0100
0000
0001
,
0000
0010
0000
3002
0000
0100
0000
1000
,
0000
0010
0000
0023
0000
1000
0000
0001
,
0000
0100
0000
0230
0000
1000
0000
0001
,
0000
1000
0000
0302
0000
1000
0000
0100
,
0000
1000
0000
2003
0000
0010
0000
0100
,
0000
0010
0000
3220
0000
1000
0000
0001
,
0000
1001
0000
2332
0000
0103
0000
0002
,
0000
0010
0003
3202
0000
0010
0300
0200
,
0000
0010
0000
2323
0000
0100
0000
0001
,
0000
0101
0000
3232
0000
0010
0300
0200
,
0000
1000
0000
2303
0000
0011
3000
0002
,
0000
0110
0003
2000
0000
0111
3000
0020
,
0000
1101
0030
0200
0000
1011
0300
1221
,
0030
0020
0000
0000
0000
M000
0000
0000
,
0000
000M
0000
0000
0330
0000
M000
0000
,
0M00
0000
0000
M000
000M
0000
0000
00M0
;

//---------------dance-single - Blank----------------
#NOTES:
     dance-single:
     Blank:
     Easy:
     4:
     0.336,0.431,0.263,0.248,0.000,225.000,36.000,34.000,0.000,2.000:

0000
0000
0000
0000
,
0000
0000
0000
0000
,
0000
0000
0000
0000
,
0000
0000
0200
0310
,
0002
0013
2000
3100
,
0020
0130
0020
0031
,
0020
1030
0020
0130
,
0002
2003
3200
0310
,
0002
0013
0200
1300
,
0020
0130
2000
3010
,
0002
1003
0200
0301
,
2000
3002
1003
0100
,
0010
0100
0010
1000
,
0100
0001
0010
0100
,
0010
0001
0010
0100
,
1000
0100
0010
0100
,
0010
0001
2000
0000
,
3002
0000
0203
0000
,
0320
0000
2032
0000
,
3443
0000
4334
0000
,
0000
3003
4400
0000
,
0000
3300
0044
0000
,
0000
0033
0440
0000
,
0000
0330
4040
0000
,
0000
3030
0404
0000
,
0000
0303
4004
0000
,
0000
3003
0440
0000
,
0000
0330
4400
0000
,
0000
3300
0440
0000
,
0000
0330
0044
0000
,
0000
0033
4040
0000
,
0000
3030
0404
0000
,
0000
0303
4004
0000
,
0000
3003
0440
0000
,
0000
0330
4400
0000
,
3320
0032
1003
0100
,
1000
0010
0100
0001
,
0010
2000
3100
0010
,
0100
0001
1000
0100
,
0010
0000
0100
0010
0100
0000
1000
0000
,
0100
0010
0001
0100
,
1000
0100
0010
0100
,
1000
0100
4004
0000
,
0000
3003
0110
0100
,
0010
0100
0001
0010
,
0100
0000
1000
0001
1000
0000
0100
0000
,
0010
0100
1000
0100
,
0010
0000
1000
0001
0100
0000
0010
0000
,
1000
0010
1000
0001
,
0010
1000
0100
0010
0001
0000
1000
0000
,
0100
0010
0100
0010
,
1000
0011
1100
0100
,
0010
0000
0100
0010
0100
0000
0010
0000
,
0001
0000
1000
0001
1000
0000
0010
0000
,
0100
0000
0001
0010
0001
0000
0100
0000
,
1000
0000
0100
0010
0100
0000
0010
0000
,
0001
0000
1000
0100
0010
0000
0100
0000
,
0010
0000
0001
0010
0100
0000
0100
0000
,
0010
0000
1000
0010
0100
0000
0010
0000
,
1000
0000
0001
1000
0001
0000
1000
0000
,
0100
0010
0100
0010
,
0100
1000
0100
0100
,
0010
0001
0010
0010
,
1000
0001
0010
0100
,
1000
0100
0010
0001
,
0010
0100
1000
0100
,
0010
0000
0001
1000
0001
0000
0001
0100
,
0001
0000
1001
4040
0000
0000
0000
0000
,
0000
3030
0000
0044
0000
0000
0000
0000
,
0000
0033
0000
4040
0000
0000
0000
0000
,
0000
3030
0000
0404
0000
0000
0000
0000
,
0000
0303
0000
4004
0000
0000
0000
0000
,
0000
3003
0000
0440
0000
0000
0000
0000
,
0000
0330
0000
4400
0000
0000
0000
0000
,
0000
3300
0000
0404
0000
0000
0000
0000
,
0000
0303
0000
1001
0000
0010
0100
0010
,
0000
1000
0000
0110
0000
0010
0100
0010
,
0000
0001
0000
1010
0000
0010
0100
0010
,
0000
0001
0000
2000
0000
0000
0000
0002
,
0000
0000
0000
3113
0000
0100
1000
0100
,
0000
0010
0000
0002
0000
0000
0003
2000
,
0000
0000
0000
3002
0000
0000
0000
0023
,
0000
0000
0030
0200
0000
0000
0000
4304
,
0000
0000
0000
0000
,
0000
0000
0000
3003
0000
0000
0000
0000
;
