#TITLE:Snake Shake;
#SUBTITLE:(Neb Mix);
#ARTIST:Nebyoolae;
#TITLETRANSLIT:;
#SUBTITLETRANSLIT:;
#ARTISTTRANSLIT:;
#CREDIT:;
#BANNER:snakeshake-banner.png;
#BACKGROUND:snakeshake-bg.png;
#LYRICSPATH:;
#CDTITLE:;
#MUSIC:snakeshake.mp3;
#OFFSET:-0.130;
#SAMPLESTART:20.850;
#SAMPLELENGTH:14.980;
#SELECTABLE:YES;
#BPMS:0.000=120.200;
#STOPS:;
#BGCHANGES:;
// cache tags:
#FIRSTBEAT:8.000;
#LASTBEAT:197.500;
#SONGFILENAME:Songs/StepMix 1/SnakeShake/snakeshake.sm;
#HASMUSIC:1;
#HASBANNER:1;
#MUSICLENGTH:101.485;
// end cache tags

//---------------dance-single - ----------------
#NOTES:
     dance-single:
     :
     Easy:
     3:
     0.184,0.234,0.148,0.039,0.000,112.000,15.000,4.000,0.000,0.000:  // measure 1
0000
0000
0000
0000
,  // measure 2
0000
0000
0000
0000
,  // measure 3
1000
0000
0000
0000
,  // measure 4
0100
0000
0000
0000
,  // measure 5
0010
0000
0000
0000
,  // measure 6
0001
0000
0000
0000
,  // measure 7
0100
0000
0000
0000
,  // measure 8
0010
0000
0000
0000
,  // measure 9
1000
0000
0000
0000
,  // measure 10
0001
0000
0000
0000
,  // measure 11
2002
0000
0000
0000
,  // measure 12
0000
0000
3003
0000
,  // measure 13
1000
0100
0000
0100
,  // measure 14
0000
0010
0001
0010
,  // measure 15
0100
0001
0000
0001
,  // measure 16
0000
1000
1000
0001
,  // measure 17
1000
0010
0000
0010
,  // measure 18
0000
0100
0010
0100
,  // measure 19
0010
0010
0000
0001
,  // measure 20
0000
0001
0010
1000
,  // measure 21
2002
0000
0000
0000
,  // measure 22
0000
0000
0000
3003
,  // measure 23
1000
0001
0000
0001
,  // measure 24
1000
0000
0000
0000
,  // measure 25
0100
0010
0000
0010
,  // measure 26
0100
0000
0000
0000
,  // measure 27
0001
1000
0000
1000
,  // measure 28
0001
0000
0000
0000
,  // measure 29
0010
0100
0000
0100
,  // measure 30
0010
0000
0000
0100
,  // measure 31
1001
0000
0110
0000
,  // measure 32
1001
0000
0110
0000
,  // measure 33
1001
0000
0110
0000
,  // measure 34
1001
0000
0110
0000
,  // measure 35
1001
0000
0110
0000
,  // measure 36
1100
0000
0011
0000
,  // measure 37
1000
1000
1000
1000
,  // measure 38
0001
0001
0001
0001
,  // measure 39
1000
0100
0001
0100
,  // measure 40
1000
0010
0001
0010
,  // measure 41
1000
0010
0001
0010
,  // measure 42
1000
0100
0001
0100
,  // measure 43
0001
1000
0001
1000
,  // measure 44
0010
0010
0100
0100
,  // measure 45
0001
0010
0001
0010
,  // measure 46
1000
0100
1000
0100
,  // measure 47
0010
0000
0010
0000
0010
0010
0100
0000
,  // measure 48
0100
0000
0100
0100
1001
0000
0000
0000
;

//---------------dance-single - ----------------
#NOTES:
     dance-single:
     :
     Medium:
     6:
     0.327,0.487,0.227,0.059,0.010,203.000,23.000,6.000,0.000,0.000:  // measure 1
0000
0000
0000
0000
,  // measure 2
0000
0000
0000
0000
,  // measure 3
1000
0000
0000
0000
0000
0000
0000
0100
,  // measure 4
0100
0000
0000
0000
,  // measure 5
0010
0000
0000
0000
0000
0000
0000
0001
,  // measure 6
0001
0000
0000
0000
,  // measure 7
0100
0000
0000
0000
0000
0000
0000
0010
,  // measure 8
0010
0000
0000
0000
,  // measure 9
1000
0000
0000
0000
0000
0000
0000
0001
,  // measure 10
0001
0000
0000
0000
,  // measure 11
2002
0000
0000
0000
,  // measure 12
0000
0000
3003
0000
,  // measure 13
1000
0000
0100
0000
0000
0100
0100
0000
,  // measure 14
0000
0000
0010
0000
0001
0000
0010
0001
,  // measure 15
0100
0000
0001
0000
0000
0001
0001
0000
,  // measure 16
0000
0000
1000
0000
1000
0000
0001
1000
,  // measure 17
0001
0000
0010
0000
0000
0010
0010
0000
,  // measure 18
0000
0000
0100
0000
0010
0001
0100
1000
,  // measure 19
0010
0000
0010
0000
0000
0001
0001
0000
,  // measure 20
0000
0000
0001
0000
0010
0001
1000
0001
,  // measure 21
2002
0000
0000
0000
,  // measure 22
0000
0000
0000
3003
,  // measure 23
1001
0001
1001
1000
,  // measure 24
1001
0001
1001
1000
,  // measure 25
0110
0010
0110
0100
,  // measure 26
0110
0001
0110
1000
,  // measure 27
0001
1000
0000
1000
,  // measure 28
0001
1000
0001
0000
1000
0001
1000
0000
,  // measure 29
0010
0001
0100
1000
0001
0010
0100
1000
,  // measure 30
0110
0011
1010
1100
,  // measure 31
1001
1001
1001
0000
0010
0001
0010
1000
,  // measure 32
0100
0010
1000
0001
0010
0100
1000
0100
,  // measure 33
1001
1001
1001
0000
1000
0001
0010
1000
,  // measure 34
0100
1000
0001
0010
0100
0001
1000
0010
,  // measure 35
1001
1000
1000
0000
1001
0001
0001
0000
,  // measure 36
1000
0100
0001
0010
1000
0001
1000
0001
,  // measure 37
1000
1000
1000
1000
1000
1000
1000
1000
,  // measure 38
0001
0001
0001
0001
0001
0001
0001
0001
,  // measure 39
1000
0001
0100
0000
0001
1000
0100
0000
,  // measure 40
0010
0001
0010
0000
0010
1000
0010
0000
,  // measure 41
1000
0100
0001
0000
0001
0010
1000
0000
,  // measure 42
0100
0010
0100
0000
0010
0100
0010
0000
,  // measure 43
0001
1000
0001
0000
1000
0001
1000
0000
,  // measure 44
0010
0100
0001
0000
0100
0010
1000
0000
,  // measure 45
0001
0001
0010
0000
0010
0010
0010
0000
,  // measure 46
1000
1000
0100
0000
1000
0000
0100
0000
,  // measure 47
0010
0000
0000
0000
0000
0010
0000
0000
0000
0000
0000
0000
0010
0000
0000
0000
0010
0000
0000
0000
0010
0000
0000
0000
0100
0000
0000
0000
0000
0100
0000
0000
,  // measure 48
0000
0100
0100
0100
2002
0000
0000
0000
,  // measure 49
0000
0000
0000
0000
,  // measure 50
0000
0000
0000
3003
0000
0000
0000
0000
;

//---------------dance-single - ----------------
#NOTES:
     dance-single:
     :
     Hard:
     8:
     0.514,0.705,0.473,0.128,0.434,304.000,48.000,13.000,0.000,0.000:  // measure 1
0000
0000
0000
0000
,  // measure 2
0000
0000
0000
0000
,  // measure 3
1000
2000
0000
0000
0000
0000
0000
0000
0000
0000
0000
0000
3000
0000
0100
0000
,  // measure 4
0100
0200
0000
0000
0000
0000
0000
0000
0000
0000
0000
0000
0000
0000
0300
0000
,  // measure 5
0010
0020
0000
0000
0000
0000
0000
0000
0000
0000
0000
0000
0030
0000
0001
0000
,  // measure 6
0001
0002
0000
0000
0000
0000
0000
0000
0000
0000
0000
0000
0000
0000
0003
0000
,  // measure 7
1100
1100
0000
0000
0000
0000
0000
0000
1001
0000
0000
0000
0000
0000
0110
0000
,  // measure 8
0110
0110
0000
0000
0000
0000
0000
0000
1001
0000
0000
0000
0000
0000
0000
0000
,  // measure 9
1010
1010
0000
0000
0000
0000
0000
0000
1001
0000
0000
0000
0000
0000
0101
0000
,  // measure 10
0101
0101
0000
0000
0000
0000
0000
0000
1001
0000
0000
0000
0000
0000
0000
0000
,  // measure 11
2000
0010
0001
0010
,  // measure 12
0100
0010
0001
3000
,  // measure 13
1000
0010
0100
0001
0000
1000
0000
0000
0100
0000
0010
0000
1000
0010
0100
0001
,  // measure 14
0000
1000
0000
0000
0010
0000
0100
0000
0001
0000
1000
0000
0010
0000
0001
0000
,  // measure 15
1000
0010
0100
0001
0000
1000
0000
0000
0010
0000
0100
0000
1000
0010
0100
0001
,  // measure 16
0000
1000
0000
0000
0010
0000
0100
0000
1000
0000
0100
0000
0001
0000
0100
0000
,  // measure 17
0001
0100
0010
1000
0000
0001
0000
0000
0100
0000
0010
0000
0001
0100
0010
1000
,  // measure 18
0000
0001
0000
0000
0100
0000
1000
0000
0010
0000
0001
0000
0100
0000
1000
0000
,  // measure 19
0001
0100
0010
1000
0000
0001
0000
0000
1000
0000
0100
0000
0001
0100
0010
1000
,  // measure 20
0000
0001
0000
0000
0100
0000
1000
0000
0010
0000
0001
0000
1000
0000
0100
0000
,  // measure 21
2002
0000
0000
0000
,  // measure 22
0000
0000
0000
0000
0000
0000
0000
0000
0000
0000
0000
0000
3003
0000
0000
0001
,  // measure 23
1000
0100
1000
0100
1000
0100
1000
0000
0000
0000
1010
0000
1001
0000
0000
1000
,  // measure 24
0001
0100
0001
0100
0001
0100
0001
0000
0000
0000
1001
0000
0101
0000
0000
0010
,  // measure 25
0100
0010
0100
0010
0100
0010
0100
0000
0000
0000
0101
0000
0110
0000
0000
0100
,  // measure 26
0010
0100
0010
0100
0010
0100
0010
0000
0000
0000
0110
0000
0011
0000
0000
0000
,  // measure 27
1000
0001
0100
0000
0010
0100
0001
0000
,  // measure 28
0010
0001
0100
0000
1000
0010
0100
0000
,  // measure 29
0110
0001
0010
0000
1001
0100
0010
0000
,  // measure 30
0110
0001
0100
0000
1001
0100
0010
0000
,  // measure 31
1001
1001
0000
0000
1000
0000
0110
0000
0000
0000
1000
0000
0110
0000
0000
0000
,  // measure 32
1001
1001
0000
0000
1001
1001
0000
0000
1000
0000
0100
0000
0010
0000
0000
0000
,  // measure 33
1001
1001
0000
0000
0010
0000
1001
0000
0000
0000
0100
0000
0011
0000
0000
0000
,  // measure 34
1001
1010
0000
0000
1001
0101
0000
0000
0100
0000
0010
0000
0100
0000
0000
0000
,  // measure 35
0100
1000
0100
0000
0100
0001
0100
0000
0100
1000
0100
0000
0100
0001
0100
0000
,  // measure 36
1000
0001
1000
0001
1000
0001
1000
0001
1010
0000
0110
0000
0101
0000
0110
0000
,  // measure 37
2000
0001
0010
0100
,  // measure 38
3002
1000
0100
0010
,  // measure 39
2003
0100
0001
0100
0100
0001
0100
0100
,  // measure 40
3002
0010
1000
0010
0010
1000
0010
0010
,  // measure 41
1003
0010
0100
0001
0000
1000
0000
0000
0010
0000
0100
0000
1000
0010
0100
0001
,  // measure 42
0000
1000
0000
0000
0010
0000
0100
0000
0001
0000
1000
0000
0100
0000
0010
0000
,  // measure 43
0001
0100
0010
1000
0000
0001
0000
0000
0010
0000
0100
0000
0001
0100
0010
1000
,  // measure 44
0000
0001
0000
0000
0010
0000
0000
0000
1000
0000
0000
0000
0000
0000
0000
0000
,  // measure 45
1000
1000
0000
1000
0000
0000
0000
0000
0001
0001
0000
0001
0000
0000
0000
0000
,  // measure 46
0010
0010
0000
0010
0000
0000
0000
0000
1000
0010
0100
0001
1000
0010
0100
0001
,  // measure 47
1000
0000
0000
0000
0001
0000
0000
0000
1000
0010
0000
0000
0100
0000
0000
0010
0000
0000
0100
0000
0000
0000
0001
0000
,  // measure 48
0000
0000
1000
0010
0000
0000
1000
0000
0000
0100
0000
0000
2002
0000
0000
0000
0000
0000
0000
0000
0000
0000
0000
0000
,  // measure 49
0000
0000
0000
0000
,  // measure 50
0000
0000
0000
3003
0000
0000
0000
0000
;
