#TITLE:Sister Princess;
#SUBTITLE:- Love Destiny;
#ARTIST:堀江由衣;
#TITLETRANSLIT:;
#SUBTITLETRANSLIT:;
#ARTISTTRANSLIT:Yui Horie;
#CREDIT:Anime Toshokan;
#BANNER:Sister Princess - Love Destiny.png;
#BACKGROUND:Sister Princess - Love Destiny bg.png;
#LYRICSPATH:;
#CDTITLE:dejiko.png;
#MUSIC:Sister Princess - Love Destiny.mp3;
#OFFSET:2.270;
#SAMPLESTART:57.270;
#SAMPLELENGTH:13.720;
#SELECTABLE:YES;
#DISPLAYBPM:140.000;
#BPMS:0.000=140.130,44.000=139.930,96.000=140.000;
#STOPS:;
#BGCHANGES:23.000=Sister Princess - Love Destiny.avi=1.000=0=0=1,
204.000=Sister Princess - Love Destiny bg.png=1.000=0=0=1,
99999=-nosongbg-=1.000=0=0=0 // don't automatically add -songbackground-
;
// cache tags:
#FIRSTBEAT:8.000;
#LASTBEAT:212.000;
#SONGFILENAME:Songs/Anime Mix 1/Sister Princess - Love Destiny/Sister Princess - Love Destiny.sm;
#HASMUSIC:1;
#HASBANNER:1;
#MUSICLENGTH:93.570;
// end cache tags

//---------------dance-single - BASIC----------------
#NOTES:
     dance-single:
     BASIC:
     Easy:
     1:
     0.081,0.085,0.000,0.000,0.000,53.000,0.000,0.000,0.000,0.000:
0000
0000
0000
0000
,
0000
0000
0000
0000
,
0000
0001
0000
0000
,
0000
1000
0000
0000
,
0000
0001
0000
0000
,
0000
1000
0000
0001
,
0000
0000
0000
0010
,
0000
0000
0000
0010
,
0000
0000
0000
0100
,
0000
0000
0000
0001
,
0000
0000
0000
0010
,
0000
0000
0000
1000
,
0000
0000
0000
0001
,
0000
0000
0000
0100
,
0000
0000
0000
1000
,
0000
0000
0000
0100
,
0000
0000
0000
0001
,
0000
0000
0000
0100
,
0000
0000
0000
1000
,
0000
0000
0000
0010
,
0000
0000
0000
0010
,
0000
0000
0000
0001
,
0000
0000
0000
0001
,
0000
0000
0000
0100
,
0000
0000
0000
0100
,
0000
0000
0000
1000
,
0000
0000
0000
1000
,
0000
0000
0000
0010
,
0000
0000
0000
0001
,
0000
0000
0000
1000
,
0000
0000
0000
0100
,
0000
0000
0000
0010
,
0000
0000
0000
0001
,
0000
0000
0000
0010
,
0000
0000
0000
1000
,
0000
0000
0000
0100
,
0000
0000
0000
0001
,
0000
0000
0000
1000
,
0000
0000
0000
0001
,
0000
0000
0000
1000
,
0000
0000
0000
0100
,
0000
0000
0000
0010
,
0000
0000
0000
0010
,
0000
0000
0000
0010
,
0000
0000
0000
0100
,
0000
0000
0000
0100
,
0000
0000
0000
0100
,
0000
0000
0000
0001
,
0000
0000
0000
1000
,
0000
0000
0000
0010
,
0000
0000
0000
0001
,
0000
0000
0000
1000
,
0000
0001
0000
0000
,
1000
0000
0000
0000
;

//---------------dance-single - ANOTHER----------------
#NOTES:
     dance-single:
     ANOTHER:
     Medium:
     3:
     0.212,0.198,0.053,0.000,0.000,134.000,5.000,0.000,0.000,0.000:
0000
0000
0000
0000
,
0000
0000
0000
0000
,
0000
1001
0000
0010
,
0001
1000
0000
0100
,
0000
0010
0000
0001
,
0010
0100
0000
1001
,
0000
1000
0100
0010
,
0000
1000
0000
0001
,
0000
1000
0010
0100
,
0000
0001
0000
0100
,
0000
0001
0000
0100
,
0100
1000
0000
0001
,
0000
0100
0000
0010
,
0000
1000
1000
1000
,
0000
0001
0000
0100
,
0000
0001
0000
0001
,
0010
1000
0000
0100
,
0000
0010
0000
1000
,
0000
0100
0000
0001
,
0000
0010
0001
0001
,
0000
1000
0000
0010
,
0000
0100
0000
1000
,
0001
0000
1000
0000
0000
0000
0000
0010
,
0010
0000
1001
0000
,
0100
0100
0000
0000
0000
0000
1000
0000
,
0001
1000
0000
1000
,
0000
0100
0000
0010
,
0000
0001
0100
1000
,
0000
0001
0000
1000
,
0000
0100
0000
0010
,
0010
0001
0001
1000
,
1000
1000
0000
1000
,
0000
1000
0000
0001
,
1000
1000
0001
0001
,
1000
0001
0000
0010
,
0000
0001
0001
1000
,
0000
0100
0000
0010
,
0010
0001
0000
0100
,
0000
0010
0000
0001
,
0000
1000
1000
0100
,
0000
0010
0000
0001
,
0001
0100
0000
0010
,
0000
1000
0000
0100
,
0000
0001
0000
1000
,
1000
0001
0000
1000
,
0001
0100
0000
0010
,
0010
0001
0000
1000
,
0001
0100
0000
0001
,
0100
1000
0000
0001
,
0010
1000
0000
0001
,
1000
0010
0000
0100
,
0001
0010
0000
1000
,
0001
1000
0000
1001
,
1001
0000
0000
0000
;

//---------------dance-single - MANIAC----------------
#NOTES:
     dance-single:
     MANIAC:
     Hard:
     6:
     0.394,0.425,0.374,0.000,0.000,223.000,35.000,0.000,0.000,0.000:
0000
0000
0000
0000
,
0000
0000
0000
0000
,
0000
1000
0100
0001
,
0010
1000
0010
0001
,
0100
1000
0001
0100
,
0010
1000
0001
1001
,
1000
0100
1000
0100
1000
0100
1000
0100
,
1000
0000
1001
0010
0000
0100
0000
0001
,
0100
0001
0100
0001
0100
0001
0100
0000
,
0100
0000
0001
0001
0000
0000
0001
0000
,
0001
1000
1000
0001
,
1000
0000
0001
0000
0000
0110
0000
0110
,
0000
1001
0000
0000
0000
1010
0000
0101
,
0000
1001
0000
0000
0010
0000
0000
0100
,
0100
0001
0010
0001
,
1000
0100
0010
1000
,
0010
0001
0100
0010
,
0001
1000
0100
0001
,
0010
0000
1000
0000
1000
0000
0000
1001
,
1001
0000
0000
0101
0000
0000
0001
0000
,
0001
1000
1000
0001
,
0001
0010
0010
0100
,
0100
0000
1000
0000
0001
0000
0000
1010
,
1100
0000
0000
1000
0001
1000
0000
0000
,
0011
0101
0000
0000
1000
0000
0100
0000
,
0010
0001
1000
0100
,
0010
0000
0000
1001
1001
0000
0100
0000
,
0100
0010
0010
0001
,
0001
0000
0000
0110
0110
0000
0010
0000
,
0100
0010
0001
0100
,
0001
0010
0001
1010
,
0101
0001
1000
1000
,
0100
0001
0001
1000
,
1001
0000
0001
0000
1000
0000
0000
0100
,
1001
0001
1000
1001
,
1000
0100
1000
0100
1000
0100
1000
0100
,
1000
0000
0010
1001
0000
0100
0000
0001
,
0100
0001
0100
0001
0100
0001
0100
0000
,
0001
0000
0100
0100
0000
0000
0010
0000
,
1000
0100
0001
0010
,
0001
0100
1000
0100
,
0010
0001
0100
1000
,
0001
1000
0001
1001
,
1000
0100
1000
0100
1000
0100
1000
0100
,
1000
0000
0010
0110
0000
0100
0000
0001
,
0100
0001
0100
0001
0100
0001
0100
0000
,
1000
0000
1000
0001
0000
0000
0010
0000
,
0001
1000
0100
0010
,
0001
0000
1000
0000
0000
1010
0000
0101
,
0000
1100
0000
0000
0000
0011
0000
1100
,
0000
0101
0000
0000
0001
0000
0000
1000
,
1000
0100
0010
1000
,
0001
0000
1000
0001
0000
0000
1001
0000
,
0110
0000
0000
0000
;

//---------------dance-single - SMANIAC----------------
#NOTES:
     dance-single:
     SMANIAC:
     Challenge:
     7:
     0.453,0.425,0.417,0.160,0.016,243.000,39.000,15.000,0.000,0.000:
0000
0000
0000
0000
,
0000
0000
0000
0000
,
0000
0000
0000
0000
,
0010
1000
1000
0010
0000
0000
0001
0100
,
0100
0010
0001
0001
0000
0000
0100
0010
,
0001
1000
1000
0001
0001
0000
1001
0000
,
1000
0100
1000
0100
1000
0100
1000
0100
,
1000
0000
0010
1001
0000
0100
0000
0001
,
0100
0001
0100
0001
0100
0001
0100
0000
,
0100
0000
0010
1100
0000
0000
0001
0000
,
0002
0000
0000
1003
0000
1000
0001
1000
,
0001
0000
0001
0100
0000
0110
0000
1100
,
0000
1100
0000
0000
0000
0110
0000
0101
,
0000
0101
0000
0000
0020
0000
0000
0130
,
1000
0000
0001
0100
0001
0000
1000
0100
,
1000
0000
0100
0010
0100
0000
1001
0000
,
0010
0000
0001
0010
0000
0010
0010
1000
,
0001
0000
1000
1000
0000
0000
0001
0001
,
0010
0000
1000
0100
0000
0010
0010
1001
,
0110
0000
0000
0101
0000
0000
1000
0001
,
2000
0000
3000
1000
0000
0001
0001
0001
,
0100
0000
0010
0100
0000
0000
0100
0000
,
0110
0000
0000
0001
1000
0001
1000
0010
,
1100
0000
0000
1000
0001
1000
0000
0010
,
0101
0000
0200
0300
2000
3000
0020
0030
,
0002
0003
1000
0000
1000
0000
0100
0000
,
0010
0000
0000
1001
1001
0000
0010
0000
,
0100
0100
0001
0001
,
1000
0000
0000
1001
1001
0000
0000
0010
,
0001
0000
0000
0000
0000
0000
0010
0001
0100
0000
0000
0000
0000
0000
0010
1000
,
0100
0000
0000
0010
0000
0000
0001
0000
0001
0000
0000
0000
1010
0000
0000
0000
,
2002
0000
0000
3003
,
0000
0100
0000
0001
0100
0000
1000
0000
,
0220
0000
0000
0000
0000
0000
0000
0000
0000
0330
0000
0000
0000
0000
0100
0000
,
2002
0000
3003
1001
,
1000
0100
1000
0100
1000
0100
1000
0100
,
1000
0000
0010
1001
0000
0100
0000
0001
,
0100
0001
0100
0001
0100
0001
0100
0000
,
0001
0000
0010
1100
0000
0000
0010
0000
,
1000
0000
0000
0100
0000
0010
0010
0001
,
1000
0000
0100
1000
0000
0000
0100
0100
,
0010
0000
0001
0000
0100
0000
1000
0001
,
0001
1000
1000
0001
0000
0000
1001
0000
,
1000
0100
1000
0100
1000
0100
1000
0100
,
1000
0000
0010
0110
0000
0100
0000
0001
,
0100
0001
0100
0001
0100
0001
0100
0000
,
1000
0000
0010
1001
0000
0000
0010
0000
,
0002
0000
0000
0103
0000
0010
0010
0010
,
0100
0000
0001
1000
0000
1010
0000
1010
,
0000
0101
0000
0000
0000
0011
0000
0011
,
0000
1100
0000
0000
0020
0000
0000
0001
,
0031
1001
0010
1000
,
0001
0000
1000
0001
0000
0000
1001
0000
,
0110
0000
0000
0000
;

//---------------dance-single - BEGINNER----------------
#NOTES:
     dance-single:
     BEGINNER:
     Beginner:
     1:
     0.081,0.085,0.000,0.000,0.000,53.000,0.000,0.000,0.000,0.000:
0000
0000
0000
0000
,
0000
0000
0000
0000
,
0001
0000
0000
0000
,
1000
0000
0000
0000
,
0001
0000
0000
0000
,
1000
0000
0001
0000
,
0000
0000
0010
0000
,
0000
0000
0010
0000
,
0000
0000
0100
0000
,
0000
0000
0001
0000
,
0000
0000
0010
0000
,
0000
0000
1000
0000
,
0000
0000
0001
0000
,
0000
0000
0100
0000
,
0000
0000
1000
0000
,
0000
0000
0100
0000
,
0000
0000
0001
0000
,
0000
0000
0100
0000
,
0000
0000
1000
0000
,
0000
0000
0010
0000
,
0000
0000
0010
0000
,
0000
0000
0001
0000
,
0000
0000
0001
0000
,
0000
0000
0100
0000
,
0000
0000
0100
0000
,
0000
0000
1000
0000
,
0000
0000
1000
0000
,
0000
0000
0010
0000
,
0000
0000
0001
0000
,
0000
0000
1000
0000
,
0000
0000
0100
0000
,
0000
0000
0010
0000
,
0000
0000
0001
0000
,
0000
0000
0010
0000
,
0000
0000
1000
0000
,
0000
0000
0100
0000
,
0000
0000
0001
0000
,
0000
0000
1000
0000
,
0000
0000
0001
0000
,
0000
0000
1000
0000
,
0000
0000
0100
0000
,
0000
0000
0010
0000
,
0000
0000
0010
0000
,
0000
0000
0010
0000
,
0000
0000
0100
0000
,
0000
0000
0100
0000
,
0000
0000
0100
0000
,
0000
0000
0001
0000
,
0000
0000
1000
0000
,
0000
0000
0010
0000
,
0000
0000
0001
0000
,
0000
0000
1000
0000
,
0001
0000
0000
0000
,
1000
0000
0000
0000
;
