#TITLE:I Made You Real;
#SUBTITLE:(SM Mix);
#ARTIST:Venomocean;
#TITLETRANSLIT:;
#SUBTITLETRANSLIT:;
#ARTISTTRANSLIT:;
#CREDIT:Venomocean;
#BANNER:imadeyoureal.png;
#BACKGROUND:imadeyoureal-bg.png;
#LYRICSPATH:;
#CDTITLE:VoyageV;
#MUSIC:imadeyoureal.mp3;
#OFFSET:-0.042;
#SAMPLESTART:66.500;
#SAMPLELENGTH:15.000;
#SELECTABLE:YES;
#BPMS:0.000=130.000;
#STOPS:;
#BGCHANGES:;
// cache tags:
#FIRSTBEAT:16.000;
#LASTBEAT:252.021;
#SONGFILENAME:Songs/StepMix 2/I Made You Real (SM Mix)/imadeyoureal.sm;
#HASMUSIC:1;
#HASBANNER:1;
#MUSICLENGTH:121.913;
// end cache tags

//---------------dance-single - VoyageV Steps----------------
#NOTES:
     dance-single:
     VoyageV Steps:
     Easy:
     4:
     0.318,0.388,0.238,0.074,0.000,233.000,29.000,9.000,0.000,0.000:
0000
0000
0000
0000
,
0000
0000
0000
0000
,
0000
0000
0000
0000
,
0000
0000
0000
0000
,
1000
1000
0001
0001
,
1000
1000
0001
0001
,
0100
0100
0010
0010
,
0100
0100
0010
1001
,
0100
0001
0100
0010
,
1000
0001
0100
0001
,
1000
0100
0001
0100
,
1000
0010
0001
0010
,
1000
1000
0001
0001
,
0100
0010
1000
0001
,
0110
1000
0001
1000
,
0010
0100
0001
1000
,
0010
0010
0100
0100
,
1000
0010
0001
0100
,
1000
0100
0001
0100
,
1000
0100
1000
0100
,
0010
0100
0001
1000
,
0010
0100
0001
1001
,
0110
0001
0100
0010
,
1000
0010
0100
1010
,
0101
0010
1000
0001
,
0100
0100
1000
0100
,
0001
0010
0001
0010
,
1000
0100
1000
0100
,
0010
0001
0010
0001
,
0100
1000
0010
1001
,
0110
1000
0001
0100
,
0010
0100
0001
0110
,
1001
0100
0010
1000
,
0001
0100
0010
0101
,
1000
0001
0100
0010
,
1000
0010
1000
0100
,
1002
1000
1000
1003
,
0120
0100
0100
0130
,
2001
0001
0001
3001
,
0210
0010
0010
0310
,
1001
0100
0010
0001
,
1000
0010
0001
0100
,
0010
1000
0001
0100
,
0010
1000
0001
1000
,
1002
1000
1000
1003
,
0210
0010
0310
1100
,
0012
0100
0100
0103
,
1000
0001
1000
0110
,
1001
0010
0001
0100
,
1000
0001
1000
0011
,
1100
0001
0010
0001
,
1000
0100
1000
0001
,
0110
1000
0001
0100
,
0010
0100
0001
1000
,
0100
1000
0010
0001
,
0010
0001
1000
0100
,
0110
0001
1000
0100
,
1000
0001
0100
0010
,
0100
0001
1000
0001
,
1000
0100
0010
0001
,
1100
0010
0100
0001
,
0100
0010
0100
1001
,
0220
0000
0000
0000
,
0000
0330
0000
0000
0000
0000
0000
0000
0000
0000
0000
0000
0000
0000
0000
0000
0000
0000
0000
0000
0000
0000
0000
0000
0000
0000
0000
0000
0000
0000
0000
0000
0000
0000
0000
0000
0000
0000
0000
0000
0000
0000
0000
0000
0000
0000
0000
0000
0000
0000
0000
0000
0000
0000
0000
0000
0000
0000
0000
0000
0000
0000
0000
0000
0000
0000
0000
0000
0000
0000
0000
0000
0000
0000
0000
0000
0000
0000
0000
0000
0000
0000
0000
0000
0000
0000
0000
0000
0000
0000
0000
0000
0000
0000
0000
0000
0000
0000
0000
0000
0000
0000
0000
0000
0000
0000
0000
0000
0000
0000
0000
0000
0000
0000
0000
0000
0000
0000
0000
0000
0000
0000
0000
0000
0000
0000
0000
0000
0000
0000
0000
0000
0000
0000
0000
0000
0000
0000
0000
0000
0000
0000
0000
0000
0000
0000
0000
0000
0000
0000
0000
0000
0000
0000
0000
0000
0000
0000
0000
0000
0000
0000
0000
0000
0000
0000
0000
0000
0000
0000
0000
0000
0000
0000
0000
0000
0000
0000
0000
0000
0000
0000
0000
0000
0000
0000
0000
0000
0000
0000
0000
0000
;

//---------------dance-single - VoyageV Steps----------------
#NOTES:
     dance-single:
     VoyageV Steps:
     Medium:
     5:
     0.328,0.336,0.025,0.107,0.000,264.000,3.000,13.000,0.000,0.000:
0000
0000
0000
0000
,
0000
0000
0000
0000
,
0000
0000
0000
0000
,
0000
0000
0000
0000
,
1000
0000
0001
0000
0000
0000
0001
1000
,
1000
0001
0000
0001
,
1000
0000
0001
0000
0000
0000
0001
1000
,
2000
0000
0000
0000
0000
0000
3100
0010
,
0001
0100
0010
1000
,
0001
0000
0001
0000
1000
0000
0010
1000
,
0100
0000
0010
0001
0100
0000
0001
0000
,
1000
0000
0001
0000
1000
0000
0010
1000
,
0100
0100
0100
0100
,
0001
0010
1000
0100
,
0010
1000
0100
0010
0001
1000
0100
0000
,
1000
0000
0001
0000
1000
0000
0010
1000
,
0100
0010
0100
0001
,
1000
0000
0100
0000
0001
0000
0010
1000
,
0100
0010
0100
1000
,
0010
0000
1000
0000
0100
0000
0001
0010
,
1000
0001
1000
0001
,
0010
0000
1000
0000
0100
0000
1000
0100
,
0001
0010
0100
1000
,
0010
0000
1000
0000
0001
0000
0010
1000
,
0100
0001
1000
0100
,
0001
0000
0100
0000
1000
0000
0010
0001
,
0100
0001
1000
0001
,
0100
0000
1000
0000
0100
0000
0010
0001
,
1000
0100
0001
1000
,
0100
0000
1000
0000
0001
0000
0010
1000
,
0100
0001
1000
0100
,
1000
0010
1000
0010
,
0100
0000
0001
0100
0010
1000
0100
0010
,
0001
0001
0010
0100
,
1000
0001
0010
1000
,
0001
0000
1000
0000
0100
0000
0010
1000
,
0002
1000
1003
0100
,
0020
0001
0031
1000
,
0200
0010
0310
1001
,
0010
1000
0001
1001
,
0010
0000
1000
0100
0001
0000
0010
0000
,
1000
0000
0001
0000
1000
0000
0010
1000
,
0100
0000
0001
0010
1000
0000
0100
0000
,
1000
0000
0001
0100
1000
0000
0010
1000
,
0200
0010
0310
0001
,
2000
0100
3100
0010
,
1000
0100
0001
1100
,
0010
0001
0100
2000
,
3001
0000
0001
1000
0100
0000
0001
0000
,
1000
0000
0010
1000
0100
0000
0001
0000
,
1000
0000
0010
1000
0100
0000
0001
0000
,
1000
0000
0001
1000
0010
0000
0100
0000
,
2000
0010
0001
3010
,
0200
0001
0010
0301
,
1000
0200
0010
0310
,
0001
0200
0010
0310
,
0001
0000
1000
0000
0001
0100
0001
0000
,
1000
0000
0001
0000
0010
0001
0100
0000
,
0010
0000
1000
0000
0100
1000
0010
0000
,
0010
1000
0100
0000
0010
0001
0100
0000
,
0100
0001
1000
0001
,
0010
0000
0100
0000
1000
0000
0001
0200
,
0020
0000
0000
0000
,
0330
0000
0000
0000
;

//---------------dance-single - VoyageV Steps----------------
#NOTES:
     dance-single:
     VoyageV Steps:
     Hard:
     6:
     0.442,0.439,0.033,0.386,0.086,326.000,4.000,47.000,0.000,0.000:
0000
0000
0000
0000
,
0000
0000
0000
0000
,
0000
0000
0000
0000
,
0000
0000
0000
0000
,
0010
1000
0100
0000
0000
0000
0100
1000
,
1000
0200
0000
0300
,
0010
0001
0100
0000
0000
0000
0100
0001
,
0001
0000
0000
0000
0200
0000
0000
0000
0000
0000
0000
0000
0301
0010
0000
0100
,
1000
0000
0010
1000
0100
0000
1000
0000
,
0001
0000
0010
0001
0100
0000
0001
1000
,
0100
0000
0010
0001
0100
0000
0001
0000
,
1000
0000
0000
0000
0010
0000
0000
0000
0100
0000
0000
0000
0001
1000
0000
0100
,
0020
0100
0100
0230
,
2300
0010
0010
3010
,
0101
0001
0100
0010
0100
0001
1000
0000
,
0200
0302
0023
2030
,
3001
0000
0000
0000
0100
0000
0010
1000
0000
0000
0100
0000
0010
0000
0000
0000
,
1000
0000
0000
0000
0001
0000
0000
0100
0000
0000
0100
0000
0010
0000
1000
0000
,
0100
0000
0000
0000
0010
0000
0001
0100
0000
0000
0010
0000
1000
0000
0000
0000
,
0200
0302
0023
2030
,
3001
0000
0000
0000
0100
0000
0000
0010
0000
0000
1000
0000
0100
0000
0000
0000
,
1000
0000
0000
0000
0010
0000
0000
0100
0000
0000
0001
0000
0010
0000
0100
0000
,
1000
0000
0000
0000
0100
0000
0000
0010
0000
0000
0001
0000
0100
0000
0000
0000
,
0001
0000
0000
0000
0010
0000
0000
0100
0000
0000
1000
0000
0010
0000
0100
0000
,
0001
0000
1000
0010
0100
0001
1000
0200
,
0000
0300
1000
0001
0000
0020
0000
0200
,
0030
0300
2000
3001
0000
0200
0020
0300
,
1030
0000
0000
0000
0001
0000
1000
0010
0000
0000
0100
0000
0001
0000
0010
0000
,
0001
0000
0000
0000
0100
0000
0000
0010
0000
0000
1000
0000
0100
0000
0000
0000
,
1000
0000
0000
0000
0010
0000
0000
0100
0000
0000
0001
0000
0010
0000
0100
0000
,
1000
0000
0000
0000
0100
0000
0000
0010
0000
0000
0001
0000
0100
0000
0000
0000
,
0001
0000
0000
0000
0010
0000
0000
0100
0000
0000
1000
0000
0010
0000
0100
0000
,
0001
0000
1000
0010
0100
0001
1000
0200
,
0000
0300
1000
0001
0000
0020
0000
0200
,
0030
0300
2000
3001
0000
0200
0020
0300
,
1030
0000
0000
0000
0001
0000
1000
0010
0000
0000
0100
0000
0001
0000
0010
0000
,
0200
0000
1300
0010
0002
0003
0010
0000
,
1000
0100
0001
0100
1000
0000
0010
1000
,
0100
0000
0010
0001
0200
0000
0301
0000
,
0010
0100
1000
0010
0100
0000
0001
0010
,
0100
0000
1000
0010
1000
0000
0100
0000
,
0010
0001
0100
1000
0200
0000
0301
0010
,
1000
0000
0001
0100
2000
0000
3010
0000
,
0010
1000
0100
0010
0002
0000
0023
0000
,
0230
0000
1300
0010
0002
0003
0010
0000
,
1000
0100
0001
0100
1000
0000
0010
1000
,
0100
0000
0010
0001
0200
0000
0301
0000
,
0010
0100
1000
0010
0100
0000
0001
0010
,
0100
0000
1000
0010
1000
0000
0100
0000
,
0010
0001
0100
1000
0200
0000
0301
0010
,
1000
0000
0001
0100
2000
0000
3010
0000
,
0100
0001
0010
0100
2000
0000
3001
0010
,
1000
0010
0001
0100
0010
0000
1000
0000
,
0001
0100
1000
0100
0001
0000
0020
0000
,
0130
1000
0100
0001
0200
0000
1300
0000
,
0010
0001
0010
1000
0200
0000
0320
0000
,
0031
0100
1000
0100
0002
0003
1100
0000
,
0010
0100
0001
1000
0100
0000
0011
0000
,
0100
1000
0010
1000
0100
0000
1001
0000
,
0010
0001
0100
0001
0020
0000
0230
0300
,
1000
0000
0001
1000
1000
0000
0100
0000
,
0010
0001
0000
0100
0001
0000
1000
0000
1000
0000
0000
0000
0010
0001
0000
2000
,
0020
0000
0000
0000
,
3030
0000
0000
0000
;
