#TITLE:Martian Successor Nadesico;
#SUBTITLE:- You Get To Burning [Para Para Mix];
#ARTIST:石田燿子;
#TITLETRANSLIT:;
#SUBTITLETRANSLIT:;
#ARTISTTRANSLIT:Yoko Ishida;
#CREDIT:Anime Toshokan;
#BANNER:Martian Successor Nadesico - You Get To Burning [Para Para Mix].png;
#BACKGROUND:Martian Successor Nadesico - You Get To Burning [Para Para Mix] bg.png;
#LYRICSPATH:;
#CDTITLE:dejiko.png;
#MUSIC:Martian Successor Nadesico - You Get To Burning [Para Para Mix].mp3;
#OFFSET:0.249;
#SAMPLESTART:49.200;
#SAMPLELENGTH:12.400;
#SELECTABLE:YES;
#BPMS:0.000=155.020;
#STOPS:;
#BGCHANGES:;
// cache tags:
#FIRSTBEAT:9.000;
#LASTBEAT:195.000;
#SONGFILENAME:Songs/DDR Anime 4th Mix/Martian Successor Nadesico - You Get To Burning [Para Para Mix]/Martian Successor Nadesico - You Get To Burning [Para Para Mix].sm;
#HASMUSIC:1;
#HASBANNER:1;
#MUSICLENGTH:80.120;
// end cache tags

//---------------dance-single - BASIC----------------
#NOTES:
     dance-single:
     BASIC:
     Easy:
     3:
     0.259,0.304,0.175,0.187,0.000,116.000,14.000,15.000,0.000,0.000:
0000
0000
0000
0000
,
0000
0000
0000
0000
,
0000
0020
0000
0000
,
0000
0030
1000
1000
,
0002
0000
0000
0003
,
0000
2000
0000
0000
,
3000
0000
0002
0000
,
0000
0003
0000
0000
,
1001
0001
0010
1000
,
0010
0001
1000
0100
,
0001
0010
0101
0000
,
0000
0000
0000
0000
,
1001
0100
0010
0001
,
0100
1000
0010
0001
,
1000
1100
0000
0000
,
0000
0000
1000
0100
,
1001
0010
0010
0100
,
1000
1000
0001
0001
,
0010
0100
0110
0000
,
0000
0000
2002
0000
,
3003
0001
0010
1000
,
0100
0001
0010
1000
,
0010
1001
0000
0000
,
0110
0000
0000
0000
,
1001
0010
1000
0010
,
0001
1000
0010
0100
,
0002
0000
0000
0000
,
0000
0003
0000
0100
,
0010
0100
0001
0000
,
1000
0001
1000
0001
,
0000
0010
0100
0010
,
0010
0010
0000
1001
,
0000
0020
0000
0030
,
0000
0200
0000
0300
,
0010
0010
0100
0100
,
1000
0100
0010
0001
,
0000
0100
1000
0010
,
0001
0100
0001
0100
,
0100
0100
0001
0001
,
0001
0000
0000
0000
,
0110
2000
0000
3000
,
0000
0002
0000
0003
,
0010
0010
0010
0010
,
0100
0100
0100
0100
,
0001
0001
1000
1000
,
0010
0000
0100
0000
0010
0000
0000
2002
,
0000
0000
0000
0000
,
3003
0000
0000
0000
,
0220
0000
0000
0330
;

//---------------dance-single - ANOTHER----------------
#NOTES:
     dance-single:
     ANOTHER:
     Medium:
     5:
     0.337,0.426,0.362,0.187,0.000,145.000,29.000,15.000,0.000,0.000:
0000
0000
0000
0000
,
0000
0000
0000
0000
,
0000
0110
0000
1001
,
0000
0010
0110
0101
,
0000
1010
0000
0011
,
0000
1100
0000
0101
,
0000
0110
0000
0110
,
0000
0000
1001
0000
0000
0000
0000
0100
,
0100
0001
0100
1000
,
0100
0001
1000
0100
,
0100
0110
1001
0000
,
0001
0001
0020
0000
,
0030
0100
0010
1000
,
0001
0100
0010
0001
,
0100
1100
0001
0010
,
0001
0000
0001
0000
1000
0100
1000
0100
,
0000
0001
0001
1000
,
1000
0100
0100
0010
,
0100
0010
0220
0330
,
0110
1001
2002
0000
,
3003
0001
0001
0100
,
1000
0000
1000
0000
0100
0000
1000
0100
,
0000
0011
0000
0000
0000
0000
0000
0000
,
0220
0000
0000
0000
,
0330
0001
0001
0001
,
0001
0011
1000
1000
,
1000
1000
1010
0010
,
0010
0100
0100
0010
,
0010
0100
0010
0100
,
1000
0100
0001
1000
,
0100
0100
0100
0100
,
0100
0100
0100
0200
0000
0000
0000
0300
,
0000
0001
1000
1100
,
0000
1000
0001
0101
,
0010
1000
0100
0010
,
0001
1000
1001
0000
,
0000
0100
0001
0100
,
0010
1000
0010
1000
,
0010
0000
0100
0000
1000
0000
0100
0100
,
0000
0000
0000
0000
,
1001
0100
0100
0110
,
0000
0010
0010
0110
,
0002
0003
2000
3000
,
0002
0003
0020
0030
,
0001
0001
1000
1000
,
0001
0000
0001
0000
0100
0000
0100
0020
,
0000
0000
0000
0000
,
0030
0000
0000
0010
,
2020
0000
0000
3030
;

//---------------dance-single - MANIAC----------------
#NOTES:
     dance-single:
     MANIAC:
     Hard:
     7:
     0.535,0.548,0.437,0.250,0.025,245.000,35.000,20.000,0.000,0.000:
0000
0000
0000
0000
,
0000
0000
0000
0000
,
0000
0000
0110
1000
0000
0000
1001
0100
,
0000
0000
1100
0100
0110
0000
0101
0000
,
0000
0000
1010
0100
0000
0000
0011
0010
,
0000
0000
1001
0001
0000
0000
1001
1000
,
0000
0000
0110
0100
0000
0000
0110
0010
,
0000
0000
1000
0100
0010
0001
0010
0100
,
1000
0000
0001
0010
0100
0010
1000
0100
,
0010
0001
0010
0100
1000
0010
0010
0100
,
1100
0110
0101
2000
,
3000
0002
0023
0000
,
0030
0000
0100
0100
0010
0001
0100
0100
,
0010
1000
1000
0100
0001
1000
0001
0100
,
1000
0000
0000
0000
1100
0000
0000
0000
0010
0100
0010
0100
0010
0000
0000
0000
,
0010
0100
0010
0100
0010
0000
0000
0000
1000
0000
0100
0000
0011
0000
0100
0000
,
0000
0000
0010
0100
0001
0010
0100
0010
,
1000
0001
1000
0001
0100
1000
0001
1000
,
0100
0100
0200
0310
,
0000
0110
2002
0000
,
3003
0000
0001
0010
0001
0100
1000
0010
,
1000
0100
0001
0100
0001
0010
1000
0100
,
0000
0020
0000
0000
0030
0000
1001
0000
,
0100
0000
1100
0000
0000
0110
0110
0000
,
0000
0000
0010
0001
1000
0100
0010
0001
,
0000
0000
0100
0010
0100
1000
0100
0001
,
0000
0000
0100
0010
1000
0100
0010
0100
,
0000
0000
0100
0001
1000
0100
0100
0010
,
0000
0000
0100
0001
0010
0010
0100
1000
,
0000
0000
0100
0010
0100
1000
0001
1000
,
0000
0000
0100
0010
0001
1000
0100
0000
,
0100
0100
0100
0200
0000
0300
0100
0000
,
0000
0000
0100
1000
1000
1000
1100
0000
,
0000
0000
0100
0001
0001
0001
0101
0000
,
0010
0110
0100
0110
,
1000
1100
0110
0101
,
0000
0000
0100
0010
1000
0100
0010
0100
,
0010
0000
0100
0010
0001
1000
0100
0010
,
0100
0000
0100
0010
0001
1000
0100
0012
,
0000
0000
0003
0000
1000
0001
1000
0000
,
0110
0000
1000
0100
0100
0010
0110
0000
,
0000
0000
0001
0010
0010
0100
0110
0000
,
0002
0023
0230
2300
,
3200
0320
0032
0203
,
0301
0100
0001
0000
0100
1000
0100
0000
,
0010
0001
0100
0000
0010
1000
0100
0020
,
0000
0000
0000
0000
,
0130
0001
1000
0001
1000
0001
0110
0010
,
0220
0000
0000
0330
;

//---------------dance-single - BEGINNER----------------
#NOTES:
     dance-single:
     BEGINNER:
     Beginner:
     2:
     0.171,0.300,0.175,0.087,0.000,75.000,14.000,7.000,0.000,0.000:
0000
0000
0000
0000
,
0000
0000
0000
0000
,
0000
0000
0000
0000
,
0000
0000
0000
0000
,
1001
0000
1000
0000
,
0010
0000
0100
0000
,
0001
0000
1000
0000
,
0100
0000
0010
0000
,
1001
0000
0010
0000
,
0010
0000
1000
0000
,
0001
0000
0101
0000
,
0000
0000
0000
0000
,
1001
0000
0010
0000
,
0100
0000
0010
0000
,
1000
0000
0000
0000
,
0000
0000
1000
0000
,
1001
0000
0010
0000
,
1000
0000
0001
0000
,
0010
0000
0110
0000
,
0000
0000
2002
0000
,
3003
0001
0010
0000
,
0100
0000
0010
0000
,
0010
0000
0000
0000
,
0110
0000
0000
0000
,
1001
0000
1000
0000
,
0001
0000
0010
0000
,
0002
0000
0000
0000
,
0000
0003
0000
0100
,
0010
0000
0001
0000
,
1000
0000
1000
0000
,
0000
0010
0100
0000
,
0010
0000
0000
1001
,
0000
0100
0000
0010
,
0000
1000
0000
0000
,
0010
0000
0100
0000
,
1000
0000
0010
0000
,
0000
0100
1000
0000
,
0001
0000
0001
0000
,
0100
0000
0001
0000
,
0001
0000
0000
0000
,
0110
0000
0000
1000
,
0000
0001
0000
0000
,
0010
0000
0010
0000
,
0100
0000
0100
0000
,
0001
0000
1000
0000
,
0010
0000
0010
0000
,
2002
0000
3003
0000
,
0220
0000
0330
0000
,
1001
0000
0000
0000
;
