#TITLE:Jubei Chan;
#SUBTITLE:- Way Of The Samurai;
#ARTIST:大地丙太郎;
#TITLETRANSLIT:;
#SUBTITLETRANSLIT:;
#ARTISTTRANSLIT:Daichi Akitaroh;
#CREDIT:Anime Toshokan;
#BANNER:Jubei Chan - Way Of The Samurai.png;
#BACKGROUND:Jubei Chan - Way Of The Samurai bg.png;
#LYRICSPATH:;
#CDTITLE:dejiko.png;
#MUSIC:Jubei Chan - Way Of The Samurai.mp3;
#OFFSET:1.044;
#SAMPLESTART:23.970;
#SAMPLELENGTH:14.380;
#SELECTABLE:YES;
#BPMS:0.000=134.000;
#STOPS:;
#BGCHANGES:;
// cache tags:
#FIRSTBEAT:8.000;
#LASTBEAT:252.000;
#SONGFILENAME:Songs/DDR Anime 1st Mix/Jubei Chan - Way Of The Samurai/Jubei Chan - Way Of The Samurai.sm;
#HASMUSIC:1;
#HASBANNER:1;
#MUSICLENGTH:115.411;
// end cache tags

//---------------dance-single - BASIC----------------
#NOTES:
     dance-single:
     BASIC:
     Easy:
     3:
     0.224,0.273,0.035,0.000,0.000,177.000,4.000,0.000,0.000,0.000:
0000
0000
0000
0000
,
0000
0000
0000
0000
,
0100
0100
0010
0010
,
0100
0100
1000
1000
,
0001
0001
0100
0010
,
0001
1000
0000
0000
,
1000
0010
0001
0100
,
1000
0001
0000
0000
,
0010
1000
0100
0001
,
0010
1000
0000
0000
,
1000
1000
0001
0001
,
0010
0100
1000
0001
,
1000
0001
1000
0100
,
0010
0001
1000
0001
,
1001
0000
0000
0100
,
0000
0010
0000
0001
,
0000
1000
1000
0100
,
0000
0001
0000
1000
,
0000
0010
0000
0100
,
0001
0001
0000
0001
,
0000
0010
0000
1000
,
0000
0001
0010
0010
,
0000
1000
0000
0001
,
0000
1000
0000
0001
,
0100
0100
0000
0010
,
0000
1000
0000
0001
,
0000
1000
0000
1000
,
0001
0001
0000
1000
,
0000
0001
0000
0010
,
0010
0100
0100
0000
,
0001
1000
0001
1000
,
0100
0010
1000
0001
,
0010
0100
0001
1000
,
0100
0010
1000
0001
,
1001
0000
0000
0100
,
0000
1000
1000
1000
,
0000
0100
0000
0001
,
0000
0100
0000
0001
,
0001
0001
0000
0010
,
0000
0001
0000
1000
,
0000
0100
0100
0100
,
0000
0001
0000
0100
,
0000
1000
0000
0010
,
0010
0010
0000
0001
,
0000
1000
0000
0001
,
0000
0001
1000
0100
,
0000
1000
0000
0010
,
0000
0001
0000
0100
,
0010
1000
0000
0001
,
0000
1000
0000
0001
,
0010
0001
0000
0000
,
0100
0100
1000
1000
,
0010
0010
0001
0001
,
1000
0001
0100
0001
,
1000
0010
0001
1000
,
0001
1000
0100
0010
,
0001
1000
0001
0010
,
0100
0010
0001
1000
,
0100
0010
1000
0001
,
1001
0000
0000
0001
,
0000
1000
0000
0001
,
0000
0010
0000
0100
,
0000
0010
0000
0100
,
0110
0000
0000
0000
;

//---------------dance-single - ANOTHER----------------
#NOTES:
     dance-single:
     ANOTHER:
     Medium:
     5:
     0.334,0.328,0.165,0.000,0.000,251.000,19.000,0.000,0.000,0.000:
0000
0000
0000
0000
,
0000
0000
0000
0000
,
1001
0001
0001
1000
,
1000
0100
0010
1000
,
0001
0100
0010
1000
,
0001
0100
0010
0001
,
1000
0100
0001
0010
,
0001
1000
0100
0001
,
0010
1000
0100
0001
,
0010
1000
0001
0010
,
0100
1000
0001
0100
,
0010
1000
0001
0100
,
0001
1000
0001
0110
,
1001
0010
0100
0010
,
1001
0100
0100
0100
,
0010
0010
0010
1000
,
1000
0001
0001
0100
,
0010
1000
0001
0100
,
0001
0100
1000
0100
,
1000
0100
0010
0001
,
0010
0001
1000
0010
,
1000
0010
0100
0001
,
0001
0100
0001
0010
,
1000
0001
0100
0001
,
0001
1000
0100
0001
,
1000
0010
0001
0100
,
0010
1000
0100
0010
,
1000
0001
0100
1000
,
0001
0100
0010
1000
,
0100
0001
0010
1000
,
0100
0001
0001
0100
,
1000
0010
0001
0100
,
1000
0010
0001
1000
,
0001
1000
0001
1000
,
1001
0000
0000
0100
0100
0100
0110
0000
,
0100
0010
0100
0010
,
1000
0001
1000
0001
,
0100
0001
0100
1000
,
0100
1000
0010
0001
,
0100
0001
0010
1000
,
0001
0100
0101
0001
,
0001
0001
1001
1000
,
1000
1000
1001
0010
,
0010
0010
1001
0100
,
0100
0100
1001
0001
,
0100
1000
0010
1000
,
0100
0010
0110
0010
,
0100
0001
0100
1000
,
0001
0010
0100
1010
,
0010
0100
0001
1000
,
0010
0100
0011
1000
,
0100
0001
0001
0100
,
0100
0010
0010
1001
,
0100
0001
1000
0100
,
0001
1000
0101
0001
,
1000
0010
0001
1000
,
0001
0110
0010
0100
,
0010
0010
0100
0100
,
1000
1000
0000
0001
0001
0000
1000
1000
,
1001
0100
0100
0100
,
0100
0010
0010
0010
,
0010
0100
0001
1000
,
0100
0000
1000
0001
0100
1000
0001
0010
,
0110
0000
0000
0000
;

//---------------dance-single - MANIAC----------------
#NOTES:
     dance-single:
     MANIAC:
     Hard:
     7:
     0.416,0.491,0.251,0.113,0.078,294.000,29.000,13.000,0.000,0.000:
0000
0000
0000
0000
,
0000
0000
0000
0000
,
1010
0011
0100
1000
,
0001
0010
0100
1100
,
0101
0100
1000
0010
,
0001
0100
0001
1000
,
1000
0000
0000
0001
0000
0001
0000
0000
1000
0000
0000
0000
0001
0000
0000
0000
,
0100
1000
0010
0100
,
0001
0000
0000
1000
0000
1000
0000
0000
0001
0000
0000
0000
0001
0000
0000
0000
,
0010
1000
0001
0100
,
0010
0000
0000
0100
0000
0100
0000
0000
0010
0000
0000
0000
1000
0000
0000
0000
,
0100
0000
0000
0010
0000
0010
0000
0000
0100
0000
0000
0000
1000
0000
0000
0000
,
1000
0000
0000
0100
0000
0001
0000
0000
0001
0000
0000
0000
1010
0000
0000
0000
,
0011
1100
0101
0110
,
0002
0000
0000
0000
0003
0000
0001
0100
0001
0000
0000
0000
0000
0000
0000
0000
,
1000
0100
0001
0010
,
2000
0000
0000
0000
3000
0000
1000
0100
1000
0000
0000
0000
1001
0000
0000
0000
,
0001
1000
0100
0010
,
0110
0100
0001
1000
,
0010
1000
1001
0100
,
0001
0010
1000
0100
,
0010
0110
1001
1000
,
0200
0000
0000
0000
0300
0000
0100
0001
0100
0000
0000
0000
0000
0000
0000
0000
,
0100
0001
1000
0010
,
0200
0000
0000
0000
0300
0000
0100
1000
0100
0000
0000
0000
0100
0000
0000
0000
,
1000
0001
1001
0010
,
0100
1000
0001
0100
,
1001
0100
1000
0001
,
0100
0010
1000
0001
,
0100
0100
0100
0100
,
1000
0100
1100
0000
0001
0100
0101
0000
,
1000
0010
1010
0000
0010
0001
0011
0000
,
1000
0001
1001
0000
0010
0100
0110
0000
,
1000
0001
0100
1000
0001
0010
0100
0001
,
0202
0000
0303
0000
1001
1001
0110
0000
,
2000
0000
0000
0000
3000
0000
1000
0100
1000
0000
0000
0000
0000
0000
0000
0000
,
0010
0100
0001
1000
,
0002
0000
0000
0000
0003
0000
0001
0100
0001
0000
0000
0000
1000
0000
0000
0000
,
0100
0010
1000
0001
,
1000
0100
0010
0100
,
1000
0010
0001
0100
,
0001
1000
0010
0100
,
0001
1000
0010
1000
,
2000
0000
0000
0000
3000
0000
1000
0010
1000
0000
0000
0000
0000
0000
0000
0000
,
1000
0100
0001
0010
,
0002
0000
0000
0000
0003
0000
0001
0010
0001
0000
0000
0000
0001
0000
0000
0000
,
0010
0001
0010
1000
,
0010
1000
0010
0100
,
0001
0100
0001
1000
,
0100
1000
0100
1000
,
2002
0000
0000
3003
,
1000
0100
1000
0001
0100
0001
0010
0001
,
0010
0100
0010
0100
1000
0001
0010
0100
,
0001
1000
0001
1000
0100
1000
0001
0100
,
0010
0001
1000
0001
1000
0100
0010
0100
,
0010
1000
0001
1000
0100
0010
0100
1000
,
0100
0010
0001
1000
0100
0010
0001
1000
,
0100
0001
1000
0100
0010
0001
0010
0001
,
1000
0100
1000
0100
1000
0001
1000
0001
,
1001
1000
0001
1000
,
0100
0001
0100
0010
,
1000
0001
0100
0001
,
2000
0000
0000
3000
0100
1000
0001
0010
,
0110
0000
0000
0000
;

//---------------dance-single - BEGINNER----------------
#NOTES:
     dance-single:
     BEGINNER:
     Beginner:
     2:
     0.151,0.164,0.035,0.000,0.000,118.000,4.000,0.000,0.000,0.000:
0000
0000
0000
0000
,
0000
0000
0000
0000
,
0100
0000
0010
0000
,
0100
0000
1000
0000
,
0001
0000
0100
0000
,
0001
0000
0000
0000
,
1000
0000
0001
0000
,
1000
0000
0000
0000
,
0010
0000
0100
0000
,
0010
0000
0000
0000
,
1000
0000
0001
0000
,
0010
0000
1000
0000
,
1000
0000
1000
0000
,
0010
0000
1000
0000
,
1001
0000
0000
0000
,
0100
0000
0010
0000
,
0001
0000
1000
1000
,
0000
0000
0001
0000
,
1000
0000
0010
0000
,
0100
0001
0000
0000
,
0001
0000
0010
0000
,
1000
0000
0001
0010
,
0000
0000
1000
0000
,
0001
0000
1000
0000
,
0001
0100
0000
0000
,
0010
0000
1000
0000
,
0001
0000
1000
0000
,
1000
0001
0000
0000
,
1000
0000
0001
0000
,
0010
0010
0000
0100
,
0001
0000
0001
0000
,
0100
0000
1000
0000
,
0010
0000
0001
0000
,
0100
0000
1000
0000
,
1001
0000
0000
0100
,
1000
1000
0000
0000
,
0100
0000
0001
0000
,
0100
0000
0001
0001
,
0000
0000
0010
0000
,
0001
0000
1000
0000
,
0100
0100
0000
0000
,
0001
0000
0100
0000
,
1000
0000
0010
0010
,
0000
0000
0001
0000
,
1000
0000
0001
0000
,
0001
1000
0000
0000
,
1000
0000
0010
0000
,
0001
0000
0100
0010
,
0000
0000
0001
0000
,
1000
0000
0001
0010
,
0000
0000
0000
0000
,
0100
0000
1000
0000
,
0010
0000
0001
0000
,
1000
0000
0100
0000
,
1000
0000
0001
0000
,
0001
0000
0100
0000
,
0001
0000
0001
0000
,
0100
0000
0001
0000
,
0100
0000
1000
0000
,
1001
0000
0000
0000
,
0001
0000
1000
0000
,
0001
0000
0010
0000
,
0100
0000
0010
0000
,
0110
0000
0000
0000
;
