#TITLE:Wolf's Rain;
#SUBTITLE:- Stray;
#ARTIST:Steve Conte;
#TITLETRANSLIT:;
#SUBTITLETRANSLIT:;
#ARTISTTRANSLIT:;
#CREDIT:Anime Toshokan;
#BANNER:Wolf's Rain - Stray.png;
#BACKGROUND:Wolf's Rain - Stray bg.png;
#LYRICSPATH:;
#CDTITLE:dejiko.png;
#MUSIC:Wolf's Rain - Stray.mp3;
#OFFSET:1.573;
#SAMPLESTART:65.160;
#SAMPLELENGTH:14.700;
#SELECTABLE:YES;
#DISPLAYBPM:103.000;
#BPMS:0.000=103.060,52.000=102.990,132.000=102.810;
#STOPS:;
#BGCHANGES:;
// cache tags:
#FIRSTBEAT:3.000;
#LASTBEAT:155.000;
#SONGFILENAME:Songs/DDR Anime 4th Mix/Wolf's Rain - Stray/Wolf's Rain - Stray.sm;
#HASMUSIC:1;
#HASBANNER:1;
#MUSICLENGTH:89.678;
// end cache tags

//---------------dance-single - CHALLENGE----------------
#NOTES:
     dance-single:
     CHALLENGE:
     Challenge:
     7:
     0.378,0.410,0.268,0.290,0.240,187.000,24.000,26.000,0.000,0.000:
0000
0000
0000
2000
,
0000
3000
0010
0002
,
0000
0000
0000
0000
0003
0000
0000
0000
0100
0000
0000
0001
1000
0000
0000
0000
,
0001
0010
1000
0000
0000
0100
0000
0000
0010
0000
0000
0001
0000
0000
1000
0000
,
0001
0000
1000
0000
0000
0100
0000
0000
1000
0000
0000
0010
0000
0000
0001
0000
,
0000
0000
1001
0000
0000
0010
0000
0000
0100
0000
0000
0010
0000
0000
1001
0000
,
0000
0000
0100
0000
0000
1000
0000
0000
0001
0000
0000
0000
0100
0000
0100
0000
,
0100
0000
0000
0010
0000
0000
0000
0000
0000
0000
0000
0000
0100
0000
0100
0000
,
0001
0000
0010
0020
0000
0030
0000
0000
0000
0000
0000
0000
0000
0000
0000
0001
,
0100
0001
0100
0000
0000
0000
0000
0001
0010
0001
0010
0000
0100
0000
1000
1000
,
0000
0100
0000
0000
0000
0000
0100
1000
,
1000
0000
0000
0200
0000
0000
0000
0300
0000
0000
0000
0000
0100
0000
0001
0000
,
0100
0000
0100
1000
0000
0100
0002
0000
0000
0000
0103
0000
0000
0000
0000
0010
,
0100
0010
0100
0000
0000
0000
0000
0000
0100
0001
0100
0000
0100
0000
1000
0100
,
0000
0101
0010
0001
0010
0100
1000
0001
,
1001
0000
0000
0000
0000
0010
0100
0000
2000
0000
0000
0000
3001
0000
1000
1000
,
0200
0300
0000
0000
0000
0000
0100
0100
,
0110
0000
1001
0000
0101
0100
0001
1100
,
0000
0010
0002
0003
0000
0000
0200
0000
,
0301
0000
0200
1000
0300
0000
0200
0001
,
0300
0000
0200
1000
0300
0000
0000
0000
,
0220
0000
0000
0000
0000
0000
0000
0000
0330
0000
0000
0000
0000
0000
0001
0010
,
0100
0000
0010
0100
0000
0000
1000
0000
0100
0000
0010
0000
0110
0000
0101
0000
,
0010
0100
0110
1100
0000
0000
1001
0000
,
0002
0003
2000
3000
,
2002
0000
0000
0000
3003
0000
0000
0010
,
0100
0000
0010
0001
0000
0000
0100
0000
0010
0000
0100
0001
0000
0000
2000
0000
,
0100
0000
0100
0100
0000
0000
0100
0000
0000
0000
0000
0000
3100
0000
0001
0000
,
0001
0000
1000
1000
0000
0000
0020
0000
,
0230
0301
0000
0020
,
0230
0000
0000
0000
0301
0000
0000
0000
0100
1000
0100
0000
0011
0000
0000
0000
,
0010
1100
0100
0010
,
1001
0000
0000
0110
0000
0000
1001
0000
0000
0110
0000
0000
0002
0000
0000
0003
,
0001
0000
0000
0000
0100
0000
0000
0000
1000
0000
0000
0000
2000
0000
0000
3000
,
1000
0000
0000
0000
0001
0000
0000
0000
0000
0001
1000
0001
1000
0001
1000
0000
,
0001
0010
0100
0000
0000
0010
0000
0000
0001
0000
0000
1000
0000
0000
0110
0000
,
0000
0000
0001
0000
0000
1000
0000
0000
0100
0000
0000
0101
0000
0000
1100
0000
,
0000
0000
1000
0000
0000
1000
0000
0000
0001
0000
0000
0002
0000
0000
0000
0000
,
0000
0000
0000
0003
;
