#TITLE:Initial D;
#SUBTITLE:- Final Countdown;
#ARTIST:Dave Rodgers;
#TITLETRANSLIT:;
#SUBTITLETRANSLIT:;
#ARTISTTRANSLIT:;
#CREDIT:Anime Toshokan;
#BANNER:Initial D - Final Countdown.png;
#BACKGROUND:Initial D - Final Countdown bg.png;
#LYRICSPATH:;
#CDTITLE:dejiko.png;
#MUSIC:Initial D - Final Countdown.mp3;
#OFFSET:-0.031;
#SAMPLESTART:79.220;
#SAMPLELENGTH:12.400;
#SELECTABLE:YES;
#BPMS:0.000=154.420,143.500=308.380,159.500=154.430;
#STOPS:;
#BGCHANGES:;
// cache tags:
#FIRSTBEAT:12.000;
#LASTBEAT:348.000;
#SONGFILENAME:Songs/DDR Anime 5th Mix/Initial D - Final Countdown/Initial D - Final Countdown.sm;
#HASMUSIC:1;
#HASBANNER:1;
#MUSICLENGTH:133.593;
// end cache tags

//---------------dance-single - BASIC----------------
#NOTES:
     dance-single:
     BASIC:
     Easy:
     4:
     0.364,0.391,0.299,0.052,0.000,293.000,40.000,7.000,0.000,0.000:
0000
0000
0000
0000
,
0000
0000
0000
0000
,
0000
0000
0000
0000
,
1001
0000
1001
0100
,
0100
1000
0010
0010
,
1000
1000
0001
0001
,
1001
0010
0001
1000
,
0200
0001
0001
0001
,
0301
0010
0001
1000
,
0001
1000
1001
0010
,
1001
0100
1000
0110
,
0010
0010
0010
0010
,
1001
0010
1000
0100
,
0010
0001
1000
1001
,
0010
0010
0010
0100
,
0100
0100
0001
1000
,
0001
0001
0010
0010
,
1000
0100
0100
1001
,
0100
0001
1000
1001
,
0010
0000
0000
0100
0000
0000
0100
0000
,
0100
0100
0100
0100
,
1001
0010
0010
0010
,
0001
0001
0001
0100
,
0100
0100
1000
1000
,
1000
0010
0100
1000
,
0001
0100
0010
0001
,
1000
0010
0100
0010
,
0001
0010
0001
0100
,
1000
0000
0000
0000
0000
0101
0000
0000
,
1001
0010
0010
0000
,
1001
0010
0010
0000
,
1001
0010
0010
0000
,
1001
0010
0010
0000
,
1001
0000
1001
0000
,
1001
0000
1001
0000
,
1001
0000
0000
0000
1001
0000
0000
0020
,
0000
0000
0000
0000
,
0000
0000
0000
0000
,
0000
0000
0000
0000
,
0000
0000
0000
0000
0000
0030
0000
0000
,
0000
1001
0001
0010
,
0010
1000
0100
0001
,
0010
0001
1000
0010
,
0100
0000
0000
0220
0000
0000
0000
0000
,
0330
0001
0001
1000
,
1000
0000
0000
0100
0000
0000
1001
0000
,
1000
0001
1000
0001
,
1000
0001
1001
0010
,
0010
0001
0001
0010
,
0100
0010
1000
0001
,
1001
0001
0001
0001
,
1000
1000
1000
0010
,
0010
0001
0001
0001
,
0101
0100
0010
0001
,
0100
1000
0010
0010
,
0001
1000
1000
0010
,
0010
0001
0100
0110
,
0001
1000
0010
0010
,
0001
0100
0001
1000
,
0100
0001
1000
1000
,
1001
0000
0000
1001
0000
0000
0000
0000
,
1001
1000
0010
0001
,
0100
0001
0100
0010
,
0001
1000
0100
0010
,
1000
0100
0010
1001
,
0100
0010
0100
1000
,
0001
0100
0010
1000
,
0001
0100
0100
0010
,
1001
0000
0000
2002
0000
0000
0000
3003
,
0000
0000
0000
1001
,
0010
1000
0010
0100
,
0001
1000
0100
0001
,
0010
0100
0010
0001
,
0100
0010
0001
1000
,
0100
1000
0100
0100
,
0001
0100
0100
0001
,
0100
0010
1000
0100
,
1000
1000
0100
1000
,
1001
0010
0100
0010
,
0100
0001
1000
0100
,
1000
1000
0001
0001
,
0001
0001
0001
0020
,
0030
0010
0001
1000
,
0010
0000
0001
0000
0010
0000
0000
1100
,
0000
0000
0001
0000
1000
0000
0000
0101
,
0000
1000
1000
0100
,
1000
1000
1000
1000
,
1001
0000
0000
0000
;

//---------------dance-single - ANOTHER----------------
#NOTES:
     dance-single:
     ANOTHER:
     Medium:
     6:
     0.423,0.456,0.397,0.022,0.000,340.000,53.000,3.000,0.000,0.000:
0000
0000
0000
0000
,
0000
0000
0000
0000
,
0000
0000
0000
0000
,
0010
0000
1001
0000
,
0100
1000
0010
0001
,
1000
0010
1000
0000
0000
0010
0000
1001
,
0000
0010
0001
1000
,
0100
1000
0100
0000
0100
1000
0100
0000
,
1001
0010
0001
1000
,
0001
0000
1000
0000
0000
1001
0000
0110
,
0000
0000
0010
0000
0100
0100
0000
0000
,
0010
0010
0010
0010
,
1001
0010
1000
0101
,
0010
0010
0011
0001
,
0101
0000
1000
0000
0010
0000
0001
1000
,
0000
0001
1000
0000
0010
0000
0010
0000
,
0010
0000
0010
0000
1000
1000
0000
0000
,
1000
0000
0100
0000
0000
0110
0000
1100
,
0000
0000
0010
0001
0010
0000
0110
0000
,
0200
0000
0000
0301
0000
0000
0100
0000
,
0100
0100
0100
0100
,
1001
0000
0010
0000
0010
0000
0010
1000
,
0000
0000
0100
0000
0000
0010
0001
0000
,
0010
0000
0010
0000
0100
1000
0000
0000
,
1000
0000
0010
0000
0100
0000
0001
0010
,
0000
0000
0100
0000
0010
0000
1000
0010
,
0000
0000
0010
0000
0100
0000
0010
0001
,
0000
0000
0010
0001
0000
0000
0100
0000
,
1000
0001
0000
0100
0000
0001
0000
0000
,
1001
0010
0010
0010
,
1001
0010
0010
0010
,
1001
0010
0010
0010
,
1001
0010
0010
0010
,
1001
0010
1001
0010
,
1001
0010
1001
0010
,
1001
0000
0010
0000
1001
0000
0010
0020
,
0000
0000
0000
0000
,
0000
0000
0000
0000
,
0000
0000
0000
0000
,
0000
0000
0000
0000
0000
0030
0000
0000
,
0100
0001
0001
0001
,
0010
0000
1000
0100
1000
0000
0001
0000
,
0001
0000
0001
0010
0001
0000
1000
0000
,
2000
0000
0000
0001
0000
0000
0000
0000
,
3001
0000
0001
1000
0001
1000
0000
0000
,
0000
0010
0001
0010
0000
0000
1100
0000
,
1000
1000
1000
0001
,
0001
0001
1001
0000
,
0010
0000
0010
0000
0001
1000
0000
0000
,
0100
0100
1001
0101
,
1100
0000
0001
0000
0001
0100
0001
0000
,
1000
0100
1000
0000
0001
0100
0001
0000
,
0100
1001
0110
1001
,
1001
0000
0100
0000
0010
0010
0000
0000
,
0100
0100
0010
0001
,
0101
0000
1000
0100
1000
0000
0010
0000
,
0000
0001
0100
0000
0100
0000
0110
0000
,
0001
0000
1000
0000
0100
0010
0000
0000
,
0010
0100
0110
1001
,
0000
0000
0001
0010
0001
0000
0010
0000
,
0100
0000
0000
1001
0000
0010
0100
0000
,
1001
1000
0010
0101
,
0100
0010
1100
0010
,
0001
0110
0100
1000
,
0110
0010
1100
1001
,
0101
0000
0010
0001
0100
0000
1000
0000
,
0100
0000
0010
0100
0010
0000
1000
0000
,
0001
0100
0100
0100
,
1001
0000
0000
1001
0000
0000
0010
0000
,
0010
0010
0010
0010
,
0000
1000
0010
0101
,
0001
0000
0100
0000
0100
1000
0100
0000
,
0100
0100
0011
1000
,
0010
0001
0010
0000
0010
0001
0010
0000
,
0010
1000
0100
1001
,
0001
0000
0100
0000
0100
0010
0100
0000
,
0100
0001
1000
0100
,
0010
0100
1000
0000
0010
0100
1000
0000
,
0001
0000
0010
0000
0100
0010
0100
0000
,
0100
0000
1000
0000
0010
0001
0100
0000
,
1000
1000
0001
0001
,
0001
1000
0001
1000
0001
1000
0001
0000
,
0000
0000
0010
0001
1000
0000
1000
0100
,
0010
0000
0001
0010
0100
0000
0100
1000
,
0100
0000
0001
0010
0001
0000
0101
0000
,
0101
0100
0100
1001
,
1000
1000
1000
1000
,
0001
0000
0000
0000
;

//---------------dance-single - MANIAC----------------
#NOTES:
     dance-single:
     MANIAC:
     Hard:
     8:
     0.531,0.554,0.367,0.030,0.004,444.000,49.000,4.000,0.000,0.000:
0000
0000
0000
0000
,
0000
0000
0000
0000
,
0000
0000
0000
0000
,
1001
0010
1001
0100
,
0100
0000
1000
0000
0010
0010
0000
0000
,
1000
0100
1000
0010
0000
0100
0000
0110
,
0000
0000
0010
0000
0001
0001
0000
1000
,
0100
0001
0100
1000
0100
0001
0100
1000
,
0000
0000
0010
0000
0001
1000
0000
0000
,
0001
0010
1000
0010
0000
1001
0000
0101
,
0000
0000
0100
0000
1000
1100
0000
0000
,
0010
0010
0010
0010
,
1001
0000
0010
0000
1000
0001
0000
0000
,
0010
0001
0010
1000
0000
0011
0000
0001
,
0000
0000
0010
1000
0010
0001
0001
1000
,
0000
0100
0100
0000
0010
0000
0010
0000
,
0010
0000
0001
0000
0100
0100
0000
0000
,
1000
0010
0100
0001
0000
0110
0000
1100
,
0000
0000
0010
0001
0010
0000
0110
0000
,
2100
0000
0000
3001
0000
0000
0100
0000
,
0100
0000
0100
0000
0100
0100
0100
0100
,
1001
0000
0010
0000
0010
0000
0010
1000
,
0010
0000
0100
0000
0100
0001
0010
0000
,
0010
0000
0010
0001
0100
0010
1000
0000
,
1000
0100
0010
0001
0100
0000
0001
0010
,
0001
0000
0100
0000
0010
0000
1000
0010
,
1000
0000
0010
0000
0100
0000
0010
0001
,
0010
0000
0010
0001
0010
0000
0100
0000
,
1000
1000
0000
0010
0000
0101
0000
0000
,
1001
0000
0010
0100
0010
0100
0000
0000
,
1001
0000
0010
0100
0010
0100
0000
0000
,
1001
0000
0010
0100
0010
0100
0000
0000
,
1001
0000
0010
0100
0010
0100
0010
0000
,
1001
0010
1001
0100
,
1001
0010
1001
0100
,
1001
0000
0010
0000
1001
0000
0010
0020
,
0000
0000
0000
0000
,
0000
0000
0000
0000
,
0000
0000
0000
0000
,
0000
0000
0000
0000
0000
1030
0000
0000
,
1001
0000
0101
0000
0001
0001
0000
0000
,
0010
0010
1000
0100
0000
0010
0000
0001
,
0000
0000
0001
0010
0001
0000
1000
0000
,
2000
0000
0000
0020
0000
0000
0000
0000
,
3030
0000
0001
1000
0001
1000
0000
0000
,
0000
0010
0001
1010
0000
0000
0101
0000
,
1000
0010
0001
0010
1000
0010
0001
1000
,
0100
0001
0100
1000
1001
0000
0000
0000
,
0010
0000
0010
0000
0001
0010
0000
0000
,
0010
0010
0010
0010
1100
0000
0101
0000
,
1001
0000
0001
0000
0001
0001
0001
0000
,
1000
0100
1000
0100
1000
0001
0100
0001
,
0100
1001
1100
0101
,
0110
0000
0100
0000
0010
0010
0000
0000
,
0100
0001
0100
1000
0000
0010
0000
0001
,
0000
0000
1000
0100
1000
0100
0010
0001
,
0000
0001
0001
0000
0100
0000
0110
0000
,
0001
0000
1000
0000
0100
0100
0000
0000
,
0001
1000
0100
0010
0000
0100
0000
0010
,
0000
0000
0001
0001
1000
0000
1000
0000
,
0101
0000
0000
1001
0000
0010
0100
0000
,
1001
0000
1000
0100
0010
0100
0001
1000
,
0100
0010
0100
1000
0100
0001
0010
0100
,
0010
1000
0100
0010
0100
0001
0010
0100
,
0000
0001
0100
0000
0010
0000
1001
0000
,
0101
0000
0010
0001
0100
0010
1000
0010
,
0100
0001
0010
0100
0010
0100
1000
0100
,
0001
0010
0100
0001
0100
1000
0010
0000
,
1001
0000
0000
1001
0000
0000
0010
0000
,
0010
0010
0010
0010
,
1001
0000
1000
0100
0010
0001
0100
0010
,
0001
0010
0100
1000
0100
0010
0001
1000
,
0100
0010
0100
0001
0010
0100
1000
0100
,
0010
0001
0010
0100
0010
0001
1000
0100
,
0010
0001
1000
0010
0100
0001
0010
0100
,
0001
0100
1000
0010
0100
0010
0001
0010
,
0100
0010
1000
0100
1000
0001
0100
0001
,
0010
0100
1000
0001
0010
0100
1000
0010
,
0001
0100
0010
0001
0100
1000
0100
0010
,
0100
0010
0001
0010
0100
1000
0100
0010
,
1000
0100
1000
0010
0001
0010
0100
0010
,
0001
1000
0001
1000
0001
1000
0010
0010
,
1000
0001
0010
0001
0010
0100
1000
0100
,
0010
0100
0001
0100
0010
1000
0000
1100
,
0000
0000
0001
0010
1000
0100
0000
0011
,
0000
0000
0000
0000
0000
0000
1000
0001
1000
0000
0000
0000
1001
0000
0000
0000
,
1000
1000
1000
1000
,
1100
0000
0000
0000
;

//---------------dance-single - BEGINNER----------------
#NOTES:
     dance-single:
     BEGINNER:
     Beginner:
     2:
     0.199,0.293,0.217,0.000,0.000,157.000,29.000,0.000,0.000,0.000:
0000
0000
0000
0000
,
0000
0000
0000
0000
,
0000
0000
0000
0000
,
1001
0000
1001
0000
,
0100
0000
0010
0000
,
1000
0000
0001
0000
,
1001
0000
0001
0000
,
0100
0001
0001
0000
,
0001
0000
0001
0000
,
0001
0000
1001
0000
,
1001
0000
1000
0000
,
0010
0000
0010
0000
,
1001
0000
1000
0000
,
0010
0000
1000
0000
,
0010
0000
0010
0000
,
0100
0000
0001
0000
,
0001
0000
0010
0000
,
1000
0000
0100
0000
,
0100
0000
1000
0000
,
0010
0000
0000
0100
,
0100
0000
0100
0000
,
1001
0000
0010
0000
,
0001
0000
0001
0000
,
0100
0000
1000
0000
,
1000
0000
0100
0000
,
0001
0000
0010
0000
,
1000
0000
0100
0000
,
0001
0000
0001
0000
,
1000
0000
0000
0000
,
1001
0000
0010
0000
,
1001
0000
0010
0000
,
1001
0000
0010
0000
,
1001
0000
0010
0000
,
1001
0000
1001
0000
,
1001
0000
1001
0000
,
1001
0000
1001
0000
,
0000
0000
0000
0000
,
0000
0000
0000
0000
,
0000
0000
0000
0000
,
0000
0000
0000
0000
,
0000
1001
0001
0000
,
0010
0000
0100
0000
,
0010
0000
1000
0000
,
0100
0000
0000
0000
,
0000
0001
0001
0000
,
1000
0000
0000
1001
,
1000
0000
1000
0000
,
1000
0000
1001
0000
,
0010
0000
0001
0000
,
0100
0000
1000
0000
,
1001
0000
0001
0000
,
1000
0000
1000
0000
,
0010
0000
0001
0000
,
0101
0000
0010
0000
,
0100
0000
0010
0000
,
0001
0000
1000
0000
,
0010
0000
0100
0000
,
0001
0000
0010
0000
,
0001
0000
0001
0000
,
0100
0000
1000
0000
,
1001
0000
0000
0000
,
1001
0000
0010
0000
,
0100
0000
0100
0000
,
0001
0000
0100
0000
,
1000
0000
0010
0000
,
0100
0000
0100
0000
,
0001
0000
0010
0000
,
0001
0000
0100
0000
,
1001
0000
0000
0000
,
0000
0000
0000
1001
,
1001
0000
0010
0000
,
0001
0000
0100
0000
,
0010
0000
0010
0000
,
0100
0000
0001
0000
,
0100
0000
0100
0000
,
0001
0000
0100
0000
,
0100
0000
1000
0000
,
1000
0000
0100
0000
,
1001
0000
0100
0000
,
0100
0000
1000
0000
,
1000
0000
0001
0000
,
0001
0000
0001
0000
,
0000
0010
0001
0000
,
0010
0000
0010
0000
,
0000
0001
1000
0000
,
0000
1000
1000
0000
,
1000
0000
1000
0000
,
1001
0000
0000
0000
;
