#TITLE:Dragonball Z;
#SUBTITLE:- Super Buu Theme;
#ARTIST:Bruce Faulconer;
#TITLETRANSLIT:;
#SUBTITLETRANSLIT:;
#ARTISTTRANSLIT:;
#CREDIT:Anime Toshokan;
#BANNER:Dragonball Z - Super Buu Theme.png;
#BACKGROUND:Dragonball Z - Super Buu Theme bg.png;
#LYRICSPATH:;
#CDTITLE:dejiko.png;
#MUSIC:Dragonball Z - Super Buu Theme.mp3;
#OFFSET:1.225;
#SAMPLESTART:10.770;
#SAMPLELENGTH:10.800;
#SELECTABLE:YES;
#DISPLAYBPM:179.000;
#BPMS:0.000=178.960,96.000=181.570,100.000=178.960,160.000=177.830,164.000=178.960,256.000=182.620,260.000=178.960,320.000=177.040,324.000=178.960;
#STOPS:;
#BGCHANGES:;
// cache tags:
#FIRSTBEAT:4.000;
#LASTBEAT:382.000;
#SONGFILENAME:Songs/DDR Anime 5th Mix/Dragonball Z - Super Buu Theme/Dragonball Z - Super Buu Theme.sm;
#HASMUSIC:1;
#HASBANNER:1;
#MUSICLENGTH:128.522;
// end cache tags

//---------------dance-single - BASIC----------------
#NOTES:
     dance-single:
     BASIC:
     Easy:
     5:
     0.436,0.632,0.000,0.584,0.000,317.000,0.000,75.000,0.000,0.000:
0000
0000
0000
0000
,
0200
0000
0000
0000
,
2300
0000
0000
0000
0000
0000
0000
0000
0000
0000
0000
3000
,
0200
0000
0000
0000
0000
0000
0000
0000
0000
0000
0000
0300
,
2000
0000
0000
0000
0000
3000
0200
0000
0000
0000
0000
0300
,
2000
0000
0000
3000
,
0100
0000
0000
2000
0000
0000
0000
0000
0000
0000
0000
3000
,
0200
0000
0000
0000
0000
0000
0000
0000
0000
0000
0000
0300
,
2000
0000
0000
0000
0000
3000
0200
0000
0000
0000
0000
0300
,
1000
0001
1000
0001
,
0010
0100
1000
0001
,
1000
1000
0010
0001
,
1000
0001
1000
0001
,
1000
0010
0100
0001
,
0010
0010
1000
0001
,
1000
1000
0010
0001
,
1000
0001
0100
0000
0001
1000
0010
0000
,
1000
0001
0010
0001
,
0100
0001
1000
0010
,
1000
0001
0001
0100
,
1000
0000
0001
1000
0010
0000
0100
0000
,
1000
0010
0100
0001
,
1000
1000
0100
0001
,
0010
1000
0100
0001
,
1000
0010
1000
0010
,
1000
0001
0100
0010
,
1000
0000
0010
0000
,
1000
0001
0100
0010
,
1000
0000
0000
0000
,
1000
0010
0001
0100
,
1000
0000
0010
1000
,
0100
0001
0100
0010
,
1000
0100
0010
0001
,
2000
3000
0002
0003
0200
0300
0020
0030
,
2000
3000
0002
0003
2000
3000
0200
0300
,
0020
0030
0200
0300
2000
3000
0002
0003
,
0200
0300
0020
0030
2000
3000
0200
0300
,
0002
0003
0200
0300
2000
3000
0200
0300
,
0002
0003
0020
0030
2000
3000
0200
0300
,
2000
3000
0200
0300
0020
0030
0002
0003
,
2000
3000
0002
0003
0020
0030
0200
0300
,
1000
0000
1000
1000
,
0001
0000
1000
0010
,
0100
0000
0100
0100
,
0001
0000
1000
0001
,
1000
0000
0010
0010
,
0001
0000
0010
0100
,
0001
0000
1000
1000
,
0001
0010
0100
1000
,
1000
0001
1000
0001
,
1000
0010
0100
0001
,
1000
0010
0001
1000
,
1000
0100
0001
0100
,
1000
0010
1000
0100
,
0001
0100
1000
0010
,
0001
0100
0100
0001
,
1000
0001
0010
0100
,
1000
0001
1000
0001
,
0010
0100
0010
0100
,
1000
0001
1000
0001
,
1000
0001
0010
1000
,
1000
0010
0001
0100
,
1000
0010
1000
0001
,
1000
0010
0100
0001
,
1000
0001
0100
0010
,
1000
1000
0001
0100
,
0010
0000
1000
0000
,
0001
1000
0001
0010
,
0100
0000
1000
0000
,
0001
0100
0010
1000
,
0001
0000
1000
0100
,
0010
0001
1000
0100
,
0010
0001
1000
0001
,
2000
3000
0020
0030
0002
0003
0200
0300
,
0002
0003
2000
3000
0020
0030
2000
3000
,
0002
0003
0200
0300
0020
0030
2000
3000
,
0002
0003
0200
0300
0020
0030
2000
3000
,
0200
0300
0002
0003
0200
0300
0020
0030
,
0200
0300
2000
3000
0002
0003
0020
0030
,
2000
3000
0200
0300
0020
0030
0002
0003
,
0200
0300
0002
0003
0020
0030
0200
0300
,
1000
0000
1000
1000
,
0010
0000
1000
0010
,
0001
0000
0010
0010
,
0100
0000
0001
0001
,
0100
0000
1000
1000
,
0001
0000
1000
0010
,
0100
0000
0001
0001
,
1000
0000
0010
0100
,
2000
0001
0000
0010
,
0000
0001
0000
0010
,
0000
0001
0000
0010
,
0000
0001
0000
0010
,
0000
0000
0000
0000
,
0000
0000
0000
0000
,
0000
0000
3000
0000
;

//---------------dance-single - ANOTHER----------------
#NOTES:
     dance-single:
     ANOTHER:
     Medium:
     8:
     0.526,0.632,0.062,0.576,0.327,391.000,8.000,74.000,0.000,0.000:
0000
0000
0000
0000
,
2000
0000
0000
0000
0000
0000
0000
0000
0000
0000
0000
0000
0000
0000
0000
3000
0100
0000
1000
0000
0000
0000
0100
0000
,
2000
0000
0000
0000
0000
0000
0000
0000
0000
0000
0000
3000
,
0200
0000
0000
0000
0000
0000
0000
0000
0000
0000
0000
0300
,
2000
0000
0000
0000
0000
3000
0200
0000
0000
0000
0000
0300
,
2000
0000
0000
0000
0000
0000
0000
0000
0000
3000
0100
0000
,
0000
0100
2000
0000
0000
0000
0000
0000
0000
0000
0000
3000
,
0200
0000
0000
0000
0000
0000
0000
0000
0000
0000
0000
0300
,
2000
0000
0000
0000
3000
0100
0000
0000
0100
1000
0000
0000
,
1000
0000
0000
0001
0000
0100
1000
0000
0000
0001
0000
0000
,
0100
0000
0000
1000
0000
0010
0100
0000
0000
0001
0000
0000
,
1000
0000
0000
1000
0000
0100
0010
0000
0000
0001
0000
0000
,
1000
0000
0000
0001
0000
0001
1000
0000
1000
0001
0000
0000
,
1000
0000
0000
0001
0000
0010
1000
0000
0000
0001
0000
0000
,
0010
0000
0000
0010
0000
0001
1000
0000
0000
0001
0000
0000
,
1000
0000
0000
1000
0000
0100
0001
0000
0000
0001
0000
0000
,
1000
0000
0010
0100
0000
0010
0100
0000
0010
0100
0000
0000
,
1000
0000
0000
0001
0000
0001
0010
0000
0000
0001
0000
0000
,
0100
0000
0000
0001
0000
0001
1000
0000
0000
0010
0000
0000
,
1000
0000
0000
0001
0000
0010
0001
0000
0000
0100
0000
0000
,
1000
0000
0000
0001
0000
0001
0010
0000
0010
0100
0000
0100
,
1000
0000
0000
0010
0000
0010
0100
0000
0000
0001
0000
0000
,
1000
0000
0000
1000
0000
0001
0100
0000
0000
0001
0000
0000
,
0010
0000
0000
1000
0000
0010
0100
0000
0000
0001
0000
0000
,
1000
0000
0100
0001
0000
0100
1000
0000
0100
0001
0000
0000
,
1000
0001
0100
0010
,
1000
0010
0001
0100
,
1000
0001
0100
0010
,
1000
1001
0000
1001
,
1000
0010
0001
0100
,
1000
0001
0010
1000
,
0100
0001
0100
0010
,
1000
0110
0010
1001
,
2000
3002
0203
0320
,
2030
3002
2003
3200
,
0320
0230
2300
3002
,
0203
0320
2030
3200
,
0302
0203
2300
3200
,
0302
0023
2030
3200
,
2300
3200
0320
0032
,
2003
3002
0023
0230
,
1300
0000
0000
0000
0000
1000
0000
0000
1000
0000
0000
1000
,
0001
0000
0000
0000
0000
0001
1000
0000
0000
0000
0000
0000
,
0100
0000
0000
0000
0000
0100
0000
0000
0100
0000
0000
0010
,
0001
0000
0000
0000
0000
0010
1000
0000
0000
0000
0000
0000
,
1000
0000
0000
0000
0000
0010
0000
0000
0010
0000
0000
0100
,
0001
0000
0000
0000
0000
1000
0010
0000
0000
0000
0000
0000
,
0001
0000
0000
0000
0000
0010
0000
0000
0010
0000
0000
1000
,
0001
0010
0100
1000
,
1000
0000
0000
0001
0000
0100
1000
0000
0000
0001
0000
0000
,
1000
0000
0000
1000
0000
0010
0001
0000
0000
0001
0000
0000
,
1000
0000
0000
0001
0000
0100
1000
0000
0000
0001
0000
0000
,
1000
0000
0000
0100
0000
0010
0100
0000
0010
0001
0000
0000
,
0100
0000
0000
0010
0000
0010
1000
0000
0000
0100
0000
0000
,
0001
0000
0000
0100
0000
0100
1000
0000
0000
0010
0000
0000
,
1000
0000
0000
0100
0000
1000
0100
0000
0000
0001
0000
0000
,
1000
0000
0010
0001
0000
0001
0010
0000
1000
0001
0000
0000
,
1000
0000
0000
0001
0000
0010
1000
0000
0000
0001
0000
0000
,
0010
0000
0000
0100
0000
0001
0010
0000
0000
0100
0000
0000
,
1000
0000
0000
0001
0000
0001
1000
0000
0000
0001
0000
0000
,
1000
0000
0000
0001
0000
0001
0010
0000
0010
1000
0000
0000
,
1000
0000
0000
0010
0000
0010
0001
0000
0000
0100
0000
0000
,
1000
0000
0000
0010
0000
0001
1000
0000
0000
0001
0000
0000
,
1000
0000
0000
0001
0000
0100
1000
0000
0000
0001
0000
0000
,
1000
0000
0010
0001
0000
0100
0010
0000
1000
0100
0000
0001
,
0010
1000
0001
0100
,
0010
0001
1000
0100
,
0001
1000
0001
0010
,
0100
1010
1000
1100
,
0001
0100
0010
1000
,
0001
0100
1000
0100
,
0010
0001
1000
0100
,
0010
1001
0001
0101
,
2000
3020
0032
0203
,
0302
2003
3020
2030
,
3002
0203
0320
2030
,
3020
0032
0023
2030
,
3200
0302
0203
0320
,
0230
2300
3002
0023
,
2030
3200
0320
0032
,
0203
0302
0023
0230
,
1300
0000
0000
0000
0000
1000
0000
0000
1000
0000
0000
0100
,
0010
0000
0000
0000
0000
0001
1000
0000
0000
0000
0000
0000
,
0001
0000
0000
0000
0000
0100
0000
0000
0100
0000
0000
0010
,
0100
0000
0000
0000
0000
0001
1000
0000
0000
0000
0000
0000
,
0100
0000
0000
0000
0000
1000
0000
0000
1000
0000
0000
0010
,
0001
0000
0000
0000
0000
0010
1000
0000
0000
0000
0000
0000
,
0001
0000
0000
0000
0000
0010
0000
0000
0010
0000
0000
1000
,
0100
0000
0000
0000
0000
0001
0010
0000
0000
0000
0000
0000
,
2000
0001
0010
0001
,
0010
0001
0010
0001
,
0010
0001
0010
0001
,
0010
0001
0010
0001
,
0000
0000
0000
0000
,
0000
0000
0000
0000
,
0000
0000
3000
0000
;

//---------------dance-single - MANIAC----------------
#NOTES:
     dance-single:
     MANIAC:
     Hard:
     9:
     0.679,0.706,0.327,0.591,0.611,493.000,42.000,76.000,0.000,0.000:
0000
0000
0000
0000
,
2001
0000
0000
0000
0000
0000
0100
0000
0000
0000
0000
0000
0001
0000
0000
3000
0100
0000
1000
0000
0000
0000
0100
0000
,
2000
0000
0000
0001
0000
0000
0100
0000
0000
0001
0000
3000
,
0200
0000
0000
0001
0000
0000
0010
0000
0000
0001
0000
0300
,
2000
0000
0000
0001
0000
3000
0210
0000
0000
0001
0000
0300
,
2000
0000
0000
0001
0000
0000
0010
0000
0000
3001
0100
0000
,
0000
0100
2000
0000
0000
0000
0010
0000
0000
0001
0000
3000
,
0200
0000
0000
0001
0000
0000
0010
0000
0000
0001
0000
0300
,
2000
0000
0000
0001
3000
0100
0000
0000
0100
1000
0000
0000
,
1000
0000
0000
0001
0010
0100
1000
0000
0000
0001
0000
0000
,
0100
0000
0000
1000
0001
0010
0100
0000
0000
0001
0000
0000
,
1000
0000
0000
1000
0001
0100
0010
0000
0000
0001
0000
0000
,
1000
0000
0000
0001
0010
0001
1000
0100
1000
0001
0000
1000
,
1000
0000
0000
0001
0100
0010
1000
0000
0000
0001
0000
0000
,
0010
0000
0000
0010
0100
0001
1000
0000
0000
0001
0000
0000
,
1000
0000
0000
1000
0010
0100
0001
0000
0000
0001
0000
0000
,
1000
0001
0010
0100
0010
0100
0001
0010
1000
0010
0100
0001
,
1000
0000
0000
0001
1000
0001
0010
0000
0000
0001
0000
0000
,
0100
0000
0000
0001
0010
0001
1000
0000
0000
0010
0000
0000
,
1000
0000
0000
0001
0100
0010
0001
0000
0000
0100
0000
0000
,
1000
0000
0000
0001
0010
0001
0010
0100
0010
0100
1000
0100
,
1000
0000
0000
0010
0100
0010
0100
0000
0000
0001
0000
0000
,
1000
0000
0000
1000
0010
0001
0100
0000
0000
0001
0000
0000
,
0010
0000
0000
1000
0001
0010
0100
0000
0000
0001
0000
0000
,
1000
0010
0100
0001
0010
0100
1000
0010
0100
0001
1000
0001
,
1000
1001
0100
0110
,
1000
0101
0100
1100
,
1000
0011
0100
1010
,
1000
1001
0010
0101
,
1000
1010
0001
1100
,
0001
0110
0100
1001
,
0101
0011
1010
1100
,
1001
0110
0101
1100
,
2000
3002
0203
0320
,
2030
0000
0000
0000
0000
0000
3002
0000
0000
0000
0000
0000
2003
0000
0000
0000
0000
0000
3020
0000
0030
0200
0000
0000
,
0320
0230
2300
3002
,
0203
0000
0000
0320
0000
0000
2030
3000
0100
0020
0000
0000
,
0032
0203
2300
3200
,
0302
0023
2030
3200
,
2300
3200
0320
0032
,
2003
3002
0023
0230
,
1300
0000
0100
0000
0000
1000
0000
0000
1000
0000
0000
1000
,
0001
0000
0000
0000
0000
0001
1000
0000
0000
0010
0000
0000
,
0100
0000
1000
0000
0000
0100
0000
0000
0100
0000
0000
0010
,
0001
0000
0000
0000
0000
0010
1000
0000
0000
0001
0000
0000
,
1000
0000
0010
0000
0000
0010
0000
0000
0010
0000
0000
0100
,
0001
0000
0000
0000
0000
1000
0010
0000
0000
0100
0000
0000
,
0001
0000
0010
0000
0000
0010
0000
0000
0010
0000
0000
1000
,
0001
0010
0100
1000
,
1000
0000
0000
0001
0010
0100
1000
0000
0000
0001
0000
0000
,
0001
0000
0000
1000
0100
0010
0001
0000
0000
1000
0000
0000
,
1000
0000
0000
0001
0010
0100
1000
0000
0000
0001
0000
0000
,
1000
0000
0000
0100
1000
0010
0100
0001
0010
0001
0000
1000
,
0100
0000
0000
0010
0001
0010
1000
0000
0000
0100
0000
0000
,
0001
0000
0000
0100
0010
0100
1000
0000
0000
0010
0000
0000
,
1000
0000
0000
0100
0001
1000
0100
0000
0000
0001
0000
0000
,
1000
0100
0010
0001
1000
0001
0010
0100
1000
0001
1000
0100
,
1000
0000
0000
0001
0100
0010
1000
0000
0000
0001
0000
0000
,
0010
0000
0000
0100
1000
0001
0010
0000
0000
0100
0000
0000
,
1000
0000
0000
0001
0010
0001
1000
0000
0000
0001
0000
0000
,
1000
0000
0000
0001
1000
0001
0010
0100
0010
1000
0001
1000
,
1000
0000
0000
0010
0100
0010
0001
0000
0000
0100
0000
0000
,
1000
0000
0000
0010
0100
0001
1000
0000
0000
0001
0000
0000
,
1000
0000
0000
0001
0010
0100
1000
0000
0000
0001
0000
0000
,
1000
0100
0010
0001
0010
0100
0010
0100
1000
0100
0010
0001
,
0010
1010
0001
0101
,
0010
1100
1000
0101
,
0001
0110
0001
1010
,
0100
1001
0010
0101
,
0001
0011
0010
1010
,
0001
0101
1000
1100
,
1010
0011
0101
1100
,
0101
1100
0011
1010
,
2000
3020
0032
0203
,
0302
0000
2003
0000
3020
0000
0032
2003
,
3002
0203
0320
2030
,
3020
0000
0000
0032
0000
0000
0023
0030
0100
2000
0000
0000
,
3200
0302
0203
0320
,
0230
2300
3002
0023
,
2030
3200
0320
0032
,
0203
0302
0023
0230
,
1300
0000
1000
0000
0000
1000
0000
0000
1000
0000
0000
0100
,
0010
0000
0000
0000
0000
0001
1000
0000
0000
0010
0000
0000
,
0001
0000
0001
0000
0000
0100
0000
0000
0100
0000
0000
0010
,
0100
0000
0000
0000
0000
0001
1000
0000
0000
0001
0000
0000
,
0100
0000
0100
0000
0000
1000
0000
0000
1000
0000
0000
0010
,
0001
0000
0000
0000
0000
0010
1000
0000
0000
1000
0000
0000
,
0001
0000
0001
0000
0000
0010
0000
0000
0010
0000
0000
1000
,
0100
0000
0000
0000
0000
0001
0010
0000
0000
0100
0000
0000
,
2000
0000
0000
0001
0000
0001
0100
0000
0000
0001
0000
0001
,
0100
0000
0000
0001
0000
0001
0100
0000
0000
0001
0000
0001
,
0100
0000
0000
0001
0000
0001
0010
0000
0000
0001
0000
0001
,
0010
0000
0000
0001
0000
0001
0010
0000
0000
0001
0000
0000
,
0000
0000
0000
0000
,
0000
0000
0000
0000
,
0000
0000
3000
0000
;

//---------------dance-single - BEGINNER----------------
#NOTES:
     dance-single:
     BEGINNER:
     Beginner:
     2:
     0.238,0.325,0.000,0.288,0.000,177.000,0.000,37.000,0.000,0.000:
0000
0000
0000
0000
,
0200
0000
0300
0000
,
2000
0000
3000
0000
,
0200
0000
0300
0000
,
1000
0000
0100
0000
,
2000
0000
3000
0000
,
0100
0000
0000
0000
,
0200
0000
0300
0000
,
1000
0000
0100
0000
,
1000
0000
1000
0000
,
0010
0000
1000
0000
,
1000
0000
0010
0000
,
1000
0000
1000
0000
,
1000
0000
0100
0000
,
0010
0000
1000
0000
,
1000
0000
0010
0000
,
1000
0000
0001
0000
,
1000
0000
0010
0000
,
0100
0000
1000
0000
,
1000
0000
0001
0000
,
1000
0000
0010
0000
,
1000
0000
0100
0000
,
1000
0000
0100
0000
,
0010
0000
0100
0000
,
1000
0000
1000
0000
,
1000
0000
0100
0000
,
1000
0000
0010
0000
,
1000
0000
0100
0000
,
1000
0000
0000
0000
,
1000
0000
0001
0000
,
1000
0000
0010
0000
,
0100
0000
0100
0000
,
1000
0000
0010
0000
,
2000
3000
0000
0000
0200
0300
0000
0000
,
2000
3000
0000
0000
2000
3000
0000
0000
,
0020
0030
0000
0000
2000
3000
0000
0000
,
0200
0300
0000
0000
2000
3000
0000
0000
,
0002
0003
0000
0000
2000
3000
0000
0000
,
0002
0003
0000
0000
2000
3000
0000
0000
,
2000
3000
0000
0000
0020
0030
0000
0000
,
2000
3000
0000
0000
0020
0030
0000
0000
,
1000
0000
1000
0000
,
0001
0000
1000
0000
,
0100
0000
0100
0000
,
0001
0000
1000
0000
,
1000
0000
0010
0000
,
0001
0000
0010
0000
,
0001
0000
1000
0000
,
0001
0000
0100
0000
,
1000
0000
1000
0000
,
1000
0000
0100
0000
,
1000
0000
0001
0000
,
1000
0000
0001
0000
,
1000
0000
1000
0000
,
0001
0000
1000
0000
,
0001
0000
0100
0000
,
1000
0000
0010
0000
,
1000
0000
1000
0000
,
0010
0000
0010
0000
,
1000
0000
1000
0000
,
1000
0000
0010
0000
,
1000
0000
0001
0000
,
1000
0000
1000
0000
,
1000
0000
0100
0000
,
1000
0000
0100
0000
,
1000
0000
0001
0000
,
0010
0000
1000
0000
,
0001
0000
0001
0000
,
0100
0000
1000
0000
,
0001
0000
0010
0000
,
0001
0000
1000
0000
,
0010
0000
1000
0000
,
0010
0000
1000
0000
,
2000
3000
0000
0000
0002
0003
0000
0000
,
0002
0003
0000
0000
0020
0030
0000
0000
,
0002
0003
0000
0000
0020
0030
0000
0000
,
0002
0003
0000
0000
0020
0030
0000
0000
,
0200
0300
0000
0000
0200
0300
0000
0000
,
0200
0300
0000
0000
0002
0003
0000
0000
,
2000
3000
0000
0000
0020
0030
0000
0000
,
0200
0300
0000
0000
0020
0030
0000
0000
,
1000
0000
1000
0000
,
0010
0000
1000
0000
,
0001
0000
0010
0000
,
0100
0000
0001
0000
,
0100
0000
1000
0000
,
0001
0000
1000
0000
,
0100
0000
0001
0000
,
1000
0000
0010
0000
,
0001
0000
0010
0000
,
0000
0001
0000
0010
,
0000
0001
0000
0010
,
0000
0001
0000
0010
;
