#TITLE:Vandread;
#SUBTITLE:- Justice;
#ARTIST:Aki Kudou;
#TITLETRANSLIT:;
#SUBTITLETRANSLIT:;
#ARTISTTRANSLIT:;
#CREDIT:Anime Toshokan;
#BANNER:Vandread - Justice.png;
#BACKGROUND:Vandread - Justice bg.png;
#LYRICSPATH:;
#CDTITLE:dejiko.png;
#MUSIC:Vandread - Justice.mp3;
#OFFSET:-0.341;
#SAMPLESTART:65.230;
#SAMPLELENGTH:14.300;
#SELECTABLE:YES;
#BPMS:0.000=133.000;
#STOPS:;
#BGCHANGES:-0.900=Vandread - Justice.avi=1.000=0=0=1,
191.500=Vandread - Justice bg.png=1.000=0=0=1,
99999=-nosongbg-=1.000=0=0=0 // don't automatically add -songbackground-
;
// cache tags:
#FIRSTBEAT:4.000;
#LASTBEAT:191.500;
#SONGFILENAME:Songs/DDR Anime 5th Mix/Vandread - Justice/Vandread - Justice.sm;
#HASMUSIC:1;
#HASBANNER:1;
#MUSICLENGTH:87.779;
// end cache tags

//---------------dance-single - BASIC----------------
#NOTES:
     dance-single:
     BASIC:
     Easy:
     3:
     0.303,0.300,0.114,0.000,0.000,176.000,10.000,0.000,0.000,0.000:
0000
0000
0000
0000
,
0010
0010
0100
0100
,
1000
0001
0100
0010
,
1000
0100
0010
0001
,
0100
0010
1000
0001
,
0100
0010
0100
0010
,
1000
0001
1000
0001
,
0010
0100
1000
0001
,
1000
0100
1000
0100
,
0010
0001
0010
0001
,
0000
0000
0000
0000
,
0101
1010
0100
0100
,
0001
0001
0100
0010
,
1100
0011
0100
0100
,
1000
1000
0100
0010
,
1000
0001
1000
0001
,
0010
0100
1000
0010
,
0001
1000
0001
1000
,
0010
0100
0010
0000
,
1000
0010
0001
0001
,
0010
0001
0010
0001
,
0110
1001
0100
0100
,
1000
0100
1000
0100
,
0001
0010
1000
1000
,
0010
1000
0010
1000
,
0110
1001
0100
0100
,
0001
0100
0001
0100
,
0010
1000
1000
0000
,
0010
0001
0001
0000
,
0100
1000
1000
0000
,
0001
0100
0100
0000
,
1000
0010
0010
0000
,
0100
0001
0001
0000
,
1000
0010
0100
0000
,
0001
0010
0100
0000
,
0010
0010
0100
0010
,
1001
0010
0100
0100
,
1000
0001
0100
0010
,
1000
0100
0010
0001
,
0100
0010
1000
0010
,
1001
0010
0100
0010
,
1000
0001
1000
0001
,
0010
0100
1000
0001
,
1000
0100
1000
0100
,
0010
0001
0010
0001
,
0100
1000
0100
1000
,
0001
0010
0001
1000
,
0001
0000
1000
0000
0000
0001
1000
0001
;

//---------------dance-single - ANOTHER----------------
#NOTES:
     dance-single:
     ANOTHER:
     Medium:
     6:
     0.417,0.464,0.103,0.034,0.068,244.000,9.000,3.000,0.000,0.000:
0000
0000
0000
0000
,
1000
1000
0001
0001
,
1000
0100
1000
0001
0010
0001
0010
0000
,
0100
0010
0100
0010
,
0001
0010
0001
1000
0010
1000
0010
0000
,
1000
0001
1000
0001
,
0100
0001
0100
0010
1000
0010
1000
0000
,
0010
1000
0100
0001
,
0010
0000
1000
0000
0000
1000
0001
2000
,
0000
0000
0000
0000
0000
0000
0000
3000
,
0000
0000
0000
0000
,
1001
0000
0110
0000
1000
0001
1000
0000
,
0010
0000
0100
0000
0001
1000
0001
0000
,
0100
0000
0010
0000
1000
0100
1000
0000
,
0010
0001
0100
1000
0000
0000
0000
0000
,
0011
0000
1100
0000
0001
1000
0001
0000
,
0010
0000
0100
0000
1000
0001
1000
0000
,
0100
0000
0010
0000
0001
0100
0001
0000
,
0010
1000
0100
0001
0000
0000
0000
0000
,
0001
0100
0001
0010
0001
0100
0001
0010
,
0001
1000
0001
0010
0001
1000
0001
0000
,
0110
0000
1001
0000
0100
0010
0100
0010
,
1000
0001
1000
0001
0100
0010
0100
0010
,
1000
0100
1000
0010
1000
0100
1000
0010
,
1000
0001
1000
0010
1000
0001
1000
0000
,
0110
0000
1001
0000
0100
0010
0100
0010
,
0001
1000
0001
1000
0000
0000
0000
0000
,
1000
0000
0000
1000
0100
0000
0000
0000
0010
0000
0000
0010
0001
0000
0000
0000
,
0100
0000
0000
0100
0010
0000
0000
0000
1000
0000
0000
1000
0100
0000
0000
0000
,
0010
0000
0000
0010
0001
0000
0000
0000
0100
0000
0000
0100
0010
0000
0000
0000
,
1000
1000
0001
0001
,
0001
0000
0000
0001
0100
0000
0000
0000
0010
0000
0000
0010
1000
0000
0000
0000
,
0100
0000
0000
0100
0010
0000
0000
0000
0001
0000
0000
0001
0100
0000
0000
0000
,
0010
0000
0000
0010
1000
0000
0000
0000
0100
0000
0000
0100
0010
0000
0000
0000
,
0001
0001
1000
1000
,
0000
0001
0010
0100
1000
0010
0100
0001
,
1000
1000
0001
0001
,
1000
0010
0100
0001
0010
0100
1000
0000
,
0001
0001
1000
1000
,
1000
0010
0100
0001
0010
0100
1000
0000
,
0010
0100
0001
1000
,
0001
0010
0001
0100
0010
1000
0010
0000
,
1000
0100
0010
0001
,
0200
0000
0000
0300
0000
0001
1000
0002
,
0000
0000
0000
0003
0000
0000
0000
0000
,
1000
0100
1000
0000
0001
0010
0001
0000
,
0100
0010
0100
0000
0001
1000
0001
0000
,
1000
0001
1000
0000
0000
0100
0010
1001
;

//---------------dance-single - MANIAC----------------
#NOTES:
     dance-single:
     MANIAC:
     Hard:
     8:
     0.513,0.491,0.103,0.114,0.245,296.000,9.000,10.000,0.000,0.000:
0000
0000
0000
0000
,
1000
0000
0000
0000
0100
0000
1000
0000
0100
0000
0000
0010
0000
0000
0010
0000
,
0001
0000
0100
0000
0010
0000
1000
0000
0100
0000
0000
0010
0000
0000
0000
0000
,
0001
0000
0000
0000
0100
0000
0010
0000
1000
0000
0000
0001
0000
0000
0100
0000
,
0010
0000
0100
0000
0001
0000
1000
0000
0001
1000
0000
0010
0000
0000
0000
0000
,
0001
0000
0000
0000
0100
0000
0001
0000
0100
0000
0000
0010
0000
0000
0010
0000
,
1000
0000
0100
0000
0010
0000
0001
0000
0100
0000
0000
0010
0000
0000
0001
0000
,
1000
0000
0000
0100
0000
0000
0010
0000
0001
0000
0000
1000
0000
0000
0100
0000
,
0010
0000
0001
1000
0001
0010
0100
0020
,
0000
0000
0000
0000
,
0000
0030
0000
0000
0000
0000
0000
0000
,
1001
0000
0000
0000
0110
0000
0000
0000
0001
0000
0010
0001
0000
0010
0001
0000
,
1000
0000
0010
1000
0000
0010
1000
0000
0001
0000
0100
0000
1000
0000
0100
0000
,
0010
0000
0000
0000
1001
0000
0000
0000
0100
0000
0001
0100
0000
0001
0100
0000
,
0010
1000
0100
0020
0000
0030
0000
0000
,
1100
0000
0000
0000
0011
0000
0000
0000
1000
0000
0100
1000
0000
0100
1000
0000
,
0010
0000
0001
0010
0000
0001
0010
0000
0100
0000
1000
0000
0001
0000
0100
0000
,
0010
0000
0000
0000
1001
0000
0000
0000
0100
0000
1000
0100
0000
1000
0100
0000
,
0010
0000
0001
0000
0100
0000
0020
0000
0000
0000
0000
0030
0000
0000
0000
0000
,
0001
0010
0001
0100
0001
0010
0001
0100
,
0001
1000
0001
0100
0001
1000
0001
0100
,
0010
0000
0000
0000
1001
0000
0000
0000
0010
0000
1000
0100
0000
1000
0100
0000
,
0010
0000
0001
0010
0000
0001
0010
0000
0100
0000
1000
0000
0100
0000
0010
0000
,
1000
0010
1000
0100
1000
0010
1000
0100
,
1000
0001
1000
0100
1000
0001
1000
0100
,
0010
0000
0000
0000
1001
0000
0000
0000
0100
0000
0001
0100
0000
0001
0100
0000
,
0010
0000
1000
0000
0100
0000
0020
0000
0000
0000
0000
0030
0000
0000
0000
0000
,
1000
1000
0001
0001
0100
0100
0010
0010
,
1000
1000
0100
0100
0010
0010
0001
0001
,
1000
0100
1000
0100
0010
0001
0010
0001
,
2000
0000
0000
0000
0000
3000
0000
0000
0000
0000
0000
0000
0000
0000
0000
0000
,
0001
0001
1000
1000
0100
0100
0010
0010
,
0001
0001
0100
0100
0010
0010
1000
1000
,
0001
0100
0001
0100
0010
1000
0010
1000
,
0002
0000
0000
0000
0000
0003
0000
0000
0000
0000
0010
0000
0100
0000
0010
0000
,
0000
0000
0100
0000
1000
0000
0100
0000
0010
0001
0010
0000
0001
0000
0100
0000
,
0001
0000
0000
0000
0100
0000
0001
0000
0100
0000
0000
0010
0000
0000
0010
0000
,
1000
0000
0100
0000
0010
0000
0001
0000
0100
0000
0000
0010
0000
0000
0000
0000
,
1000
0000
0000
0000
0100
0000
0010
0000
0001
0000
0000
1000
0000
0000
0100
0000
,
0010
0000
0100
0000
1000
0000
0001
0000
1000
0001
0000
0010
0000
0000
0000
0000
,
1000
0000
0000
0000
0100
0000
1000
0000
0100
0000
0000
0010
0000
0000
0010
0000
,
0001
0000
0100
0000
0010
0000
1000
0000
0100
0000
0000
0010
0000
0000
1000
0000
,
0001
0000
0000
0100
0000
0000
0010
0000
1000
0000
0000
0001
0000
0000
0100
0000
,
0010
0000
1000
0001
1000
0010
0100
0002
,
0000
0003
0000
0000
1000
0000
0000
0000
0100
0000
1000
0100
0000
1000
0100
0000
,
0002
0000
0000
0000
0000
0000
0003
0000
0000
0000
0100
1000
0000
0100
1000
0000
,
0002
0000
0000
0000
0000
0000
0000
0000
0000
0000
0003
0000
0000
0000
1000
0100
,
0000
1000
0100
0000
0002
0000
0003
0000
0000
0000
0010
0000
0100
0000
1001
0000
;

//---------------dance-single - BEGINNER----------------
#NOTES:
     dance-single:
     BEGINNER:
     Beginner:
     2:
     0.158,0.161,0.068,0.000,0.000,91.000,6.000,0.000,0.000,0.000:
0000
0000
0000
0000
,
0010
0000
0100
0000
,
1000
0000
0100
0000
,
1000
0000
0010
0000
,
0100
0000
1000
0000
,
0100
0000
0100
0000
,
1000
0000
1000
0000
,
0010
0000
1000
0000
,
1000
0000
1000
0000
,
0010
0000
0010
0000
,
0000
0000
0000
0000
,
0101
0000
0100
0000
,
0001
0000
0100
0000
,
1100
0000
0100
0000
,
1000
0000
0100
0000
,
1000
0000
1000
0000
,
0010
0000
1000
0000
,
0001
0000
0001
0000
,
0010
0000
0010
0000
,
1000
0000
0001
0000
,
0010
0000
0010
0000
,
0110
0000
0100
0000
,
1000
0000
1000
0000
,
0001
0000
1000
0000
,
0010
0000
0010
0000
,
0110
0000
0100
0000
,
0001
0000
0001
0000
,
0010
0000
1000
0000
,
0010
0000
0001
0000
,
0100
0000
1000
0000
,
0001
0000
0100
0000
,
1000
0000
0010
0000
,
0100
0000
0001
0000
,
1000
0000
0100
0000
,
0001
0000
0100
0000
,
0010
0000
0100
0000
,
1001
0000
0100
0000
,
1000
0000
0100
0000
,
1000
0000
0010
0000
,
0100
0000
1000
0000
,
1001
0000
0100
0000
,
1000
0000
1000
0000
,
0010
0000
1000
0000
,
1000
0000
1000
0000
,
0010
0000
0010
0000
,
0100
0000
0100
0000
,
0001
0000
0001
0000
,
0001
0000
0000
0000
;
