#TITLE:Chobits;
#SUBTITLE:- Let Me Be With You;
#ARTIST:Round Table feat. Nino;
#TITLETRANSLIT:;
#SUBTITLETRANSLIT:;
#ARTISTTRANSLIT:;
#CREDIT:Anime Toshokan;
#BANNER:Chobits - Let Me Be With You.png;
#BACKGROUND:Chobits - Let Me Be With You bg.png;
#LYRICSPATH:;
#CDTITLE:dejiko.png;
#MUSIC:Chobits - Let Me Be With You.mp3;
#OFFSET:3.223;
#SAMPLESTART:14.850;
#SAMPLELENGTH:14.600;
#SELECTABLE:YES;
#BPMS:0.000=66.110;
#STOPS:;
#BGCHANGES:13.250=Chobits - Let Me Be With You.avi=1.000=0=0=1,
97.500=Chobits - Let Me Be With You bg.png=1.000=0=0=1,
99999=-nosongbg-=1.000=0=0=0 // don't automatically add -songbackground-
;
// cache tags:
#FIRSTBEAT:7.500;
#LASTBEAT:101.500;
#SONGFILENAME:Songs/DDR Anime 1st Mix/Chobits - Let Me Be With You/Chobits - Let Me Be With You.sm;
#HASMUSIC:1;
#HASBANNER:1;
#MUSICLENGTH:89.869;
// end cache tags

//---------------dance-single - BASIC----------------
#NOTES:
     dance-single:
     BASIC:
     Easy:
     2:
     0.108,0.097,0.022,0.000,0.000,66.000,2.000,0.000,0.000,0.000:
0000
0000
0000
0000
,
0000
0000
0000
0000
0000
0000
0000
1001
,
0000
0000
0000
0100
0000
0000
0000
0100
,
0000
0000
0000
0010
0000
0000
0000
0010
,
0000
0000
0000
1000
0000
1000
0000
0001
,
0000
0001
0000
0100
0000
0000
0000
1000
,
0000
0000
0000
0100
0000
0000
0000
0010
,
0000
0000
0000
0001
0000
0000
0000
1000
,
0000
0000
0000
0010
0000
0000
0000
0100
,
0000
0000
0000
0001
0000
0001
0000
0001
,
0000
0000
0000
0100
0000
0100
0000
0100
,
0000
0000
0000
0001
0000
0001
0000
0001
,
0000
0000
0000
0010
0000
0010
0000
0010
,
0000
0010
0000
1000
0000
1000
0000
0001
,
0000
0001
0000
0100
0000
0000
0000
0000
,
0000
0001
0000
1000
0000
1000
0000
0010
,
0000
0010
0000
0100
0000
0000
0000
0000
,
0000
0100
0000
0010
0000
0010
0000
1000
,
0000
1000
0000
0001
0000
0000
0000
0000
,
0000
1000
0000
0100
0000
0100
0000
0010
,
0000
0010
0000
0001
0000
0000
0000
0000
,
0000
1000
0000
0001
0000
0001
0000
1000
,
0000
0100
0000
0010
0000
0000
0000
0000
,
0000
0001
0000
0001
0000
1000
0000
0100
,
0000
0100
0000
0010
0000
0000
0000
0000
,
1001
0000
0000
0000
;

//---------------dance-single - ANOTHER----------------
#NOTES:
     dance-single:
     ANOTHER:
     Medium:
     4:
     0.197,0.181,0.345,0.000,0.000,93.000,31.000,0.000,0.000,0.000:
0000
0000
0000
0000
,
0000
0000
0000
0000
0000
0000
0000
0110
,
0000
0000
0000
0000
1000
1000
1000
0001
,
0001
0000
0000
1000
0000
0001
0000
0100
,
0000
0000
0000
0100
0000
0010
0000
0110
,
0000
0010
0000
0010
0000
0100
0000
0100
,
0000
0100
0000
0000
1000
0001
1000
0001
,
0000
0000
0000
1001
0000
0000
0000
0010
,
0000
0001
0000
0011
0000
0000
0000
1000
,
0000
0100
0000
1100
0000
0000
0000
0001
,
0000
0100
0000
0101
0000
0000
0000
1000
,
0000
0010
0000
1010
0000
0000
0000
0010
,
0000
0110
0000
0010
0000
0100
0000
0000
,
0000
1010
0000
0011
0000
0010
0000
0100
,
0000
1100
0000
0101
0000
0100
0100
0100
,
0000
1010
0000
0011
0000
0010
0000
0100
,
0000
1100
0000
0101
0000
0010
0010
0010
,
0000
1100
0000
0101
0000
0100
0000
0010
,
0000
1010
0000
0011
0000
0100
0100
0100
,
0000
1100
0000
0101
0000
0100
0000
0010
,
0000
1010
0000
0011
0000
0010
0010
0010
,
0000
1010
0000
1100
0000
1000
0000
0001
,
0000
0011
0000
0101
0000
1000
0001
1000
,
0000
0011
0000
0101
0000
0001
0000
1000
,
0000
1001
0000
0000
1000
0001
0010
0100
,
0001
0000
0000
0000
;

//---------------dance-single - MANIAC----------------
#NOTES:
     dance-single:
     MANIAC:
     Hard:
     6:
     0.339,0.417,0.534,0.000,0.200,165.000,48.000,0.000,0.000,0.000:
0000
0000
0000
0000
,
0000
0000
0000
0000
0000
0000
0000
1001
,
0000
1000
0001
0000
1010
0011
1001
1100
,
0101
0000
0000
0010
0001
0010
1000
0010
,
0000
0100
0000
0100
0010
0100
0000
1000
,
0000
0001
1000
0001
0000
0001
0000
1000
,
0001
1000
0000
0000
1010
0011
1100
0101
,
0000
0010
0001
1000
0000
0010
0000
0100
,
1000
0100
0000
0001
0000
0100
0001
0100
,
0101
1000
0000
0100
0010
0100
0000
0001
,
0000
0010
0100
0010
0000
1000
0001
1000
,
0001
1000
0000
0010
0000
0100
0000
0010
,
0001
0100
0000
0001
0010
1000
0100
0000
,
0000
1000
0100
0000
1000
0100
0000
0000
0000
0001
0100
0000
0001
0100
0000
0000
,
0000
1000
0001
0000
1000
0001
0000
0000
1001
0000
0110
0000
1001
0000
0110
0000
,
1001
1000
0010
0000
1000
0010
0000
0000
0000
0001
0010
0000
0001
0010
0000
0000
,
0000
0001
1000
0000
0001
1000
0000
0000
0110
0000
1001
0000
0110
0000
1001
0000
,
0110
0001
1000
0000
1000
0001
0000
0000
0000
1000
0001
0000
0001
1000
0000
0000
,
0000
0100
0100
0000
0010
0010
0000
0000
0110
0000
0110
0000
0110
0000
1001
0000
,
1001
1001
1001
0000
0110
0110
0000
0000
0000
1010
1010
0000
0101
0101
0000
0000
,
0000
0011
0011
0000
1100
1100
0000
0000
0010
0000
1000
0000
0010
0000
0001
0000
,
0100
1000
0001
0000
1000
0001
0000
0000
0000
0100
0010
0000
0100
0010
0000
0000
,
0000
1000
1000
0000
0001
0001
0000
0000
1001
0000
1001
0000
1001
0000
0110
0000
,
0110
0010
0010
0000
0100
0100
0000
0000
0000
1000
1000
0000
0001
0001
0000
0000
,
0000
0010
0100
0000
1000
0001
0000
0000
1010
0000
0011
0000
1001
0000
1100
0000
,
0101
0000
0000
0000
;

//---------------dance-single - SMANIAC----------------
#NOTES:
     dance-single:
     SMANIAC:
     Challenge:
     7:
     0.412,0.409,0.512,0.134,0.517,201.000,46.000,12.000,0.000,0.000:
0000
0000
0000
0000
,
0000
0000
0000
0000
0000
0000
0000
1001
,
0000
1000
0001
0000
1000
0001
0000
0000
1010
0000
1010
0000
0101
0000
0011
0000
,
0101
0010
0001
0000
0010
0001
0000
0000
0000
0010
1000
0000
0010
1000
0000
0000
,
0000
1000
0001
0000
1000
0001
0000
0000
0010
0000
1000
0000
0100
0000
0010
0000
,
0001
0010
0100
2000
0000
3010
0000
0100
0010
0100
1000
0002
0000
1003
0000
0001
,
1000
0000
0001
1000
0000
0001
0000
0010
1001
0000
0011
0000
1100
0000
0110
0010
,
0010
0100
0100
0002
0000
0013
0000
0010
0010
0100
0100
2000
0000
3100
0000
0001
,
1000
0000
0001
1000
0000
0200
0000
0002
0000
0000
0303
0000
0000
0000
0100
0000
,
1001
0000
0000
0000
0000
0010
0100
0010
0000
0010
0000
0010
0000
0010
0000
1001
,
0000
0000
0000
0000
0000
0100
0010
0001
0000
0001
0010
0100
0000
0001
1000
2002
,
0000
0000
0000
3003
0000
0010
0100
1000
0000
0100
0000
0010
0000
0110
0000
0202
,
0000
0000
0000
0000
0000
0000
0303
0000
0010
1000
0100
0100
0000
0010
0000
1000
,
0000
1000
0100
0000
1000
0100
0000
0000
0000
0001
0100
0000
0001
0100
0000
0000
,
0000
1000
0001
0000
1000
0001
0000
0000
1001
0000
1100
0000
0101
0000
0110
0000
,
1001
1000
0010
0000
1000
0010
0000
0000
0000
0001
0010
0000
0001
0010
0000
0000
,
0000
0001
1000
0000
0001
1000
0000
0000
0101
0000
1100
0000
0110
0000
1001
0000
,
1001
0001
1000
0000
1000
0001
0000
0000
0000
1000
0001
0000
0001
1000
0000
0000
,
0000
0100
0010
0000
0010
0100
0000
0000
1001
0000
0110
0000
0110
0000
1001
0000
,
1001
0010
1001
0000
0100
0110
0000
0000
0000
0010
1010
0000
0100
0101
0000
0000
,
0000
0010
0011
0000
0100
1100
0000
0000
0010
0100
1000
0100
0010
0001
0100
0100
,
0000
1000
0001
0000
1000
0001
0000
0000
0000
0100
0010
0000
0100
0010
0000
0000
,
0000
1000
0100
0000
0001
0100
0000
0000
1001
0000
1001
0000
0110
0000
1001
0000
,
0110
0001
0100
0000
1000
0100
0000
0000
0000
0010
1000
0000
0010
0001
0000
0000
,
0000
0100
0010
0000
0001
1000
0000
0000
0011
0000
1010
0000
0101
0000
1100
0000
,
2002
0000
0000
3003
0000
0000
0000
0000
;

//---------------dance-single - BEGINNER----------------
#NOTES:
     dance-single:
     BEGINNER:
     Beginner:
     1:
     0.072,0.083,0.022,0.000,0.000,43.000,2.000,0.000,0.000,0.000:
0000
0000
0000
0000
,
0000
0000
0000
0000
,
1001
0000
0100
0000
,
0100
0000
0010
0000
,
0010
0000
1000
0000
,
0001
0000
0100
0000
,
1000
0000
0100
0000
,
0010
0000
0001
0000
,
1000
0000
0010
0000
,
0100
0000
0001
0000
,
0001
0000
0100
0000
,
0100
0000
0001
0000
,
0001
0000
0010
0000
,
0010
0000
1000
0000
,
0001
0000
0100
0000
,
0000
0001
0000
1000
,
0000
0010
0000
0000
,
0000
0100
0000
0010
,
1000
0000
0001
0000
,
0000
1000
0000
0100
,
0000
0010
0000
0000
,
0000
1000
0000
0001
,
0000
0100
0000
0000
,
0000
0001
0000
1000
,
0000
0100
0000
0000
,
1001
0000
0000
0000
;
