#TITLE:Chobits;
#SUBTITLE:- Dark Chii Theme [Fuuma Dialogue Mix];
#ARTIST:Keitaro Takanami;
#TITLETRANSLIT:;
#SUBTITLETRANSLIT:;
#ARTISTTRANSLIT:;
#CREDIT:Anime Toshokan;
#BANNER:Chobits - Dark Chii Theme [Fuuma Dialogue Mix].png;
#BACKGROUND:Chobits - Dark Chii Theme [Fuuma Dialogue Mix] bg.png;
#LYRICSPATH:;
#CDTITLE:dejiko.png;
#MUSIC:Chobits - Dark Chii Theme [Fuuma Dialogue Mix].mp3;
#OFFSET:0.042;
#SAMPLESTART:71.040;
#SAMPLELENGTH:13.600;
#SELECTABLE:YES;
#DISPLAYBPM:140.000;
#BPMS:0.000=140.000,96.000=70.000,96.500=140.000,146.500=70.000,147.500=35.000,148.000=17.500,148.750=140.000,384.000=70.000,385.000=35.000,385.500=17.500,385.750=8.760;
#STOPS:50.000=1.286
,96.500=0.643
,148.250=1.821
,305.000=0.857
,349.000=2.143
;
#BGCHANGES:;
// cache tags:
#FIRSTBEAT:6.000;
#LASTBEAT:386.000;
#SONGFILENAME:Songs/DDR Anime 2nd Mix/Chobits - Dark Chii Theme [Fuuma Dialogue Mix]/Chobits - Dark Chii Theme [Fuuma Dialogue Mix].sm;
#HASMUSIC:1;
#HASBANNER:1;
#MUSICLENGTH:185.417;
// end cache tags

//---------------dance-single - CHALLENGE----------------
#NOTES:
     dance-single:
     CHALLENGE:
     Challenge:
     9:
     0.461,0.572,0.146,0.404,0.272,496.000,27.000,75.000,0.000,0.000:
0000
0000
0000
0000
,
0000
0000
0000
0000
0000
0000
0000
0000
1000
0000
0000
0100
0000
0000
0010
0000
,
0000
0001
0000
0000
1000
0000
0100
0000
1000
0000
0000
0010
0000
0000
0100
0000
,
0000
0010
0000
0000
0001
0000
1000
0000
0001
0000
0000
0010
0000
0000
1000
0000
,
0000
0100
0000
0000
0001
0000
0010
0000
1000
0000
0000
0001
0000
0000
0100
0000
,
0000
0001
0000
0000
0010
0000
0100
0000
0010
0000
0000
1000
0000
0000
0010
0000
,
0000
0100
0000
0000
0001
0000
0010
0000
0100
0000
0000
1000
0000
0000
0010
0000
,
0000
1000
0000
0000
0001
0000
0100
0000
1000
0000
0000
0010
0000
0000
0001
0000
,
0000
1000
0000
0000
0100
0000
0001
0000
0100
0000
0000
0010
0000
0000
1000
0000
,
0000
0010
0000
0000
0010
0000
0001
0000
0010
0000
0000
0100
0000
0000
1000
0000
,
0000
0100
0000
0000
0010
0000
1000
0000
0010
0000
0000
1000
0000
0000
0001
0000
,
0000
1000
0000
0000
0001
0000
1000
0000
0001
0000
0000
0100
0000
0000
0010
0000
,
0000
0100
0000
0000
0010
0000
0100
0000
0001
0000
0000
0000
0200
0000
0000
0000
,
0001
0010
1000
0302
,
0010
0000
0000
0000
1000
0000
0000
0003
0200
0000
0000
0300
2000
0000
0000
0000
,
0010
0000
0000
0000
0001
0000
0000
0000
0100
3000
0001
0100
2000
0000
0000
0000
,
0100
0000
0000
0000
0010
0000
0000
3000
0002
0000
0000
0003
0020
0000
0000
0000
,
1000
0000
0000
0000
0100
0000
0000
0000
1000
0000
0000
0030
0200
0000
0000
0000
,
0001
0000
0000
0000
0000
0000
0000
0000
0000
0300
0000
0000
2000
0000
0000
0000
0000
0000
0000
0000
3200
0000
0000
0000
0000
0000
0000
0000
0300
0000
0020
0000
0000
0000
0000
0000
0032
0000
0000
0000
0000
0000
0000
0000
0000
0000
0000
0000
,
0100
0000
0000
0000
0010
0000
0000
0000
0100
0003
0010
0100
2000
0000
0000
0000
,
0100
0000
0000
0000
0010
0000
0000
3000
0002
0000
0000
0003
0020
0000
0000
0000
,
1000
0000
0000
0000
0001
0000
0000
0000
1000
0000
0000
0030
0200
0000
0000
0000
,
1000
0000
0000
0000
0001
0000
0000
0300
0020
0000
0000
0030
0002
0000
0000
0000
,
0000
0003
0010
0001
0200
0000
0000
0000
1000
0000
0000
0000
0010
0000
0000
0000
,
1000
0000
1300
0000
2001
0000
0000
0100
0000
0000
0010
0000
0000
0100
0000
0000
,
0001
0000
3001
0000
0102
0000
0000
0010
0000
0000
1000
0000
0000
0010
0000
0000
,
0100
0000
0103
0000
1200
0000
0000
0001
0000
0000
1000
0000
0000
0001
0000
0000
,
0010
0000
0310
0000
1020
0000
0000
0100
0000
0000
0001
0000
0000
0100
0000
0000
,
0001
0000
0031
0000
1002
0000
0000
0100
0000
0000
1000
0000
0000
0010
0000
0000
,
0100
0000
0103
0000
0210
0000
0000
0001
0000
0000
0010
0000
0000
1000
0000
0000
,
0001
0000
0301
0000
0102
0000
0000
0010
0000
0000
0100
0000
0000
0010
0000
0000
,
1000
0000
1003
0000
2100
0000
0000
0001
0000
0000
0010
0000
0000
0001
0000
0000
,
0100
0000
3100
0000
0210
0000
0000
0001
0000
0000
1000
0000
0000
0001
0000
0000
,
0010
0000
0310
0000
0021
0000
0000
0001
0000
0000
0100
0000
0000
0001
0000
0000
,
1000
0000
1030
0000
2100
0000
0000
0100
0000
0000
0010
0000
0000
0100
0000
0000
,
0001
0000
3001
0000
0102
0000
0000
1000
0000
0000
0100
0000
0000
1000
0000
0000
,
0010
0013
2002
0000
0000
0000
0000
0000
,
0000
3003
0000
0000
2001
0000
0000
0000
0010
0000
0000
0000
0001
0000
0000
0000
,
0010
0000
0000
3000
0002
0000
0000
0000
1000
0000
0000
0000
0100
0000
0000
0003
,
2000
0000
0000
3000
0020
0000
0000
0000
0100
0000
0000
0000
0001
0000
0000
0000
,
1000
0030
0100
0010
0002
0000
0000
0000
0010
0000
0000
0000
1000
0000
0000
0003
,
0200
0000
0000
0300
0020
0000
0000
0000
1000
0000
0000
0000
0100
0000
0000
0000
,
0001
0000
0000
0000
0000
0000
0000
0000
0000
0030
0000
0000
2000
0000
0000
0000
0000
0000
0000
0000
0000
0000
0000
0000
0001
0000
0000
0000
0000
0000
0000
0000
0000
3000
0000
0000
0200
0000
0000
0000
0000
0000
0300
0000
0002
0000
0000
0000
,
0000
0000
0003
0020
0000
0000
2030
0000
0000
0000
0000
0000
0010
0000
0000
0000
0000
0000
0001
0000
0000
0000
0000
0000
,
3100
0000
0010
0100
0002
0000
0000
0000
0010
0000
0000
0000
1000
0000
0000
0003
,
0200
0000
0000
0300
0020
0000
0000
0000
1000
0000
0000
0000
0001
0000
0000
0000
,
1000
0000
0000
0030
0200
0000
0000
0000
0001
0000
0000
0000
1000
0000
0000
0000
,
0302
0000
0000
0003
0020
0000
0000
0000
0000
0030
0100
0010
2000
0000
0000
0000
,
0001
0100
0001
0100
,
0010
0000
3000
0000
2002
0000
0000
0000
0000
0000
0000
3003
0000
0000
0000
0000
,
0000
0000
0000
0000
1000
0100
1000
0100
,
1000
0000
0000
0000
0001
0100
0001
0100
,
0001
0000
0000
0000
1000
0010
1000
0010
,
1000
0000
0000
0000
0001
0010
0001
0010
,
0001
0000
0000
0000
1000
0100
0010
0100
,
1000
0000
0000
0000
0001
0010
0100
0010
,
0001
0000
0000
0000
1000
0100
0001
0010
,
1000
0000
1000
0100
,
0010
0001
1000
0010
,
0100
0001
0010
0100
,
1000
0001
0100
0010
,
1000
0000
0100
0000
1000
0100
0010
0001
,
0010
0100
1000
0100
0001
0100
1000
0010
,
0001
0010
1000
0100
0010
0001
1000
0010
,
0100
0000
0001
0000
1000
0100
1000
0100
1000
0100
1000
0100
1000
0100
1000
0100
,
1000
0100
1000
0100
2000
0000
0000
0000
0100
0000
0000
0000
0010
0000
0000
0000
,
0001
0000
0000
3000
0020
0000
0000
0000
0001
0000
0000
0000
0100
0000
0000
0030
,
2000
0000
0000
3000
0020
0000
0000
0000
0001
0000
0000
0000
1000
0000
0000
0000
,
0130
0000
0001
1000
0200
0000
0000
0000
0001
0000
0000
0000
0010
0000
0000
0300
,
2000
0000
0000
3000
0020
0000
0000
0000
0001
0000
0000
0000
0100
0000
0000
0000
,
1000
0000
0000
0000
0000
0000
0000
0000
0000
0030
0000
0000
0200
0000
0000
0000
0000
0000
0000
0000
0000
0000
0000
0000
0010
0000
0000
0000
0000
0000
0000
0000
0000
0300
0000
0000
2000
0000
0000
0000
0000
0000
0000
0000
3200
0000
0000
0000
,
0000
0000
0300
0020
0000
0000
0032
0000
0000
0000
0000
0000
0010
0000
0000
0000
0000
0000
0100
0000
0000
0000
0000
0000
,
0013
0000
1000
0001
0200
0000
0000
0000
0001
0000
0000
0000
0010
0000
0000
0300
,
2000
0000
0000
3000
0020
0000
0000
0000
1000
0000
0000
0000
0001
0000
0000
0000
,
0100
0000
0000
0030
0002
0000
0000
0000
0010
0000
0000
0000
0100
0000
0000
0000
,
2003
0000
0000
3000
0020
0000
0000
0000
0030
0000
0001
1000
0200
0000
0000
0000
,
0000
0000
0000
0000
0300
0000
0000
0000
0000
0000
1000
1000
0000
0000
0000
0000
,
0000
0000
0000
0000
0000
0000
0000
0100
1000
0001
1000
0010
1000
0000
0010
0000
,
0100
0000
0001
0000
0000
0000
0000
0000
0000
0000
1000
0100
1000
0000
0000
0000
,
0000
0000
0000
0000
0000
0000
0000
0000
0000
1000
0100
0010
0001
0000
0010
0000
,
0100
1000
0000
0000
0000
0000
0000
0000
,
1001
0000
0000
0000
1001
0000
0000
1000
0000
0000
0100
0000
0010
0000
0001
0000
,
0100
0000
1000
0000
0000
0000
0000
0000
0000
0000
0000
0000
0000
0000
1000
0010
,
0001
0000
0000
0000
0001
0000
0000
0010
0000
0000
0100
0000
1000
0000
0000
0100
,
0000
0100
1000
0100
0010
0001
0010
0100
1000
0100
0010
0001
0100
0000
0000
0000
,
0001
0000
0000
0000
0001
0000
0000
0100
0000
0000
1000
0000
0010
0000
0000
0000
,
0000
0000
0000
0000
1000
0000
0000
0100
0000
0000
0001
0000
0010
0000
0000
0000
,
0000
0000
1000
0010
0100
0000
0000
0000
1010
0000
0000
0100
0000
0000
1000
0000
,
0000
0010
0000
0000
0001
0000
0100
0000
1010
0000
0000
0001
0000
0000
1000
0000
,
0000
0010
0000
0000
0100
0000
0010
0000
1010
0000
0000
0001
0000
0000
0100
0000
,
0000
0010
0000
0000
1000
0000
0100
0000
0011
0000
0000
1000
0000
0000
0100
0000
,
0000
0010
0000
0000
0001
0000
0010
0000
1100
0000
0000
1000
0000
0000
0100
0000
,
0000
0001
0000
0000
0010
0000
1000
0000
0101
0000
0000
0100
0000
0000
1000
0000
,
0000
0100
0000
0000
0010
0000
0001
0000
0011
0000
0000
0100
0000
0000
1000
0000
,
0000
0010
0000
0000
0001
0000
0010
0000
1010
0000
0000
0100
0000
0000
0001
0000
,
0110
0000
1000
0100
2002
0000
0000
0000
,
0000
0000
3003
0000
;
