#TITLE:Digimon Frontier;
#SUBTITLE:- Fire!;
#ARTIST:Wada Kouji;
#TITLETRANSLIT:;
#SUBTITLETRANSLIT:;
#ARTISTTRANSLIT:;
#CREDIT:Anime Toshokan;
#BANNER:Digimon Frontier - Fire!.png;
#BACKGROUND:Digimon Frontier - Fire! bg.png;
#LYRICSPATH:;
#CDTITLE:dejiko.png;
#MUSIC:Digimon Frontier - Fire!.mp3;
#OFFSET:-0.368;
#SAMPLESTART:55.950;
#SAMPLELENGTH:12.000;
#SELECTABLE:YES;
#BPMS:0.000=165.870;
#STOPS:;
#BGCHANGES:;
// cache tags:
#FIRSTBEAT:16.000;
#LASTBEAT:240.500;
#SONGFILENAME:Songs/DDR Anime 4th Mix/Digimon Frontier - Fire!/Digimon Frontier - Fire!.sm;
#HASMUSIC:1;
#HASBANNER:1;
#MUSICLENGTH:89.689;
// end cache tags

//---------------dance-single - BASIC----------------
#NOTES:
     dance-single:
     BASIC:
     Easy:
     4:
     0.269,0.300,0.212,0.190,0.000,133.000,19.000,17.000,0.000,0.000:
0000
0000
0000
0000
,
0000
0000
0000
0000
,
0000
0000
0000
0000
,
0000
0000
0000
0000
,
1001
0000
1000
0200
,
0000
0300
0000
0001
,
0200
0000
0300
0000
,
1001
1001
1001
0000
,
1000
1000
1000
1000
,
0100
0100
0100
0100
,
0010
0010
0010
0010
,
0001
0001
0001
0001
,
0000
1000
0100
1000
,
0001
0100
0000
0010
,
1000
0010
1000
0010
,
0100
0110
0000
0001
,
0001
1000
1000
0000
,
0100
0100
0000
0000
,
0110
0000
1001
0000
,
0110
0000
1001
0000
,
0000
0001
0100
0001
,
1000
0100
0000
0010
,
0001
0010
0001
0010
,
0100
0110
0000
1000
,
1000
0001
0001
0000
,
0100
0100
0010
0010
,
0000
0000
0010
0000
1001
0000
0000
0100
,
0000
0100
0000
0100
0000
0000
0000
0000
,
0002
0000
0000
0003
,
0020
0000
0000
0030
,
0200
0000
0000
0300
,
0020
0000
0000
0030
,
0002
0000
0000
0003
,
2000
0000
0000
3000
,
0020
0000
0000
0030
,
0200
0000
0000
0300
,
0020
0000
0000
0000
,
0000
0000
0000
0000
,
0030
0000
1001
0000
,
0002
0000
0013
0000
,
2000
0000
3010
0000
,
0100
0001
0001
0010
,
0200
0000
0300
0000
,
1000
0001
0100
0100
,
0001
0000
0010
1001
,
1001
1001
0000
0000
,
0000
0000
0000
0000
,
2000
0000
3100
0000
,
0002
0000
0103
0000
,
0010
1000
1000
0100
,
0020
0000
0030
0000
,
0001
1000
0100
0100
,
1000
0000
0100
1001
,
1001
1001
0000
0000
,
0000
1000
0100
0001
,
0100
1000
0000
0000
,
0000
0010
0001
0100
,
1000
0010
0000
0000
,
0000
0010
1000
0100
,
0001
0000
0010
0000
0000
0000
0000
0110
;

//---------------dance-single - ANOTHER----------------
#NOTES:
     dance-single:
     ANOTHER:
     Medium:
     6:
     0.376,0.436,0.201,0.301,0.000,191.000,18.000,27.000,0.000,0.000:
0000
0000
0000
0000
,
0000
0000
0000
0000
,
0000
0000
0000
0000
,
0000
0000
0000
0000
,
2002
0000
0003
0000
0001
3001
0001
0000
,
0000
0000
0000
2002
,
3000
0000
1000
1003
1000
0000
0000
0110
,
0000
0110
0000
1001
0000
0110
0000
0000
,
1001
0001
0001
1000
,
0010
0010
0100
0100
,
1001
1000
1000
0001
,
0010
0010
0100
0100
,
0000
0000
1000
0100
1000
0000
0010
0000
,
0100
0000
0001
0001
0000
0000
1000
0000
,
0001
0000
1000
0000
0001
0000
0000
0110
,
0000
0110
0000
0000
1000
0000
0001
0000
,
1000
0100
0000
0000
,
0010
0001
0000
0001
0010
0000
0000
0000
,
0020
0030
2000
3000
,
0200
0300
0002
0003
,
0000
0000
0001
0100
0001
0000
0010
0000
,
0100
0000
1000
1000
0000
0000
0001
0000
,
1000
0000
0001
0000
1000
0000
0000
0110
,
0000
0110
0000
0000
0001
0000
1000
0000
,
0001
0000
0100
0000
0000
0000
0000
0010
,
0100
0000
0000
0010
0000
1000
0000
0001
,
0000
0000
1001
0000
1001
0000
0000
0110
,
0000
0110
0000
0110
0000
0000
0000
2000
,
0000
0000
0000
0000
3001
0000
0000
0200
,
0000
0000
0000
0300
0020
0000
0001
0000
,
1000
0100
1000
0100
,
0001
0000
0100
0000
0030
0000
0000
0002
,
0000
0000
0000
0000
1003
0000
0000
0200
,
0000
0000
0000
0300
0020
0000
1000
0000
,
0001
0100
0001
0100
,
1000
0000
0100
0000
0130
0100
0100
0200
,
0000
0000
0000
0000
,
0000
0000
0000
0300
,
0000
0000
1001
2000
,
0000
0000
3100
0100
0000
0000
0002
0000
,
0000
0000
0103
0100
0000
0000
0010
1000
,
0002
0010
0010
0103
,
0200
0000
0300
0000
,
0010
1000
0010
1000
0001
0100
0001
0100
,
0000
0000
0000
1000
0000
0100
0000
0010
,
0010
0000
0000
0000
0001
0000
1000
1000
,
0000
0100
0000
0010
0010
0000
0002
0000
,
0000
0000
0013
0010
0000
0000
2000
0000
,
0000
0000
3010
0010
0000
0000
0100
0001
,
2000
0100
0100
3010
,
0020
0000
0030
0000
,
0100
0001
0100
0001
1000
0010
1000
0010
,
0000
0000
0000
0001
0000
0010
0000
0100
,
0100
0000
1000
0000
0001
0001
0200
0000
,
0000
0300
0010
0000
1000
0000
1000
0000
,
0001
0000
0001
0000
1000
1000
0200
0000
,
0000
0300
0010
0000
0001
0000
0001
0000
,
1000
0000
1000
0000
0100
0100
0020
0000
,
0000
0030
0001
0000
1000
0000
1000
0000
,
0010
0000
0010
0000
0100
0100
0020
0000
,
0000
0030
0000
0000
0000
0000
0000
0000
;

//---------------dance-single - MANIAC----------------
#NOTES:
     dance-single:
     MANIAC:
     Hard:
     8:
     0.471,0.534,0.223,0.223,0.000,256.000,20.000,20.000,0.000,0.000:
0000
0000
0000
0000
,
0000
0000
0000
0000
,
0000
0000
0000
0000
,
0000
0000
0000
0000
,
1010
0000
0000
0000
0010
0100
0001
0000
,
0101
0000
0000
0000
0001
1000
0100
0000
,
1100
0000
0000
0000
0100
0010
0000
0011
,
0000
1001
0000
0110
0000
1001
0000
0000
,
0220
0030
0010
0310
,
1000
0100
0010
0001
,
0220
0030
0010
0310
,
0001
0100
0010
1000
,
0000
0000
0001
0010
0100
0000
1000
0010
,
0100
0001
0010
0010
0000
0000
0100
1000
,
0001
1000
0001
1000
0100
0000
0000
0020
,
0000
0031
0000
0000
0001
0100
0010
0100
,
0001
1000
0100
1000
0000
0000
0010
0100
,
0001
0002
2000
0000
0000
3003
0000
0000
,
2020
0000
0000
3030
0022
0000
0000
0033
,
2200
0000
0000
3300
0202
0000
0000
0303
,
0000
0000
1000
0010
0100
0000
0001
0010
,
0100
1000
0010
0010
0000
0000
0100
0001
,
1000
0001
1000
0001
0100
0000
0000
0020
,
0000
1030
0000
0000
1000
0100
0010
0100
,
1000
0001
0100
0001
0000
0000
0010
0100
,
0000
0000
0000
1000
0000
0001
0000
0100
,
0000
0000
0010
0000
0100
0000
0000
1001
,
0000
1100
0000
0101
0000
0000
0000
1000
,
0100
0000
0000
0000
0010
0000
0000
0001
,
1000
0000
0000
0000
0010
0000
0000
0100
,
0001
0010
0100
0010
0001
0100
0010
1000
,
0100
0010
0001
0000
0000
0000
0000
0001
,
0100
0000
0000
0000
0010
0000
0000
1000
,
0001
0000
0000
0000
0010
0000
0000
0100
,
1000
0010
0100
0010
1000
0100
0010
0001
,
0100
0010
1000
0000
0001
1000
0002
2000
,
0000
0000
0000
0000
,
0000
0000
0000
3003
,
0000
0000
0000
0000
1001
1001
0000
1000
,
0000
0010
0100
0001
0000
0000
0000
0001
,
0000
0010
0100
1000
0000
0000
0010
0010
,
0100
0001
1000
0100
1000
0001
1000
0200
,
0000
0000
0000
0300
0000
0000
0000
0010
,
0000
0001
0100
0001
0100
1000
0100
1000
,
0000
0000
0100
0001
0010
0100
0000
0100
,
1000
0000
0000
1000
0001
1000
0001
0010
,
0000
0000
0010
0110
0000
0000
0000
0001
,
0000
0100
0010
1000
0000
0000
0000
1000
,
0000
0100
0010
0001
0000
0000
0010
0010
,
0100
1000
0001
0100
0001
1000
0001
0200
,
0000
0000
0000
0300
0000
0000
0000
0010
,
0000
1000
0100
1000
0100
0001
0100
0001
,
0000
0000
0100
1000
0010
0100
0000
0100
,
0001
0000
0000
0010
1000
0001
0000
0001
,
0010
0000
1000
0100
0010
1000
0100
0010
,
0001
0100
0000
0010
0001
1000
0000
1000
,
0010
0000
0001
0100
0010
0001
0100
0010
,
1000
0100
0000
0010
0001
0100
0000
0100
,
0010
0000
0010
1000
0100
0001
0100
1000
,
0010
0100
0000
0001
1000
0100
0000
0110
;

//---------------dance-single - BEGINNER----------------
#NOTES:
     dance-single:
     BEGINNER:
     Beginner:
     2:
     0.183,0.267,0.134,0.178,0.000,87.000,12.000,16.000,0.000,0.000:
0000
0000
0000
0000
,
0000
0000
0000
0000
,
0000
0000
0000
0000
,
0000
0000
0000
0000
,
1001
0000
1000
0000
,
0000
0000
0000
0001
,
0200
0000
0300
0000
,
1001
0000
1001
0000
,
1000
0000
1000
0000
,
0100
0000
0100
0000
,
0010
0000
0010
0000
,
0001
0000
0001
0000
,
0000
1000
0100
0000
,
0001
0000
0000
0010
,
1000
0000
1000
0000
,
0100
0000
0000
0001
,
0001
0000
1000
0000
,
0100
0000
0000
0000
,
0110
0000
1001
0000
,
0110
0000
1001
0000
,
0000
0001
0100
0000
,
1000
0000
0000
0010
,
0001
0000
0001
0000
,
0100
0000
0000
1000
,
1000
0000
0001
0000
,
0100
0000
0010
0000
,
0000
0010
1001
0000
,
0000
0000
0000
0000
,
0002
0000
0000
0003
,
0020
0000
0000
0030
,
0200
0000
0000
0300
,
0020
0000
0000
0030
,
0002
0000
0000
0003
,
2000
0000
0000
3000
,
0020
0000
0000
0030
,
0200
0000
0000
0300
,
0020
0000
0000
0000
,
0000
0000
0000
0000
,
0030
0000
1001
0000
,
0002
0000
0013
0000
,
2000
0000
3010
0000
,
0100
0000
0001
0000
,
0200
0000
0300
0000
,
1000
0000
0100
0000
,
0001
0000
0010
0000
,
1001
0000
0000
0000
,
0000
0000
0000
0000
,
2000
0000
3100
0000
,
0002
0000
0103
0000
,
0010
0000
1000
0000
,
0020
0000
0030
0000
,
0001
0000
0100
0000
,
1000
0000
0100
0000
,
1001
0000
0000
0000
,
0000
1000
0100
0000
,
0100
0000
0000
0000
,
0000
0010
0001
0000
,
1000
0000
0000
0000
,
0000
0010
1000
0000
,
0001
0000
0000
0000
0000
0000
0000
0110
;
